<?xml version="1.0" standalone="no"?>
<!DOCTYPE svg PUBLIC "-//W3C//DTD SVG 1.1//EN" "http://www.w3.org/Graphics/SVG/1.1/DTD/svg11.dtd" >
<svg xmlns="http://www.w3.org/2000/svg" xmlns:xlink="http://www.w3.org/1999/xlink" version="1.1">
<metadata>
Created by FontForge 20170731 at Thu Jun 23 20:53:40 2022
 By Aleksey,,,
Copyright (c) 2014 by Dieter Hofrichter. All rights reserved.
</metadata>
<defs>
<font id="OrgonSlab-Bold" horiz-adv-x="806" >
  <font-face 
    font-family="Orgon Slab"
    font-weight="700"
    font-stretch="normal"
    units-per-em="2048"
    panose-1="2 0 5 3 0 0 0 2 0 4"
    ascent="1536"
    descent="-512"
    x-height="1028"
    cap-height="1446"
    bbox="-326 -606 2601 2030"
    underline-thickness="102"
    underline-position="-307"
    unicode-range="U+0020-FB04"
  />
<missing-glyph horiz-adv-x="1026" 
d="M0 0v1448h1026v-1448h-1026zM514 817l348 526h-698zM573 725l353 -526v1052zM164 102h698l-348 529zM102 1251v-1052l351 526z" />
    <glyph glyph-name="f_f" unicode="ff" horiz-adv-x="1415" 
d="M590 0h-457q-53 0 -53 55v117q0 53 57 53h66v576h-84q-60 0 -60 57v111q0 25 14 42t44 17h86v115q0 205 92 287q51 42 121 61.5t184 19.5q106 0 158 -18q33 -15 33 -55q0 -44 -15 -121q-3 -18 -17 -28.5t-32 -10.5q-6 0 -45.5 5t-65.5 5q-84 0 -112 -41q-29 -39 -29 -143
v-76h424v156q0 204 92 286q51 43 123 62.5t191 19.5q113 0 163 -18q35 -14 35 -55q0 -39 -16 -121q-3 -18 -16.5 -28.5t-32.5 -10.5q-6 0 -46.5 5t-66.5 5q-92 0 -125 -41q-29 -37 -29 -143v-117h170q56 0 56 -57v-119q0 -23 -15 -37t-43 -14h-168v-576h113q55 0 55 -55
v-121q0 -29 -12.5 -39t-40.5 -10h-457q-53 0 -53 55v117q0 53 58 53h65v576h-424v-576h113q55 0 55 -55v-121q0 -29 -12.5 -39t-40.5 -10z" />
    <glyph glyph-name="fi" unicode="fi" horiz-adv-x="1339" 
d="M569 0h-436q-53 0 -53 55v117q0 53 57 53h66v578h-84q-60 0 -60 59v107q0 25 14 42t44 17h86v156q0 211 94 289q53 41 119.5 60t173.5 19q101 0 147 -18q35 -14 35 -49q0 -55 -14 -127q-9 -39 -49 -39q-2 0 -38.5 5t-60.5 5q-74 0 -106 -35q-29 -39 -29 -143v-123h621
q59 0 59 -63v-740h68q30 0 43.5 -11.5t13.5 -39.5v-125q0 -29 -12.5 -39t-42.5 -10h-406q-53 0 -53 55v117q0 53 55 53h58v578h-404v-578h92q29 0 42.5 -13t13.5 -42v-121q0 -29 -12 -39t-42 -10zM1151 1348q0 -82 -38 -118t-112 -36q-69 0 -108 34t-39 118q0 153 147 153
q73 0 111.5 -34t38.5 -117z" />
    <glyph glyph-name="fl" unicode="fl" horiz-adv-x="1339" 
d="M569 0h-436q-53 0 -53 55v117q0 53 57 53h66v578h-84q-60 0 -60 57v109q0 25 14 42t44 17h86v139q0 202 106 297q106 88 363 88q163 0 288 -11.5t154 -22.5q17 -6 29 -28t12 -50v-1215h68q57 0 57 -55v-121q0 -29 -12.5 -39t-42.5 -10h-406q-53 0 -53 55v117q0 53 55 53
h58v1090q-98 14 -211 14q-112 0 -154 -45q-39 -39 -39 -147v-109h174q26 0 41 -15.5t15 -41.5v-115q0 -24 -15 -38.5t-43 -14.5h-172v-578h92q29 0 42.5 -13t13.5 -42v-121q0 -29 -12 -39t-42 -10z" />
    <glyph glyph-name="f_f_i" unicode="ffi" horiz-adv-x="2031" 
d="M590 0h-457q-53 0 -53 55v117q0 53 57 53h66v576h-84q-60 0 -60 57v111q0 25 14 42t44 17h86v115q0 205 92 287q51 42 121 61.5t184 19.5q106 0 158 -18q33 -15 33 -55q0 -44 -15 -121q-4 -18 -17.5 -28.5t-31.5 -10.5q-6 0 -45.5 5t-65.5 5q-84 0 -112 -41
q-29 -39 -29 -143v-76h420v156q0 211 94 289q54 42 115.5 60.5t167.5 18.5q112 0 158 -18q34 -14 34 -49q0 -55 -14 -127q-9 -39 -49 -39q-2 0 -38 5t-60 5q-79 0 -107 -35q-17 -20 -23 -51.5t-6 -91.5v-123h621q59 0 59 -63v-740h68q30 0 43.5 -11.5t13.5 -39.5v-125
q0 -29 -12.5 -39t-42.5 -10h-406q-53 0 -53 55v117q0 53 55 53h58v578h-404v-578h113q55 0 55 -55v-121q0 -29 -12.5 -39t-40.5 -10h-457q-53 0 -53 55v117q0 53 57 53h66v576h-420v-576h113q55 0 55 -55v-121q0 -29 -12.5 -39t-40.5 -10zM1847 1348q0 -83 -38.5 -119.5
t-114.5 -36.5q-71 0 -111.5 34.5t-40.5 119.5q0 157 152 157q75 0 114 -34.5t39 -120.5z" />
    <glyph glyph-name="f_f_l" unicode="ffl" horiz-adv-x="2031" 
d="M590 0h-457q-53 0 -53 55v117q0 53 57 53h66v576h-84q-60 0 -60 57v111q0 25 14 42t44 17h86v115q0 205 92 287q51 42 121 61.5t184 19.5q106 0 158 -18q33 -15 33 -55q0 -44 -15 -121q-4 -18 -17.5 -28.5t-31.5 -10.5q-6 0 -45.5 5t-65.5 5q-84 0 -112 -41
q-29 -39 -29 -143v-76h420v139q0 202 106 297q106 88 353 88q163 0 293.5 -11.5t158.5 -22.5q41 -14 41 -70v-1223h68q57 0 57 -55v-121q0 -29 -12.5 -39t-42.5 -10h-406q-53 0 -53 55v117q0 53 55 53h58v1090q-98 14 -211 14q-112 0 -154 -45q-39 -39 -39 -147v-109h170
q56 0 56 -57v-115q0 -24 -15 -38.5t-43 -14.5h-168v-578h113q55 0 55 -55v-121q0 -29 -12.5 -39t-40.5 -10h-457q-53 0 -53 55v117q0 53 57 53h66v576h-420v-576h113q55 0 55 -55v-121q0 -29 -12.5 -39t-40.5 -10z" />
    <glyph glyph-name="T_h" unicode="Th" horiz-adv-x="2385" 
d="M854 0h-444q-56 0 -56 55v119q0 53 58 53h77v990h-206l-7 -113q-4 -51 -55 -51h-106q-28 0 -41 9.5t-13 37.5v291q0 55 56 55h1179v24q0 66 56 66h159q33 0 46.5 -17.5t13.5 -54.5v-528q31 55 118.5 86t194.5 31q97 0 157.5 -16t89.5 -42.5t46 -70.5q23 -61 23 -201v-498
h67q57 0 57 -53v-123q0 -29 -12.5 -39t-42.5 -10h-295q-49 0 -49 55v607q0 67 -10 98q-12 34 -40 47.5t-91 13.5q-96 0 -158 -28q-29 -10 -43 -31q-12 -20 -12 -62v-475h69q29 0 42.5 -13t13.5 -42v-121q0 -29 -12 -39t-42 -10h-413q-53 0 -53 55v117q0 53 55 53h65v992
h-520v-990h76q57 0 57 -55v-123q0 -29 -12.5 -39t-42.5 -10z" />
    <glyph glyph-name="Tcaron_h" unicode="&#x164;h" horiz-adv-x="2385" 
d="M854 0h-444q-56 0 -56 55v119q0 53 58 53h77v990h-206l-7 -113q-4 -51 -55 -51h-106q-28 0 -41 9.5t-13 37.5v291q0 55 56 55h1179v24q0 66 56 66h159q33 0 46.5 -17.5t13.5 -54.5v-528q31 55 118.5 86t194.5 31q97 0 157.5 -16t89.5 -42.5t46 -70.5q23 -61 23 -201v-498
h67q57 0 57 -53v-123q0 -29 -12.5 -39t-42.5 -10h-295q-49 0 -49 55v607q0 67 -10 98q-12 34 -40 47.5t-91 13.5q-96 0 -158 -28q-29 -10 -43 -31q-12 -20 -12 -62v-475h69q29 0 42.5 -13t13.5 -42v-121q0 -29 -12 -39t-42 -10h-413q-53 0 -53 55v117q0 53 55 53h65v992
h-520v-990h76q57 0 57 -55v-123q0 -29 -12.5 -39t-42.5 -10zM864 1896h92q27 0 41.5 -11.5t14.5 -29.5q0 -22 -21 -43l-203 -204q-54 -54 -98 -54h-119q-46 0 -90 48l-205 213q-18 18 -18 40q0 41 55 41h97q27 0 45.5 -8.5t42.5 -29.5l139 -121l139 121q23 21 41.5 29.5
t46.5 8.5z" />
    <glyph glyph-name="f_b" unicode="fb" horiz-adv-x="1906" 
d="M569 0h-436q-53 0 -53 55v117q0 53 57 53h66v578h-84q-60 0 -60 57v109q0 25 14 42t44 17h86v139q0 202 106 297q106 88 363 88q158 0 273.5 -11.5t148.5 -22.5q43 -16 43 -70v-485q91 88 315 88q190 0 280.5 -118t90.5 -394q0 -114 -13 -200.5t-40.5 -147t-65 -100
t-93.5 -62t-117 -31t-144 -8.5q-86 0 -154.5 19t-91.5 50l-2 -28q-3 -22 -18.5 -28.5t-51.5 -6.5h-106q-36 0 -50 14t-14 53v1252q-95 14 -194 14q-112 0 -154 -45q-39 -39 -39 -147v-109h174q26 0 41 -15.5t15 -41.5v-115q0 -24 -15 -38.5t-43 -14.5h-172v-578h92
q29 0 42.5 -13t13.5 -42v-121q0 -29 -12 -39t-42 -10zM1137 236q23 -15 72 -25t91 -10q78 0 125.5 15.5t75.5 55.5t37.5 98t9.5 154q0 169 -39 237t-153 68q-56 0 -110.5 -11.5t-82.5 -31.5q-17 -10 -22 -26q-4 -10 -4 -43v-481z" />
    <glyph glyph-name="f_f_b" unicode="ffb" horiz-adv-x="2598" 
d="M590 0h-457q-53 0 -53 55v117q0 53 57 53h66v576h-84q-60 0 -60 57v111q0 25 14 42t44 17h86v115q0 205 92 287q51 42 121 61.5t184 19.5q106 0 158 -18q33 -15 33 -55t-15 -121q-4 -18 -17.5 -28.5t-31.5 -10.5q-6 0 -45.5 5t-65.5 5q-79 0 -112 -41q-29 -45 -29 -143
v-76h420v139q0 202 106 297q106 88 363 88q158 0 273.5 -11.5t148.5 -22.5q43 -16 43 -70v-485q91 88 315 88q190 0 280.5 -118t90.5 -394q0 -114 -13 -200.5t-40.5 -147t-65 -100t-93.5 -62t-117 -31t-144 -8.5q-86 0 -154.5 19t-91.5 50l-2 -28q-3 -22 -18.5 -28.5
t-51.5 -6.5h-106q-36 0 -50 14t-14 53v1252q-95 14 -194 14q-112 0 -154 -45q-39 -39 -39 -147v-109h170q56 0 56 -57v-115q0 -24 -15 -38.5t-43 -14.5h-168v-578h113q55 0 55 -55v-121q0 -29 -12.5 -39t-40.5 -10h-457q-53 0 -53 55v117q0 53 57 53h66v576h-420v-576h113
q55 0 55 -55v-121q0 -29 -12.5 -39t-40.5 -10zM1829 236q23 -15 72 -25t92 -10q78 0 125.5 15.5t75.5 55.5t37.5 98t9.5 154q0 169 -39.5 237t-153.5 68q-56 0 -110.5 -11.5t-82.5 -31.5q-17 -10 -22 -26q-4 -10 -4 -43v-481z" />
    <glyph glyph-name="f_f_h" unicode="ffh" horiz-adv-x="2662" 
d="M590 0h-457q-53 0 -53 55v117q0 53 57 53h66v576h-84q-60 0 -60 57v111q0 25 14 42t44 17h86v115q0 205 92 287q51 42 121 61.5t184 19.5q106 0 158 -18q43 -19 43 -55q0 -11 -4.5 -31.5t-11 -47.5t-9.5 -42q-4 -18 -17.5 -28.5t-31.5 -10.5q-6 0 -45.5 5t-65.5 5
q-79 0 -112 -41q-29 -45 -29 -143v-76h420v139q0 202 106 297q106 88 373 88q161 0 278.5 -11t153.5 -23q41 -14 41 -70v-512q31 55 118.5 86t193.5 31q98 0 159 -16t90 -42.5t46 -70.5q20 -53 20 -201v-498h72q55 0 55 -53v-123q0 -29 -13 -39t-42 -10h-295q-49 0 -49 55
v607q0 64 -11 98t-39.5 47.5t-91.5 13.5q-99 0 -157 -28q-31 -9 -43 -31q-13 -22 -13 -62v-475h68q57 0 57 -55v-121q0 -29 -12.5 -39t-42.5 -10h-408q-29 0 -40 14t-11 41v117q0 27 11.5 40t41.5 13h60v1092q-99 12 -201 12q-122 0 -164 -45q-39 -39 -39 -147v-109h170
q56 0 56 -57v-115q0 -24 -15 -38.5t-43 -14.5h-168v-578h113q55 0 55 -55v-121q0 -29 -12.5 -39t-40.5 -10h-457q-53 0 -53 55v117q0 53 57 53h66v576h-420v-576h113q55 0 55 -55v-121q0 -29 -12.5 -39t-40.5 -10z" />
    <glyph glyph-name="f_f_j" unicode="ffj" horiz-adv-x="1994" 
d="M590 0h-457q-53 0 -53 55v117q0 53 57 53h66v576h-84q-60 0 -60 57v111q0 25 14 42t44 17h86v115q0 205 92 287q51 42 121 61.5t184 19.5q106 0 158 -18q33 -15 33 -55q0 -44 -15 -121q-3 -18 -17 -28.5t-32 -10.5q-6 0 -45.5 5t-65.5 5q-79 0 -112 -41q-29 -39 -29 -143
v-76h420v156q0 211 94 289q53 41 118.5 60t172.5 19q97 0 150 -16q32 -11 32 -49q0 -53 -14 -125q-10 -43 -47 -43q-2 0 -38 5t-60 5q-75 0 -107 -35q-29 -39 -29 -143v-123h611q57 0 57 -63v-1063q0 -221 -72 -301q-52 -57 -136 -84t-238 -27q-76 0 -76 59q0 78 2 105
q6 54 61 57q37 3 56.5 5t45 8.5t40.5 17.5q26 19 34.5 52.5t8.5 90.5v918h-394v-578h113q55 0 55 -55v-121q0 -29 -12.5 -39t-40.5 -10h-457q-53 0 -53 55v117q0 53 57 53h66v576h-420v-576h113q55 0 55 -55v-121q0 -29 -12.5 -39t-40.5 -10zM1835 1348q0 -83 -38.5 -119.5
t-115.5 -36.5q-71 0 -111 34.5t-40 119.5q0 157 151 157q75 0 114.5 -34.5t39.5 -120.5z" />
    <glyph glyph-name="f_f_k" unicode="ffk" horiz-adv-x="2590" 
d="M2494 803h-124q-71 -110 -156 -225q3 -4 35.5 -58t76 -125t76.5 -119q36 -51 84 -51h41q28 0 40.5 -12t12.5 -41v-119q0 -30 -15 -41.5t-44 -11.5h-178q-57 0 -89.5 23t-62.5 71l-190 322q-12 23 -31.5 30t-52.5 7h-70v-228h68q57 0 57 -55v-121q0 -29 -12.5 -39
t-42.5 -10h-412q-55 0 -55 55v117q0 53 57 53h64v1092q-99 12 -211 12t-154 -45q-39 -39 -39 -147v-109h170q56 0 56 -57v-115q0 -24 -15 -38.5t-43 -14.5h-168v-578h113q55 0 55 -55v-121q0 -29 -12.5 -39t-40.5 -10h-467q-27 0 -35 13t-8 42v117q0 53 57 53h66v576h-420
v-576h113q55 0 55 -55v-121q0 -29 -12.5 -39t-40.5 -10h-457q-53 0 -53 55v117q0 53 57 53h66v576h-84q-60 0 -60 57v111q0 25 14 42t44 17h86v115q0 205 92 287q51 42 121 61.5t184 19.5q106 0 158 -18q35 -16 35 -57q0 -46 -17 -119q-4 -18 -17.5 -28.5t-31.5 -10.5
q-6 0 -45.5 5t-65.5 5q-79 0 -112 -39q-29 -45 -29 -145v-76h420v139q0 202 106 297q106 88 363 88q159 0 284.5 -12t157.5 -22q41 -18 41 -70v-776h103q34 0 53.5 9.5t32.5 33.5l55 88q-27 0 -38 12.5t-11 38.5v121q0 26 12 39.5t43 13.5h397q29 0 42.5 -13t13.5 -42v-121
q0 -29 -13 -39t-43 -10z" />
    <glyph glyph-name="f_h" unicode="fh" horiz-adv-x="1970" 
d="M569 0h-436q-53 0 -53 55v117q0 53 57 53h66v578h-84q-60 0 -60 57v109q0 25 14 42t44 17h86v139q0 202 106 297q106 88 363 88q159 0 284.5 -12t157.5 -22q41 -18 41 -70v-512q31 55 118 86t193 31q98 0 159 -16t90 -42.5t46 -70.5q21 -56 21 -201v-498h71q56 0 56 -53
v-123q0 -29 -13.5 -39t-42.5 -10h-294q-50 0 -50 55v607q0 56 -10 98q-12 34 -40.5 47.5t-90.5 13.5q-86 0 -158 -28q-31 -9 -43 -31q-12 -20 -12 -62v-475h68q57 0 57 -55v-121q0 -29 -12.5 -39t-42.5 -10h-408q-29 0 -40 14t-11 41v117q0 27 11.5 40t41.5 13h60v1092
q-99 12 -211 12t-154 -45q-39 -39 -39 -147v-109h174q26 0 41 -15.5t15 -41.5v-115q0 -24 -15 -38.5t-43 -14.5h-172v-578h92q29 0 42.5 -13t13.5 -42v-121q0 -29 -12 -39t-42 -10z" />
    <glyph glyph-name="f_j" unicode="fj" horiz-adv-x="1302" 
d="M569 0h-436q-53 0 -53 55v117q0 53 57 53h66v578h-84q-60 0 -60 59v107q0 25 14 42t44 17h86v156q0 211 94 289q53 41 118.5 60t172.5 19q96 0 149 -16q33 -11 33 -49q0 -53 -14 -125q-10 -43 -47 -43q-2 0 -38.5 5t-60.5 5q-74 0 -106 -35q-29 -39 -29 -143v-123h610
q58 0 58 -63v-1063q0 -221 -72 -301q-52 -57 -136.5 -84t-238.5 -27q-75 0 -75 59q0 78 2 105q6 54 61 57q110 8 141 31q26 19 34.5 52.5t8.5 90.5v918h-393v-578h92q29 0 42.5 -13t13.5 -42v-121q0 -29 -12 -39t-42 -10zM1139 1348q0 -82 -37.5 -118t-112.5 -36
q-69 0 -107 34t-38 118q0 153 145 153q74 0 112 -34t38 -117z" />
    <glyph glyph-name="f_k" unicode="fk" horiz-adv-x="1900" 
d="M1802 803h-125q-97 -149 -155 -225q2 -3 35 -58.5t77 -126t78 -117.5q18 -28 35.5 -39.5t46.5 -11.5h41q28 0 40.5 -12t12.5 -41v-119q0 -30 -15 -41.5t-44 -11.5h-178q-57 0 -89.5 23t-62.5 71l-190 322q-12 23 -31.5 30t-52.5 7h-70v-228h68q57 0 57 -55v-121
q0 -29 -12.5 -39t-42.5 -10h-412q-55 0 -55 55v117q0 53 57 53h64v1092q-99 12 -211 12t-154 -45q-39 -39 -39 -147v-109h174q26 0 41 -15.5t15 -41.5v-115q0 -24 -15 -38.5t-43 -14.5h-172v-578h92q29 0 42.5 -13t13.5 -42v-121q0 -29 -12 -39t-42 -10h-436q-53 0 -53 55
v117q0 53 57 53h66v578h-84q-60 0 -60 57v109q0 25 14 42t44 17h86v139q0 202 106 297q106 88 363 88q159 0 284.5 -12t157.5 -22q41 -18 41 -70v-776h102q34 0 53.5 9.5t32.5 33.5l56 88q-27 0 -38 12.5t-11 38.5v121q0 26 12 39.5t43 13.5h397q29 0 42.5 -13t13.5 -42
v-121q0 -29 -13 -39t-43 -10z" />
    <glyph glyph-name="uni0162_h" unicode="&#x162;h" horiz-adv-x="2385" 
d="M684 -106q52 -2 89.5 -15t58 -31.5t32 -47.5t14.5 -55t3 -62q0 -222 -306 -222q-65 0 -108 9q-47 11 -47 55q0 31 10 69q8 25 19 34.5t34 9.5q7 0 27.5 -4t24.5 -5q20 -4 57 -4q42 0 58 12t16 44q0 33 -14.5 45t-47.5 12q-9 0 -27 -1t-22 -1q-49 0 -49 43q0 14 10 71
l31 150h-137q-56 0 -56 55v119q0 53 58 53h77v990h-206l-7 -113q-4 -51 -55 -51h-106q-28 0 -41 9.5t-13 37.5v291q0 55 56 55h1179v24q0 66 56 66h159q33 0 46.5 -17.5t13.5 -54.5v-528q31 55 118.5 86t194.5 31q97 0 157.5 -16t89.5 -42.5t46 -70.5q23 -61 23 -201v-498
h67q57 0 57 -53v-123q0 -29 -12.5 -39t-42.5 -10h-295q-49 0 -49 55v607q0 67 -10 98q-12 34 -40 47.5t-91 13.5q-96 0 -158 -28q-29 -10 -43 -31q-12 -20 -12 -62v-475h69q29 0 42.5 -13t13.5 -42v-121q0 -29 -12 -39t-42 -10h-413q-53 0 -53 55v117q0 53 55 53h65v992
h-520v-990h76q57 0 57 -55v-123q0 -29 -12.5 -39t-42.5 -10h-154z" />
    <glyph glyph-name="uni021A_h" unicode="&#x21a;h" horiz-adv-x="2385" 
d="M854 0h-444q-56 0 -56 55v119q0 53 58 53h77v990h-206l-7 -113q-4 -51 -55 -51h-106q-28 0 -41 9.5t-13 37.5v291q0 55 56 55h1179v24q0 66 56 66h159q33 0 46.5 -17.5t13.5 -54.5v-528q31 55 118.5 86t194.5 31q97 0 157.5 -16t89.5 -42.5t46 -70.5q23 -61 23 -201v-498
h67q57 0 57 -53v-123q0 -29 -12.5 -39t-42.5 -10h-295q-49 0 -49 55v607q0 67 -10 98q-12 34 -40 47.5t-91 13.5q-96 0 -158 -28q-29 -10 -43 -31q-12 -20 -12 -62v-475h69q29 0 42.5 -13t13.5 -42v-121q0 -29 -12 -39t-42 -10h-413q-53 0 -53 55v117q0 53 55 53h65v992
h-520v-990h76q57 0 57 -55v-123q0 -29 -12.5 -39t-42.5 -10zM688 -131q33 0 46.5 -16.5t13.5 -51.5q0 -92 -30 -192t-97 -176q-31 -39 -64 -39q-32 0 -72 22q-18 10 -24 19.5t-6 25.5q0 19 16 56q29 58 42 119t13 151q0 82 70 82h92z" />
    <glyph glyph-name=".notdef" horiz-adv-x="1026" 
d="M0 0v1448h1026v-1448h-1026zM514 817l348 526h-698zM573 725l353 -526v1052zM164 102h698l-348 529zM102 1251v-1052l351 526z" />
    <glyph glyph-name=".null" horiz-adv-x="0" 
 />
    <glyph glyph-name="nonmarkingreturn" horiz-adv-x="682" 
 />
    <glyph glyph-name="space" unicode=" " horiz-adv-x="450" 
 />
    <glyph glyph-name="exclam" unicode="!" horiz-adv-x="608" 
d="M463 561q-1 -37 -22 -52t-58 -15h-78q-42 0 -62.5 15t-21.5 58q-26 667 -26 783q0 48 16.5 72t58.5 24h146q39 0 58.5 -19t19.5 -69q0 -101 -31 -797zM492 139q0 -159 -160 -159q-66 0 -110 35.5t-44 123.5q0 87 43.5 126.5t114.5 39.5q73 0 114.5 -35.5t41.5 -130.5z
" />
    <glyph glyph-name="quotedbl" unicode="&#x22;" horiz-adv-x="784" 
d="M293 940q-3 -37 -18.5 -51.5t-47.5 -14.5h-28q-34 0 -49.5 14.5t-18.5 55.5q-25 312 -25 434q0 88 78 88h60q37 0 55 -16t18 -64q0 -138 -24 -446zM649 940q-3 -37 -17 -51.5t-46 -14.5h-31q-33 0 -48 14.5t-18 55.5q-24 299 -24 434q0 88 78 88h59q37 0 55.5 -16.5
t18.5 -63.5q0 -127 -27 -446z" />
    <glyph glyph-name="numbersign" unicode="#" horiz-adv-x="1218" 
d="M373 23q-6 -56 -54 -56h-51q-23 0 -36 11t-13 30q0 7 1 16t2.5 20t2.5 17l47 320h-139q-55 0 -55 53v127q0 51 55 51h172l29 179h-152q-53 0 -53 53v127q0 25 12 37t43 12h183l51 342q5 28 16.5 40.5t34.5 12.5h59q45 0 45 -39q0 -19 -6 -49l-47 -307h268l52 342
q5 28 16.5 40.5t34.5 12.5h59q45 0 45 -39q0 -7 -2.5 -24t-3.5 -25l-47 -307h141q56 0 56 -51v-129q0 -29 -13 -39t-41 -10h-176l-26 -179h149q29 0 42 -12.5t13 -40.5v-129q0 -28 -12 -38.5t-41 -10.5h-186l-53 -358q-6 -56 -54 -56h-51q-23 0 -36 11t-13 30q0 26 6 53
l47 320h-268zM487 791l-26 -179h266l27 179h-267z" />
    <glyph glyph-name="dollar" unicode="$" horiz-adv-x="1155" 
d="M655 -143q0 -25 -8 -37.5t-31 -12.5h-41q-25 0 -34 11t-9 39v131q-249 4 -380 59q-25 11 -35.5 26t-10.5 44q-6 61 -6 243q0 56 56 56h100q27 0 37.5 -11.5t13.5 -39.5l12 -123q113 -29 213 -29v348l-92 23q-155 38 -233 132t-78 259q0 368 403 405v129q0 52 46 52h38
q22 0 30.5 -12t8.5 -40v-125q187 -4 308 -41q47 -15 47 -67v-248q0 -47 -56 -47h-100q-48 0 -51 49l-8 111q-66 10 -140 14v-344l72 -18q184 -46 256 -128.5t72 -256.5q0 -89 -21.5 -158t-67.5 -124t-124.5 -88.5t-186.5 -43.5v-137zM406 997q0 -56 24.5 -93t101.5 -62v309
q-71 -11 -98.5 -50t-27.5 -104zM780 375q0 64 -24.5 97t-100.5 58v-309q73 16 99 55.5t26 98.5z" />
    <glyph glyph-name="percent" unicode="%" horiz-adv-x="1783" 
d="M743 971q0 -133 -18.5 -219t-62 -137t-105.5 -71t-158 -20q-123 0 -193.5 37t-106.5 133.5t-36 270.5q0 131 24.5 219.5t73 134.5t107.5 64t142 18q76 0 126.5 -10t93 -37t65.5 -75.5t35.5 -123.5t12.5 -184zM549 967q0 123 -13.5 182t-42.5 79.5t-90 20.5
q-55 0 -84.5 -21t-46 -84t-16.5 -181q0 -123 16 -187t44.5 -84t82.5 -20q59 0 88.5 20t45.5 84t16 191zM612 -29q-11 -21 -22 -29t-29 -8h-47q-29 0 -29 27q0 13 13 39l680 1411q22 45 51 45h55q27 0 27 -26q0 -16 -17 -50zM1722 430q0 -133 -18.5 -219t-62 -136.5
t-105.5 -70.5t-158 -20q-91 0 -151.5 19.5t-103.5 69t-62 135t-19 216.5q0 106 17 183.5t46 125.5t74.5 77t95.5 39.5t116 10.5q75 0 125.5 -10t92.5 -37t65 -75.5t35.5 -123.5t12.5 -184zM1526 426q0 119 -13 177.5t-41.5 78.5t-87.5 20q-40 0 -64.5 -10t-44 -39.5
t-28 -85.5t-8.5 -145q0 -90 8.5 -147t27.5 -86.5t43 -39.5t62 -10q57 0 86 19.5t44.5 81.5t15.5 186z" />
    <glyph glyph-name="ampersand" unicode="&#x26;" horiz-adv-x="1558" 
d="M1460 623h-71q-21 -221 -103 -324q48 -48 71.5 -60t61.5 -12h47q28 0 40 -12t12 -41v-125q0 -29 -12 -39t-40 -10h-166q-73 0 -110 20q-10 6 -21 15.5t-19 17.5t-24.5 25t-27.5 28q-147 -133 -441 -133q-285 0 -422 106t-137 327q0 80 18 139.5t59 107.5t97.5 85
t143.5 75q-150 157 -150 317q0 77 21 135.5t69 105t134 71t208 24.5q202 0 301 -74t99 -231q0 -69 -21 -125.5t-64.5 -102t-93.5 -80t-124 -73.5q180 -188 305 -303q22 58 33 146h-52q-55 0 -55 51v123q0 53 55 53h381q56 0 56 -53v-121q0 -53 -58 -53zM934 276
q-180 168 -381 373q-83 -41 -122.5 -91.5t-39.5 -131.5q0 -120 69.5 -174.5t211.5 -54.5q85 0 156.5 21t105.5 58zM854 1141q0 119 -160 119q-166 0 -166 -127q0 -50 32.5 -98.5t96.5 -106.5q102 50 149.5 98.5t47.5 114.5z" />
    <glyph glyph-name="quotesingle" unicode="'" horiz-adv-x="423" 
d="M293 940q-3 -37 -18.5 -51.5t-47.5 -14.5h-28q-34 0 -49.5 14.5t-18.5 55.5q-25 312 -25 434q0 88 78 88h60q37 0 55 -16t18 -64q0 -138 -24 -446z" />
    <glyph glyph-name="parenleft" unicode="(" horiz-adv-x="677" 
d="M346 637q0 -149 17 -271.5t43 -206t69.5 -159t82.5 -122t97 -103.5q15 -15 15 -33q0 -19 -23 -39q-20 -20 -43 -20q-25 0 -69 26q-47 27 -91 63t-94.5 90.5t-91.5 128.5t-75.5 166t-54 215t-19.5 263q0 114 14.5 217.5t38.5 185t58 154.5t71 127t79.5 100.5t81 77.5
t78.5 55q46 27 72 27q18 0 45 -23q23 -20 23 -36q0 -22 -15 -35q-54 -49 -97 -100t-84 -125.5t-68 -161t-43.5 -204.5t-16.5 -257z" />
    <glyph glyph-name="parenright" unicode=")" horiz-adv-x="677" 
d="M330 625q0 149 -17.5 271.5t-43 206t-69.5 159t-83 122t-97 103.5q-14 14 -14 33t23 39q20 20 43 20t69 -27q58 -33 110.5 -77.5t112.5 -123.5t103 -175t71.5 -239t28.5 -310q0 -132 -19 -250t-52.5 -208.5t-74 -165.5t-90 -131.5t-94.5 -95t-92 -67.5q-45 -26 -71 -26
q-19 0 -45 22q-23 20 -23 37q0 23 14 35q69 62 120.5 131t96.5 168.5t69 238t24 310.5z" />
    <glyph glyph-name="asterisk" unicode="*" horiz-adv-x="858" 
d="M434 903q-16 -24 -53 -85t-55 -87q-26 -37 -58 -37q-25 0 -82 39q-36 25 -36 60q0 22 20 49q42 58 139 164q-171 38 -196 45q-25 8 -41.5 26t-16.5 41q0 17 19 72q14 47 69 47q25 0 52 -10q32 -10 163 -66q-16 122 -16 197q0 44 18.5 64t73.5 20q63 0 80.5 -18t17.5 -62
q0 -22 -16 -203q149 60 184 72q16 8 50 8q43 0 57 -49q16 -46 16 -74q0 -52 -53 -65q-36 -10 -207 -50q107 -118 139 -161q19 -22 19 -47q0 -33 -33 -56q-56 -39 -82 -39q-34 0 -57 33q-18 23 -36.5 50t-44.5 68t-34 54z" />
    <glyph glyph-name="plus" unicode="+" horiz-adv-x="1435" 
d="M813 129q0 -57 -61 -57h-68q-61 0 -61 57v381h-381q-58 0 -58 65v58q0 65 58 65h379v379q0 58 61 58h70q61 0 61 -58v-379h381q57 0 57 -65v-58q0 -65 -57 -65h-381v-381z" />
    <glyph glyph-name="comma" unicode="," horiz-adv-x="499" 
d="M326 299q38 0 54.5 -18t16.5 -58q0 -136 -53.5 -293.5t-136.5 -248.5q-16 -17 -25 -25.5t-23.5 -16.5t-29.5 -8q-33 0 -78 27q-23 13 -32 24.5t-9 30.5q0 31 21 60q45 70 73.5 186t28.5 256q0 84 84 84h109z" />
    <glyph glyph-name="hyphen" unicode="-" horiz-adv-x="673" 
d="M553 430h-430q-53 0 -53 51v137q0 26 12 39t43 13h426q55 0 55 -52v-141q0 -27 -13 -37t-40 -10z" />
    <glyph glyph-name="period" unicode="." horiz-adv-x="499" 
d="M414 141q0 -168 -166 -168q-69 0 -115.5 37.5t-46.5 128.5q0 90 45.5 131t120.5 41q74 0 118 -37t44 -133z" />
    <glyph glyph-name="slash" unicode="/" horiz-adv-x="837" 
d="M221 -147q-10 -30 -24 -44t-41 -14h-95q-36 0 -36 31q0 20 10 47l579 1610q20 55 58 55h98q41 0 41 -33q0 -24 -14 -59z" />
    <glyph glyph-name="zero" unicode="0" horiz-adv-x="1189" 
d="M1114 702q0 -175 -19.5 -299t-57 -208t-102.5 -132.5t-147 -69t-198 -20.5q-112 0 -191.5 20t-143.5 68t-102 131t-57.5 206t-19.5 296q0 174 26 302t70 206.5t113 125.5t145 64t176 17q95 0 162.5 -11t127.5 -39.5t98.5 -78.5t67 -129t40.5 -189t12 -260zM831 698
q0 154 -10 245.5t-38.5 146t-70.5 72.5t-114 18q-87 0 -136.5 -37.5t-76.5 -145t-27 -303.5q0 -126 9 -213t25.5 -142.5t46.5 -86t65.5 -42t87.5 -11.5q55 0 91.5 11t66.5 41t46.5 86.5t25.5 144t9 216.5z" />
    <glyph glyph-name="one" unicode="1" horiz-adv-x="1189" 
d="M918 0h-570q-55 0 -55 55v119q0 53 57 53h160v881l-160 -74q-28 -12 -43 -12q-23 0 -37 31q-8 20 -17 41t-13.5 32.5t-9.5 23.5l-7.5 18t-4.5 12.5t-2.5 10t-0.5 7.5q0 28 31 41l268 129q32 16 88 16h127q27 0 42 -16.5t15 -44.5v-1096h129q56 0 56 -55v-123
q0 -29 -12.5 -39t-40.5 -10z" />
    <glyph glyph-name="two" unicode="2" horiz-adv-x="1189" 
d="M1030 0h-905q-24 0 -38.5 13.5t-14.5 33.5v113q0 38 34 65q326 241 508 426q73 73 100 144.5t27 156.5q0 116 -60 172t-198 56q-101 0 -217 -25q-68 -14 -73 -14q-12 0 -23 8t-14 20q-25 92 -25 131q0 41 51 58q67 22 175 36.5t200 14.5q114 0 198.5 -21t135 -56
t81 -89.5t41.5 -111.5t11 -132q0 -237 -139 -395q-183 -201 -463 -377q29 0 173.5 1t270.5 1l8 121q3 51 56 51h102q27 0 40 -10t13 -39v-297q0 -55 -55 -55z" />
    <glyph glyph-name="three" unicode="3" horiz-adv-x="1189" 
d="M750 733q148 -14 219 -97.5t71 -244.5q0 -101 -25 -174.5t-84.5 -130.5t-164.5 -85t-258 -28q-224 0 -342 37q-51 17 -51 56q0 34 28 137q11 33 45 33q11 0 74 -13q100 -20 234 -20q67 0 115 11t76 28t44.5 43.5t21.5 52.5t5 61q0 107 -58.5 152t-207.5 45h-58
q-24 0 -35.5 17t-11.5 42v115q0 26 13.5 43.5t33.5 17.5h60q123 0 173 43t50 127q0 97 -49 138t-183 41q-105 0 -200 -21q-68 -14 -74 -14q-12 0 -24 8.5t-15 20.5q-22 76 -22 133q0 40 51 57q143 45 346 45q115 0 194.5 -16t129.5 -44.5t77.5 -78.5t37 -106.5t9.5 -139.5
q0 -106 -63 -185t-182 -106z" />
    <glyph glyph-name="four" unicode="4" horiz-adv-x="1189" 
d="M1051 0h-451q-53 0 -53 55v119q0 53 57 53h90v115h-563q-59 0 -59 55v103q0 51 24 92l443 737q33 55 82 55h170q38 0 38 -36q0 -27 -16 -56q-128 -213 -218.5 -359t-146.5 -233.5t-81 -128.5h327v242q0 29 14.5 46.5t41.5 17.5h155q56 0 56 -60v-246h118q62 0 62 -53
v-125q0 -51 -62 -51h-118v-115h88q57 0 57 -55v-123q0 -29 -12.5 -39t-42.5 -10z" />
    <glyph glyph-name="five" unicode="5" horiz-adv-x="1189" 
d="M1012 1329v-278q0 -31 -13 -42.5t-43 -11.5h-108q-29 0 -40 13t-13 39l-9 106h-352l-22 -315q117 26 213 26q117 0 194 -19t133.5 -66.5t81.5 -131.5t25 -211q0 -113 -27 -196t-88.5 -145t-168 -93t-259.5 -31q-224 0 -348 37q-49 16 -49 56q0 52 26 131q17 39 48 39
q8 0 71 -13q100 -20 240 -20q149 0 209.5 53t60.5 174q0 65 -17.5 106.5t-54 62t-78.5 27.5t-106 7q-106 0 -231 -27q-28 -8 -62 -8q-33 0 -47 18t-14 56q0 46 2 69l47 578q3 65 68 65h671q60 0 60 -55z" />
    <glyph glyph-name="six" unicode="6" horiz-adv-x="1189" 
d="M379 762q39 55 126.5 89t182.5 34q223 0 319.5 -101.5t96.5 -345.5q0 -236 -119.5 -351.5t-374.5 -115.5q-181 0 -290.5 66.5t-162.5 213.5t-53 392q0 196 29 334t97 237.5t183.5 147t284.5 47.5q194 0 285 -31q41 -14 41 -53q0 -53 -23 -139q-10 -33 -38 -33
q-22 0 -82 12q-89 13 -168 13q-101 0 -164 -22t-100 -75t-51.5 -126.5t-18.5 -192.5zM391 520q-4 -18 -4 -74q0 -247 225 -247q123 0 177.5 52.5t54.5 184.5q0 119 -51.5 171t-161.5 52q-66 0 -125.5 -23t-87.5 -58q-21 -26 -27 -58z" />
    <glyph glyph-name="seven" unicode="7" horiz-adv-x="1189" 
d="M84 1044v287q0 25 15.5 39t41.5 14h885q57 0 57 -55v-78q0 -54 -20 -104q-48 -114 -137.5 -321.5t-162 -380.5t-157.5 -388q-20 -59 -76 -59h-178q-28 0 -41.5 14t-13.5 31q0 31 14 66q251 633 451 1048q-104 -2 -455 -2l-6 -108q-3 -50 -53 -50h-111q-27 0 -40 10
t-13 37z" />
    <glyph glyph-name="eight" unicode="8" horiz-adv-x="1189" 
d="M842 729q262 -42 262 -340q0 -216 -118.5 -316t-395.5 -100q-270 0 -386 98t-116 308q0 283 264 348q-227 57 -227 309q0 194 118.5 283.5t364.5 89.5q244 0 354.5 -86.5t110.5 -280.5q0 -127 -56 -204t-175 -109zM797 1006q0 92 -45 134t-156 42q-112 0 -156.5 -44
t-44.5 -137q0 -174 199 -174q89 0 146 42.5t57 136.5zM823 403q0 197 -227 197q-231 0 -231 -199q0 -112 57.5 -158t171.5 -46q113 0 171 48t58 158z" />
    <glyph glyph-name="nine" unicode="9" horiz-adv-x="1189" 
d="M815 627q-41 -55 -128.5 -89t-182.5 -34q-224 0 -319 99.5t-95 342.5q0 234 125.5 348.5t382.5 114.5q180 0 286 -66t154.5 -211.5t48.5 -394.5q0 -157 -17 -274t-57.5 -212.5t-108 -155.5t-169 -92t-239.5 -32q-84 0 -171 9.5t-130 25.5q-39 12 -39 51q0 15 20 127
q4 20 17 31.5t28 11.5q24 0 84 -12q91 -16 182 -16q80 0 136 17t92 47.5t57.5 85.5t30.5 119t12 159zM807 920q0 61 -9 105t-32.5 82t-69 57.5t-112.5 19.5q-119 0 -175.5 -54.5t-56.5 -181.5q0 -120 50.5 -169.5t160.5 -49.5q136 0 211 78q23 23 29 57q4 24 4 56z" />
    <glyph glyph-name="colon" unicode=":" horiz-adv-x="540" 
d="M455 141q0 -168 -166 -168q-69 0 -115.5 37.5t-46.5 128.5q0 90 45.5 131t120.5 41q74 0 118 -37t44 -133zM455 860q0 -168 -166 -168q-69 0 -115.5 37.5t-46.5 128.5t45.5 131.5t120.5 40.5q74 0 118 -37t44 -133z" />
    <glyph glyph-name="semicolon" unicode=";" horiz-adv-x="540" 
d="M455 860q0 -168 -166 -168q-69 0 -115.5 37.5t-46.5 128.5t45.5 131.5t120.5 40.5q74 0 118 -37t44 -133zM367 299q38 0 54.5 -18t16.5 -58q0 -136 -53.5 -293.5t-136.5 -248.5q-16 -17 -25 -25.5t-23.5 -16.5t-29.5 -8q-33 0 -78 27q-23 13 -32 24.5t-9 30.5q0 31 21 60
q45 70 73.5 186t28.5 256q0 84 84 84h109z" />
    <glyph glyph-name="less" unicode="&#x3c;" horiz-adv-x="1435" 
d="M1161 139q0 -53 -41 -53q-18 0 -41 10l-805 385q-47 23 -47 76v90q0 53 47 76l799 389q33 14 49 14q39 0 39 -55v-80q0 -50 -47 -73l-686 -314l686 -307q47 -21 47 -74v-84z" />
    <glyph glyph-name="equal" unicode="=" horiz-adv-x="1435" 
d="M1251 358q0 -65 -57 -65h-952q-58 0 -58 65v56q0 63 58 63h952q30 0 43.5 -15t13.5 -48v-56zM1251 791q0 -64 -57 -64h-952q-58 0 -58 64v59q0 63 58 63h952q57 0 57 -63v-59z" />
    <glyph glyph-name="greater" unicode="&#x3e;" horiz-adv-x="1435" 
d="M274 1073q0 26 11 40.5t30 14.5q12 0 35 -10l809 -387q49 -24 49 -78v-88q0 -52 -47 -76l-811 -395q-23 -10 -35 -10q-41 0 -41 55v80q0 53 48 76l688 313l-688 307q-48 20 -48 72v86z" />
    <glyph glyph-name="question" unicode="?" horiz-adv-x="923" 
d="M457 494h-90q-57 0 -64 38q-6 33 -6 95q0 72 21.5 116.5t87.5 94.5q97 72 133 125t36 124q0 74 -39.5 113t-140.5 39q-94 0 -176 -16q-54 -9 -59 -9q-47 0 -60 50q-16 74 -16 104q3 55 55 70q130 37 297 37q123 0 206.5 -21t132 -65t69 -105t20.5 -149q0 -117 -42 -193
t-171 -162q-68 -45 -95 -77.5t-34 -88.5q-2 -15 -4 -43.5t-4 -42.5q-7 -34 -57 -34zM567 141q0 -166 -161 -166q-67 0 -112.5 37t-45.5 127q0 88 44 128t118 40q73 0 115 -35.5t42 -130.5z" />
    <glyph glyph-name="at" unicode="@" horiz-adv-x="1654" 
d="M956 225q-44 -56 -112 -82t-137 -26q-271 0 -271 266q0 132 56.5 272.5t152.5 223.5q108 94 283 94q114 0 170 -41l4 10q8 25 43 25h63q33 0 33 -27q0 -24 -6 -51l-111 -500q-10 -46 -10 -84q0 -47 41 -47q37 0 82 29q89 62 139.5 188t50.5 264q0 243 -126.5 357
t-374.5 114q-143 0 -269 -54t-217.5 -150.5t-144.5 -237.5t-53 -307q0 -280 154.5 -433t439.5 -153q154 0 238 14.5t186 49.5q46 16 63 16q29 0 43 -47q6 -15 6 -35q0 -26 -47 -45q-219 -86 -491 -86q-346 0 -543 185t-197 534q0 185 62 346t171 276t265 180.5t338 65.5
q301 0 471 -146t170 -438q0 -163 -59.5 -306t-165.5 -230.5t-234 -87.5q-147 0 -156 104zM1059 815q-53 31 -133 31q-65 0 -107 -17t-76 -53q-63 -63 -100 -164.5t-37 -199.5q0 -160 148 -160q97 0 161 53q21 15 31 35q15 26 21 57z" />
    <glyph glyph-name="A" unicode="A" horiz-adv-x="1386" 
d="M494 0h-433q-55 0 -55 55v119q0 53 60 53h45l417 1166q20 55 78 55h178q31 0 48.5 -12.5t27.5 -42.5l416 -1166h47q57 0 57 -55v-123q0 -28 -12.5 -38.5t-40.5 -10.5h-428q-53 0 -53 55v119q0 53 55 53h86l-74 205h-440l-72 -205h91q57 0 57 -55v-123q0 -29 -12.5 -39
t-42.5 -10zM545 653h303q-124 366 -152 467q-42 -149 -151 -467z" />
    <glyph glyph-name="B" unicode="B" horiz-adv-x="1327" 
d="M623 0h-484q-55 0 -55 55v119q0 53 57 53h72v992h-74q-55 0 -55 55v119q0 53 57 53h494q113 0 219 -12q179 -19 263.5 -103t84.5 -244q0 -134 -51.5 -213t-163.5 -116q129 -30 194.5 -111t65.5 -227q0 -290 -209 -373q-118 -47 -415 -47zM496 227h147q145 0 209 23
q104 39 104 190q0 128 -108 168q-52 21 -186 21h-166v-402zM496 858h153q130 0 168 16q46 18 73.5 59.5t27.5 102.5q0 79 -31 115.5t-88 52.5q-49 15 -166 15h-137v-361z" />
    <glyph glyph-name="C" unicode="C" horiz-adv-x="1236" 
d="M387 731q0 -140 14.5 -233.5t52 -162.5t103.5 -100.5t166 -31.5q164 0 297 45q44 12 63 12q25 0 33 -22q39 -102 39 -140q0 -35 -47 -53q-179 -72 -446 -72q-92 0 -166.5 15t-139 49t-112 90t-81 136t-50.5 189.5t-17 247.5q0 208 31.5 350t105 238.5t194 140.5t298.5 44
q201 0 342 -31q53 -15 53 -66v-282q0 -52 -59 -52h-107q-52 0 -55 52l-10 139q-55 10 -154 10q-85 0 -145 -20t-99.5 -57.5t-62.5 -102t-32 -143t-9 -189.5z" />
    <glyph glyph-name="D" unicode="D" horiz-adv-x="1464" 
d="M596 0h-457q-55 0 -55 55v119q0 53 57 53h72v992h-74q-55 0 -55 55v115q0 57 59 57h480q255 0 385 -39q184 -53 272 -219t88 -449q0 -139 -17.5 -244t-58.5 -193.5t-112 -151t-176 -101.5q-133 -49 -408 -49zM498 227h141q175 0 252 39q104 50 144 164t40 307
q0 187 -39 293t-139 150q-85 39 -260 39h-139v-992z" />
    <glyph glyph-name="E" unicode="E" horiz-adv-x="1204" 
d="M1081 0h-942q-55 0 -55 55v119q0 53 57 53h72v992h-74q-55 0 -55 55v119q0 53 57 53h916q24 0 36.5 -11t12.5 -38v-297q0 -27 -13 -37t-40 -10h-113q-51 0 -55 51l-6 115h-381v-355h411q30 0 44 -11.5t14 -41.5v-131q0 -47 -58 -47h-411v-406h415l9 121q3 51 55 51h113
q27 0 40 -10.5t13 -38.5q0 -76 -6 -299q0 -51 -56 -51z" />
    <glyph glyph-name="F" unicode="F" horiz-adv-x="1163" 
d="M614 0h-475q-55 0 -55 55v119q0 53 57 53h72v992h-76q-53 0 -53 55v119q0 53 57 53h897q49 0 49 -49v-297q0 -27 -14 -37t-41 -10h-112q-28 0 -40 11.5t-14 35.5l-6 117h-362v-392h393q29 0 43 -12.5t14 -44.5v-131q0 -49 -57 -49h-393v-361h114q29 0 42.5 -13t13.5 -42
v-123q0 -29 -12 -39t-42 -10z" />
    <glyph glyph-name="G" unicode="G" horiz-adv-x="1368" 
d="M1239 131q0 -37 -10.5 -54t-38.5 -28q-74 -30 -215 -53t-295 -23q-119 0 -209 22t-162.5 73t-118.5 134.5t-70 207t-24 290.5q0 207 33.5 350t110 239t198.5 140t301 44q256 0 381 -35q47 -12 47 -58v-290q0 -28 -12 -38t-39 -10h-117q-28 0 -39.5 10.5t-13.5 34.5
l-8 144q-82 12 -176 12q-209 0 -292 -119.5t-83 -392.5q0 -141 15 -234t53.5 -162t107 -100.5t172.5 -31.5q131 0 260 33v296h-233q-23 0 -35 14t-12 34v133q0 21 13 34t36 13h424q51 0 51 -51v-578z" />
    <glyph glyph-name="H" unicode="H" horiz-adv-x="1515" 
d="M571 0h-432q-55 0 -55 55v121q0 51 57 51h72v992h-74q-55 0 -55 55v119q0 53 57 53h428q30 0 43 -12.5t13 -42.5v-123q0 -29 -12 -39t-42 -10h-73v-355h518v355h-74q-53 0 -53 55v119q0 53 57 53h428q30 0 43 -12.5t13 -42.5v-123q0 -29 -12 -39t-42 -10h-73v-992h71
q29 0 42.5 -13t13.5 -42v-123q0 -29 -12 -39t-42 -10h-434q-53 0 -53 55v121q0 51 57 51h70v408h-518v-408h71q29 0 42.5 -13t13.5 -42v-123q0 -29 -12 -39t-42 -10z" />
    <glyph glyph-name="I" unicode="I" horiz-adv-x="710" 
d="M571 0h-432q-55 0 -55 55v119q0 53 57 53h72v992h-74q-55 0 -55 55v119q0 53 57 53h428q30 0 43 -12.5t13 -42.5v-123q0 -29 -12 -39t-42 -10h-73v-992h71q29 0 42.5 -13t13.5 -42v-123q0 -29 -12 -39t-42 -10z" />
    <glyph glyph-name="J" unicode="J" horiz-adv-x="720" 
d="M541 203q0 -120 -20 -191.5t-62 -117.5q-91 -105 -338 -105q-74 0 -101 8q-43 11 -43 53q0 64 11 121q6 49 49 49q7 0 35 -1t43 -1q78 0 110 29q20 19 25.5 61t5.5 128v983h-80q-53 0 -53 55v119q0 53 55 53h432q29 0 42.5 -12.5t13.5 -42.5v-123q0 -29 -13 -39t-41 -10
h-71v-1016z" />
    <glyph glyph-name="K" unicode="K" horiz-adv-x="1382" 
d="M571 0h-432q-55 0 -55 55v119q0 53 57 53h72v992h-74q-55 0 -55 55v119q0 53 57 53h428q30 0 43 -12.5t13 -42.5v-123q0 -29 -12 -39t-42 -10h-73v-357h88q68 0 94 43l203 314h-43q-43 0 -43 55v119q0 26 12 39.5t43 13.5h426q29 0 42 -12.5t13 -42.5v-123
q0 -29 -12.5 -39t-40.5 -10h-98q-97 -146 -161 -243t-97 -147.5t-45 -68.5q78 -132 307 -494q13 -22 26 -30.5t41 -8.5h68q57 0 57 -55v-123q0 -29 -12.5 -39t-42.5 -10h-219q-55 0 -87.5 20t-60.5 68l-299 510q-13 23 -31 30t-51 7h-77v-408h71q29 0 42.5 -13t13.5 -42
v-123q0 -29 -12 -39t-42 -10z" />
    <glyph glyph-name="L" unicode="L" horiz-adv-x="1198" 
d="M1079 0h-940q-55 0 -55 55v119q0 53 57 53h72v992h-74q-55 0 -55 55v121q0 26 13 38.5t44 12.5h445q30 0 42.5 -12.5t12.5 -42.5v-121q0 -31 -12 -41t-41 -10h-90v-992h409l11 121q2 26 13 38.5t38 12.5h116q27 0 39.5 -9.5t12.5 -37.5q0 -170 -2 -297q0 -55 -56 -55z
" />
    <glyph glyph-name="M" unicode="M" horiz-adv-x="1802" 
d="M569 0h-430q-55 0 -55 55v119q0 53 57 53h72v992h-74q-55 0 -55 55v119q0 53 57 53h406q62 0 82 -53q212 -492 286 -695q31 89 271 699q18 49 71 49h396q29 0 42 -12.5t13 -42.5v-123q0 -29 -12.5 -39t-40.5 -10h-62v-992h70q29 0 42 -13t13 -42v-123q0 -29 -12 -39
t-41 -10h-434q-53 0 -53 55v119q0 53 57 53h76q0 724 6 906q-31 -100 -52 -160t-79 -209.5t-160 -398.5q-20 -50 -72 -50h-94q-31 0 -47.5 12.5t-26.5 37.5q-175 434 -299 765q7 -318 7 -903h73q29 0 42.5 -13t13.5 -42v-123q0 -29 -12 -39t-42 -10z" />
    <glyph glyph-name="N" unicode="N" horiz-adv-x="1505" 
d="M569 0h-430q-55 0 -55 55v119q0 53 57 53h74v992h-76q-55 0 -55 55v119q0 53 57 53h285q47 0 72 -41q394 -603 540 -868q-2 137 -2 682h-80q-55 0 -55 55v119q0 53 57 53h428q30 0 43 -12.5t13 -42.5v-123q0 -29 -12 -39t-41 -10h-76v-1160q0 -29 -16.5 -45t-43.5 -16
h-133q-32 0 -51 9.5t-37 37.5q-405 635 -545 877q2 -119 2 -695h78q29 0 42.5 -13t13.5 -42v-123q0 -29 -12 -39t-42 -10z" />
    <glyph glyph-name="O" unicode="O" horiz-adv-x="1439" 
d="M1339 733q0 -180 -25 -310t-72.5 -217t-125.5 -138.5t-175.5 -73t-231.5 -21.5q-129 0 -223 21t-171 72.5t-123.5 138t-71 216.5t-24.5 310q0 179 31.5 311.5t85.5 214t136.5 131t172 67.5t205.5 18q94 0 164.5 -8t137 -28.5t113 -56t86 -91t63 -133.5t36 -183t12.5 -240
zM1047 729q0 130 -12 219.5t-34.5 148t-64 90.5t-91.5 44t-126 12q-85 0 -142.5 -21.5t-102.5 -77t-66 -157.5t-21 -256q0 -132 14 -225.5t39 -152t67 -92.5t90.5 -46t117.5 -12q68 0 115.5 11.5t91 44t69.5 90.5t41 152.5t15 227.5z" />
    <glyph glyph-name="P" unicode="P" horiz-adv-x="1335" 
d="M602 0h-463q-55 0 -55 55v119q0 53 57 53h72v992h-74q-55 0 -55 55v119q0 53 57 53h482q296 0 417 -51q207 -81 207 -381q0 -153 -61.5 -255t-210.5 -149q-121 -37 -344 -37h-135v-346h104q55 0 55 -55v-123q0 -29 -12.5 -39t-40.5 -10zM496 791h153q137 0 199 22
q52 20 80 70t28 121q0 80 -26 125.5t-78 66.5q-59 21 -209 21h-147v-426z" />
    <glyph glyph-name="Q" unicode="Q" horiz-adv-x="1439" 
d="M1339 733q0 -244 -45.5 -396t-140.5 -235l248 -157q24 -15 24 -39q0 -14 -16.5 -42.5t-77.5 -119.5q-15 -23 -37 -23q-15 0 -39 15l-378 252q-96 -15 -168 -15q-129 0 -223 21t-171 72.5t-123.5 138t-71 216.5t-24.5 310q0 179 31.5 311.5t85.5 214t136.5 131t172 67.5
t205.5 18q94 0 164.5 -8t137 -28.5t113 -56t86 -91t63 -133.5t36 -183t12.5 -240zM1047 729q0 130 -12 219.5t-34.5 148t-64 90.5t-91.5 44t-126 12q-85 0 -142.5 -21.5t-102.5 -77t-66 -157.5t-21 -256q0 -132 14 -225.5t39 -152t67 -92.5t90.5 -46t117.5 -12
q68 0 115.5 11.5t91 44t69.5 90.5t41 152.5t15 227.5z" />
    <glyph glyph-name="R" unicode="R" horiz-adv-x="1345" 
d="M590 0h-451q-55 0 -55 55v119q0 53 57 53h72v992h-74q-55 0 -55 55v119q0 53 57 53h473q276 0 396 -49q111 -45 159 -139.5t48 -235.5q0 -296 -238 -387l188 -363q13 -27 25.5 -36t44.5 -9h53q28 0 39.5 -13t11.5 -42v-123q0 -29 -11.5 -39t-39.5 -10h-188
q-69 0 -101.5 19t-58.5 73l-231 490q-31 -2 -105 -2h-110v-353h92q55 0 55 -55v-123q0 -29 -12.5 -39t-40.5 -10zM496 801h131q131 0 196 26q103 38 103 181q0 80 -25 124t-74 64q-61 21 -204 21h-127v-416z" />
    <glyph glyph-name="S" unicode="S" horiz-adv-x="1200" 
d="M754 834q200 -50 275 -136t75 -272q0 -107 -27 -187t-88.5 -141.5t-168.5 -93t-259 -31.5q-263 0 -426 62q-25 9 -37.5 24.5t-13.5 42.5q-8 215 -8 267q0 55 53 55h113q28 0 40 -12.5t15 -40.5l14 -133q103 -29 258 -29q77 0 128 15t74.5 43t31.5 56t8 66t-6 63t-26 50
t-59.5 43t-103.5 33l-176 40q-169 41 -249 137.5t-80 276.5q0 103 27.5 181t87.5 138t163.5 91t247.5 31q227 0 369 -46q47 -14 47 -67v-273q0 -28 -13 -38.5t-39 -10.5h-112q-55 0 -58 54l-8 127q-107 16 -207 16q-122 0 -168.5 -45.5t-46.5 -130.5q0 -67 35 -111t142 -71z
" />
    <glyph glyph-name="T" unicode="T" horiz-adv-x="1267" 
d="M856 0h-446q-56 0 -56 55v119q0 53 58 53h77v990h-206l-7 -113q-4 -51 -55 -51h-106q-28 0 -41 9.5t-13 37.5v291q0 55 56 55h1032q29 0 43 -12.5t14 -42.5v-291q0 -27 -13 -37t-40 -10h-111q-27 0 -38 13.5t-13 37.5l-8 113h-207v-990h78q57 0 57 -55v-123
q0 -29 -12.5 -39t-42.5 -10z" />
    <glyph glyph-name="U" unicode="U" horiz-adv-x="1474" 
d="M1290 578q0 -165 -12.5 -255t-48.5 -153q-120 -199 -506 -199q-88 0 -159 9.5t-137.5 32.5t-116 66t-77.5 105q-30 62 -39.5 155.5t-9.5 233.5v646h-69q-56 0 -56 55v119q0 53 58 53h426q30 0 42.5 -12.5t12.5 -42.5v-123q0 -29 -12 -39t-41 -10h-74v-707q0 -83 8 -134
t33 -87q57 -82 227 -82q180 0 236 78q26 36 35.5 85.5t9.5 135.5v711h-80q-55 0 -55 55v119q0 53 57 53h418q29 0 42 -12.5t13 -42.5v-123q0 -29 -12.5 -39t-40.5 -10h-72v-641z" />
    <glyph glyph-name="V" unicode="V" horiz-adv-x="1382" 
d="M772 -2h-172q-58 0 -78 59l-405 1162h-56q-53 0 -53 55v119q0 26 12 39.5t43 13.5h437q30 0 42.5 -12.5t12.5 -42.5v-123q0 -29 -12 -39t-41 -10h-80q215 -650 272 -840q38 128 281 840h-78q-55 0 -55 55v119q0 53 57 53h420q29 0 42 -12.5t13 -42.5v-123
q0 -29 -12.5 -39t-40.5 -10h-59l-414 -1164q-18 -57 -76 -57z" />
    <glyph glyph-name="W" unicode="W" horiz-adv-x="2025" 
d="M692 -2h-168q-29 0 -49 17.5t-26 45.5l-289 1158h-66q-55 0 -55 55v119q0 53 57 53h436q30 0 44 -12.5t14 -42.5v-123q0 -29 -12.5 -39t-42.5 -10h-74q42 -171 75.5 -317t48.5 -216t34 -163.5t24 -116.5q46 218 236 931q10 37 25 54.5t48 17.5h152q54 0 72 -66
q183 -635 241 -937q67 358 174 813h-75q-54 0 -54 55v119q0 26 13 39.5t45 13.5h409q30 0 43 -12.5t13 -42.5v-123q0 -29 -12 -39t-42 -10h-63l-291 -1162q-13 -59 -74 -59h-166q-60 0 -75 61q-94 359 -164.5 640t-73.5 294q-70 -287 -256 -936q-16 -59 -76 -59z" />
    <glyph glyph-name="X" unicode="X" horiz-adv-x="1417" 
d="M1339 0h-467q-53 0 -53 55v119q0 26 12 39.5t43 13.5h21q-116 169 -203 310q-81 -135 -198 -310h24q29 0 42 -13t13 -42v-123q0 -29 -12 -39t-41 -10h-446q-54 0 -54 55v119q0 26 12.5 39.5t43.5 13.5h100l350 523l-317 469h-92q-56 0 -56 55v119q0 53 58 53h448
q30 0 44 -12.5t14 -42.5v-123q0 -29 -12 -39t-38 -10h-16q42 -61 102 -154.5t70 -108.5q160 248 170 263h-16q-29 0 -40 14t-11 41v119q0 53 55 53h414q30 0 43.5 -12.5t13.5 -42.5v-123q0 -29 -12.5 -39t-40.5 -10h-93l-317 -478l348 -514h94q58 0 58 -55v-123
q0 -49 -58 -49z" />
    <glyph glyph-name="Y" unicode="Y" horiz-adv-x="1333" 
d="M1272 1219h-90l-371 -611v-381h72q29 0 42 -13t13 -42v-123q0 -29 -12 -39t-41 -10h-436q-56 0 -56 55v119q0 53 58 53h75v373l-374 619h-91q-53 0 -53 55v119q0 53 58 53h448q30 0 43.5 -12.5t13.5 -42.5v-123q0 -29 -12.5 -39t-42.5 -10h-22q97 -165 184 -332
q59 115 186 332h-28q-56 0 -56 55v119q0 53 58 53h432q30 0 42.5 -12.5t12.5 -42.5v-123q0 -29 -12 -39t-41 -10z" />
    <glyph glyph-name="Z" unicode="Z" horiz-adv-x="1284" 
d="M1171 0h-1054q-42 0 -56 16t-14 52v57q0 39 8 60.5t33 54.5q718 953 737 977h-499l-7 -113q-4 -51 -53 -51h-110q-27 0 -40.5 10t-13.5 37v286q0 27 16.5 43.5t41.5 16.5h950q37 0 52.5 -12.5t15.5 -51.5v-73q0 -50 -10.5 -78.5t-49.5 -81.5q-145 -193 -279.5 -372.5
t-195 -260t-117.5 -155.5t-102 -134h582l6 123q3 51 55 51h109q27 0 39 -10t12 -39v-299q0 -53 -56 -53z" />
    <glyph glyph-name="bracketleft" unicode="[" horiz-adv-x="649" 
d="M381 -170h192q17 0 28 -10t11 -27v-47q0 -39 -39 -39h-366q-21 0 -33 14.5t-12 40.5v1731q0 24 12.5 39.5t34.5 15.5h364q17 0 28 -10t11 -25v-51q0 -15 -11.5 -26t-29.5 -11h-190v-1595z" />
    <glyph glyph-name="backslash" unicode="\" horiz-adv-x="837" 
d="M801 -127q10 -27 10 -47q0 -13 -9.5 -22t-27.5 -9h-96q-26 0 -40 14.5t-24 43.5l-575 1593q-14 35 -14 59q0 33 38 33h99q22 0 35 -12.5t24 -42.5z" />
    <glyph glyph-name="bracketright" unicode="]" horiz-adv-x="649" 
d="M268 1425h-192q-17 0 -28 10t-11 27v47q0 39 39 39h366q20 0 32.5 -15.5t12.5 -41.5v-1729q0 -24 -13 -39.5t-34 -15.5h-364q-39 0 -39 35v51q0 15 11.5 26t29.5 11h190v1595z" />
    <glyph glyph-name="asciicircum" unicode="^" horiz-adv-x="1470" 
d="M1198 651q10 -20 10 -33q0 -43 -55 -43h-86q-50 0 -72 48l-262 542l-258 -542q-22 -48 -72 -48h-84q-53 0 -53 43q0 17 8 33l332 686q23 45 74 45h113q48 0 71 -45z" />
    <glyph glyph-name="underscore" unicode="_" horiz-adv-x="1009" 
d="M0 -160h1010v-112h-1010v112z" />
    <glyph glyph-name="grave" unicode="`" horiz-adv-x="403" 
d="M215 1225l-238 245q-24 24 -24 48q0 38 51 38h160q47 0 80 -45l186 -239q19 -25 19 -47q0 -37 -50 -37h-94q-53 0 -90 37z" />
    <glyph glyph-name="a" unicode="a" horiz-adv-x="1159" 
d="M1044 0h-280q-52 0 -55 41l-2 47q-89 -108 -273 -108q-352 0 -352 333q0 178 121 254q97 66 313 66q109 0 180 -8v49q0 58 -12 88q-11 30 -50 44.5t-124 14.5q-98 0 -199 -16q-63 -10 -75 -10q-35 0 -46 41q-16 77 -16 118q0 47 43 60q142 43 336 43q146 0 224 -19
t120 -63q39 -40 54.5 -100.5t15.5 -155.5v-494h75q29 0 42.5 -13t13.5 -42v-121q0 -29 -12 -39t-42 -10zM696 440q-92 9 -143 9q-120 0 -172 -37q-39 -27 -39 -93q0 -64 36 -98.5t126 -34.5q106 0 158 41q20 16 26 35q8 21 8 68v110z" />
    <glyph glyph-name="b" unicode="b" horiz-adv-x="1206" 
d="M401 59l-2 -28q-3 -22 -17.5 -28.5t-49.5 -6.5h-109q-34 0 -47.5 14t-13.5 53v1244h-68q-55 0 -55 55v117q0 53 57 53h285q31 0 42 -15t11 -51v-503q94 88 318 88q190 0 280 -118t90 -394q0 -114 -13 -200.5t-41 -147t-65.5 -100t-93.5 -62t-117.5 -31t-144.5 -8.5
q-85 0 -153 19t-93 50zM434 236q23 -15 72 -25t92 -10q78 0 125.5 15.5t75.5 55.5t37.5 98t9.5 154q0 169 -39.5 237t-153.5 68q-54 0 -108 -11.5t-82 -31.5q-18 -11 -23 -26q-6 -15 -6 -43v-481z" />
    <glyph glyph-name="c" unicode="c" horiz-adv-x="985" 
d="M360 514q0 -170 47 -244.5t173 -74.5q107 0 213 26q6 1 20 5.5t25.5 7t19.5 2.5q33 0 43 -33q29 -80 29 -121q0 -33 -35 -51q-58 -30 -159.5 -44t-194.5 -14q-117 0 -199 25.5t-141.5 85.5t-88 162t-28.5 252q0 147 25 249.5t83 173t153 103.5t235 33q196 0 288 -31
q41 -13 41 -63v-256q0 -29 -13 -38.5t-40 -9.5h-113q-27 0 -38 13t-13 39l-6 116q-35 4 -119 4q-61 -1 -102.5 -24t-63.5 -67t-31.5 -98.5t-9.5 -127.5z" />
    <glyph glyph-name="d" unicode="d" horiz-adv-x="1232" 
d="M1118 0h-262q-37 0 -51 8t-17 35l-4 35q-48 -57 -123.5 -80t-183.5 -23q-194 0 -293.5 121.5t-99.5 397.5q0 133 21 229t60 160t103.5 102.5t143.5 54t188 15.5q120 0 172 -27v279h-67q-54 0 -54 55v115q0 55 60 55h282q28 0 41 -13t13 -51v-1243h69q30 0 42.5 -12
t12.5 -41v-121q0 -31 -12 -41t-41 -10zM772 315v490q-51 26 -151 26q-153 0 -207 -72t-54 -261q0 -160 48 -231.5t161 -71.5q112 0 174 41q20 16 25 34q4 12 4 45z" />
    <glyph glyph-name="e" unicode="e" horiz-adv-x="1085" 
d="M362 434q4 -73 20.5 -121t48.5 -73.5t72.5 -35t100.5 -9.5q128 0 260 36q52 13 60 13q20 0 28 -8t15 -27q26 -72 26 -115q0 -35 -35 -53q-64 -33 -174 -50.5t-211 -17.5q-140 0 -234 31.5t-150.5 99.5t-80.5 165.5t-24 240.5q0 292 117 419.5t374 127.5q84 0 149 -13.5
t111 -36.5t78 -62t51 -80t29.5 -101.5t13.5 -116t3 -133.5q0 -55 -23 -68q-15 -12 -47 -12h-578zM367 625h383q2 12 2 32q0 106 -36 152.5t-145 46.5q-108 0 -154.5 -58t-49.5 -173z" />
    <glyph glyph-name="f" unicode="f" horiz-adv-x="718" 
d="M584 0h-451q-53 0 -53 55v117q0 53 57 53h66v576h-84q-60 0 -60 57v111q0 25 14 42t44 17h86v156q0 204 92 286q51 43 122.5 62.5t190.5 19.5q114 0 164 -18q35 -14 35 -55q0 -39 -16 -121q-3 -18 -17.5 -28.5t-32.5 -10.5q-6 0 -46 5t-66 5q-92 0 -125 -41
q-29 -37 -29 -143v-117h170q55 0 55 -57v-119q0 -23 -14.5 -37t-42.5 -14h-168v-576h107q57 0 57 -55v-121q0 -29 -12.5 -39t-42.5 -10z" />
    <glyph glyph-name="g" unicode="g" horiz-adv-x="1087" 
d="M219 6q-79 14 -111 68.5t-32 148.5q0 164 127 215q-42 42 -61 102t-19 154q0 190 112.5 276.5t327.5 86.5q113 0 205 -29h264q51 0 51 -55v-115q0 -27 -11 -40t-38 -13h-90q23 -48 23 -96q0 -189 -96.5 -283t-313.5 -94q-69 0 -121 10q-50 8 -59 8q-21 0 -37 -12
q-25 -25 -25 -68q0 -54 47 -69q27 -8 275 -8q94 0 158.5 -5.5t117 -20.5t84 -38.5t52 -63t28.5 -90t8 -122.5q0 -71 -14.5 -125t-50.5 -100t-95 -75t-150.5 -45t-215.5 -16q-126 0 -216 15t-142.5 39t-82 64t-39 80.5t-9.5 98.5q0 179 149 217zM825 -156q0 48 -10.5 69
t-47.5 32.5t-120 15.5q-39 2 -174 2q-53 0 -76 -10q-67 -22 -67 -115q0 -34 8 -56t32 -41t73.5 -27.5t127.5 -8.5q83 0 135 8.5t77.5 28t33.5 42t8 60.5zM729 694q0 89 -42 122.5t-132 33.5q-87 0 -131.5 -33.5t-44.5 -120.5q0 -52 12 -86t37.5 -51t54.5 -23t72 -6
q84 0 129 37.5t45 126.5z" />
    <glyph glyph-name="h" unicode="h" horiz-adv-x="1275" 
d="M532 0h-415q-54 0 -54 55v117q0 53 58 53h65v1082h-67q-53 0 -53 55v117q0 27 12.5 40t44.5 13h276q34 0 47 -17.5t13 -54.5v-524q33 55 120 86t193 31q97 0 158 -16t90.5 -42.5t46.5 -70.5q20 -53 20 -201v-498h70q57 0 57 -53v-123q0 -29 -12.5 -39t-42.5 -10h-295
q-51 0 -51 55v607q0 73 -8 98q-11 34 -39 47.5t-92 13.5q-96 0 -158 -28q-30 -11 -43 -31q-14 -18 -14 -62v-475h71q56 0 56 -55v-121q0 -29 -13 -39t-41 -10z" />
    <glyph glyph-name="i" unicode="i" horiz-adv-x="655" 
d="M541 0h-412q-55 0 -55 53v119q0 53 57 53h64v578h-66q-55 0 -55 51v121q0 53 57 53h289q28 0 38.5 -14.5t10.5 -42.5v-746h70q30 0 43.5 -11.5t13.5 -39.5v-125q0 -29 -12.5 -39t-42.5 -10zM471 1348q0 -83 -38.5 -119.5t-115.5 -36.5q-71 0 -111 34.5t-40 119.5
q0 157 151 157q75 0 114.5 -34.5t39.5 -120.5z" />
    <glyph glyph-name="j" unicode="j" horiz-adv-x="612" 
d="M451 -98q0 -221 -72 -301q-50 -57 -134.5 -84t-240.5 -27q-76 0 -76 59q0 78 2 105q6 54 62 57q61 3 90 9t51 22q26 19 34.5 52.5t8.5 90.5v918h-67q-54 0 -54 51v121q0 53 58 53h288q28 0 39 -14t11 -43v-1069zM453 1348q0 -83 -38.5 -119.5t-115.5 -36.5
q-71 0 -111.5 34.5t-40.5 119.5q0 157 152 157q75 0 114.5 -34.5t39.5 -120.5z" />
    <glyph glyph-name="k" unicode="k" horiz-adv-x="1208" 
d="M535 0h-414q-53 0 -53 55v117q0 53 55 53h65v1082h-67q-53 0 -53 55v117q0 53 57 53h289q29 0 39 -13.5t10 -43.5v-803h102q35 0 54 9t34 34l54 88h-9q-53 0 -53 51v121q0 53 55 53h398q57 0 57 -55v-121q0 -29 -12.5 -39t-42.5 -10h-113q-67 -99 -158 -225
q1 -2 35.5 -59t79 -127t78.5 -116q16 -28 33.5 -39.5t48.5 -11.5h39q28 0 41.5 -12t13.5 -41v-119q0 -30 -15.5 -41.5t-45.5 -11.5h-179q-57 0 -89 23t-60 71l-193 322q-13 22 -31 29.5t-50 7.5h-72v-228h69q29 0 42.5 -13t13.5 -42v-121q0 -29 -12 -39t-41 -10z" />
    <glyph glyph-name="l" unicode="l" horiz-adv-x="655" 
d="M541 0h-412q-55 0 -55 55v117q0 53 57 53h64v1082h-66q-55 0 -55 55v119q0 51 57 51h279q34 0 46.5 -17t12.5 -53v-1237h70q57 0 57 -55v-121q0 -29 -12.5 -39t-42.5 -10z" />
    <glyph glyph-name="m" unicode="m" horiz-adv-x="1884" 
d="M541 0h-412q-55 0 -55 55v117q0 53 57 53h64v578h-66q-31 0 -43 12.5t-12 38.5v121q0 53 57 53h270q61 0 64 -53l2 -41q31 55 116 87t183 32q139 0 205.5 -32.5t89.5 -98.5q35 57 120.5 94t196.5 37q95 0 156.5 -15.5t93 -43t47.5 -70.5q21 -56 21 -201v-498h71
q56 0 56 -55v-121q0 -29 -13 -39t-41 -10h-296q-50 0 -50 55v607q0 69 -10 100q-10 32 -39.5 45.5t-89.5 13.5q-84 0 -143 -26q-25 -8 -43 -29q-15 -22 -15 -61v-480h82q56 0 56 -53v-123q0 -29 -13 -39t-41 -10h-309q-49 0 -49 57v605q0 75 -8 100q-10 33 -39 46t-90 13
q-81 0 -144 -26q-32 -14 -45 -31q-14 -18 -14 -62v-477h70q57 0 57 -55v-121q0 -29 -12.5 -39t-42.5 -10z" />
    <glyph glyph-name="n" unicode="n" horiz-adv-x="1284" 
d="M541 0h-412q-55 0 -55 53v121q0 26 13 38.5t44 12.5h64v578h-66q-55 0 -55 51v121q0 53 57 53h275q55 0 59 -51l2 -43q31 55 119.5 87t189.5 32q140 0 208 -32t93 -97q21 -56 21 -201v-498h69q29 0 42.5 -13t13.5 -42v-121q0 -30 -11.5 -39.5t-40.5 -9.5h-294
q-54 0 -54 55v607q0 69 -10 100q-16 59 -131 59q-93 0 -156 -28q-34 -15 -45 -31q-12 -24 -12 -64v-473h70q57 0 57 -55v-121q0 -29 -12.5 -39t-42.5 -10z" />
    <glyph glyph-name="o" unicode="o" horiz-adv-x="1153" 
d="M1071 522q0 -162 -30 -269.5t-95 -169t-154 -86t-221 -24.5q-101 0 -175 14.5t-135 51t-98.5 98t-58 155.5t-20.5 224q0 132 25 229t67 156.5t108 95t136.5 48t163.5 12.5q83 0 145 -8.5t119 -30t96.5 -60.5t69 -97.5t43.5 -143t14 -195.5zM797 512q0 130 -20 197.5
t-65 94.5t-132 27q-59 0 -98 -14t-67.5 -49t-41.5 -96t-13 -154q0 -132 23 -202.5t67.5 -95.5t124.5 -25q60 0 98.5 12t68 46t42.5 97t13 162z" />
    <glyph glyph-name="p" unicode="p" horiz-adv-x="1214" 
d="M557 -500h-455q-55 0 -55 56v116q0 54 57 54h66v1077h-70q-55 0 -55 51v121q0 53 57 53h263q38 0 54 -10.5t19 -36.5l2 -33q85 103 312 103q97 0 164.5 -24.5t117 -84t73 -162t23.5 -254.5q0 -132 -20.5 -226.5t-58 -155.5t-100.5 -96t-138.5 -48.5t-181.5 -13.5
q-50 0 -105.5 10t-81.5 27v-297h111q29 0 42 -13.5t13 -42.5v-121q0 -29 -12 -39t-41 -10zM444 231q61 -28 154 -28q80 0 128.5 15t77.5 54.5t39.5 98.5t10.5 157q0 165 -39.5 229t-159.5 64q-118 0 -182 -41q-20 -16 -24 -28q-5 -12 -5 -39v-482z" />
    <glyph glyph-name="q" unicode="q" horiz-adv-x="1214" 
d="M1120 -500h-456q-56 0 -56 54v118q0 54 58 54h106v323q-86 -67 -297 -67q-188 0 -289.5 122.5t-101.5 393.5q0 136 23 234.5t62.5 160t103 97.5t134 49.5t166.5 13.5q78 0 144 -19t90 -45l2 17q4 22 19.5 29t50.5 7h104q34 0 49 -14.5t15 -50.5v-1251h69q55 0 55 -54
v-121q0 -30 -11 -40.5t-40 -10.5zM772 795q-54 28 -160 28q-63 0 -105.5 -10t-72 -31.5t-45.5 -60.5t-22.5 -90t-6.5 -127q0 -163 42 -230t157 -67q118 0 180 33q20 10 27 26q6 15 6 56v473z" />
    <glyph glyph-name="r" unicode="r" horiz-adv-x="866" 
d="M575 0h-446q-55 0 -55 55v117q0 53 57 53h64v578h-66q-55 0 -55 51v121q0 53 59 53h273q33 0 46 -14t13 -43l2 -41q16 46 87.5 84.5t154.5 38.5q62 0 92 -9q37 -10 37 -53q0 -69 -13 -145q-9 -37 -49 -37q-13 0 -58.5 4t-62.5 4q-94 0 -145 -29q-26 -17 -33 -34
q-8 -20 -8 -52v-477h104q56 0 56 -55v-121q0 -29 -13 -39t-41 -10z" />
    <glyph glyph-name="s" unicode="s" horiz-adv-x="966" 
d="M862 745q0 -28 -13 -38.5t-40 -10.5h-102q-30 0 -42 11.5t-14 37.5l-6 86q-67 9 -127 9q-84 0 -116.5 -25t-32.5 -72q0 -41 22.5 -63t100.5 -41l139 -35q101 -25 156.5 -59.5t82.5 -93.5t27 -154q0 -324 -424 -324q-235 0 -356 50q-19 8 -28.5 21.5t-10.5 39.5
q-2 41 -2 213q0 53 53 53h98q32 0 43.5 -12.5t14.5 -42.5l8 -80q85 -25 182 -25q88 0 120 27t32 72q0 37 -24 62t-97 42l-141 33q-89 20 -144.5 52t-88 94.5t-32.5 158.5q0 152 101.5 238t318.5 86q197 0 299 -31q43 -12 43 -59v-220z" />
    <glyph glyph-name="t" unicode="t" horiz-adv-x="712" 
d="M449 801v-418q0 -108 18 -145t78 -37q20 0 57 3t41 3q36 0 45 -41q8 -52 8 -111q0 -47 -49 -57q-82 -16 -180 -16q-172 0 -238 86q-57 71 -57 243v490h-94q-47 0 -47 49v121q0 24 15 40.5t42 16.5h90q2 76 8 213q3 64 56 64h157q47 0 47 -66v-211h170q30 0 43 -10.5
t13 -34.5v-135q0 -47 -51 -47h-172z" />
    <glyph glyph-name="u" unicode="u" horiz-adv-x="1282" 
d="M1167 0h-284q-32 0 -45.5 10.5t-16.5 36.5l-4 45q-39 -55 -120 -86t-183 -31q-141 0 -209.5 33t-91.5 98q-25 74 -25 216v481h-65q-55 0 -55 51v121q0 53 59 53h285q51 0 51 -59v-598q0 -72 10 -101q12 -35 42.5 -49t92.5 -14q104 0 154 26q28 12 41 35q14 17 14 70v465
h-67q-30 0 -42 12.5t-12 38.5v121q0 53 56 53h286q26 0 40 -15t14 -42v-746h77q28 0 40 -13t12 -42v-121q0 -29 -12 -39t-42 -10z" />
    <glyph glyph-name="v" unicode="v" horiz-adv-x="1140" 
d="M1075 803h-59l-305 -756q-20 -49 -68 -49h-158q-50 0 -71 53l-301 752h-52q-53 0 -53 51v121q0 26 13 39.5t45 13.5h374q56 0 56 -55v-121q0 -29 -14.5 -39t-45.5 -10h-33q126 -349 166 -481q45 138 170 481h-43q-53 0 -53 51v121q0 53 55 53h377q58 0 58 -55v-121
q0 -29 -14 -39t-44 -10z" />
    <glyph glyph-name="w" unicode="w" horiz-adv-x="1654" 
d="M1567 803h-45l-213 -754q-12 -51 -70 -51h-154q-52 0 -69 53q-57 174 -97 300t-62.5 198.5t-27.5 89.5q-56 -191 -190 -590q-16 -51 -74 -51h-147q-58 0 -72 53l-213 752h-45q-55 0 -55 51v121q0 53 57 53h363q57 0 57 -55v-121q0 -29 -13 -39t-42 -10h-39
q43 -161 112 -475q45 173 179 598q22 69 75 69h113q50 0 70 -65q161 -485 194 -602q12 74 103 475h-50q-53 0 -53 51v121q0 26 12 39.5t43 13.5h353q29 0 42 -13t13 -42v-121q0 -29 -12.5 -39t-42.5 -10z" />
    <glyph glyph-name="x" unicode="x" horiz-adv-x="1150" 
d="M1079 0h-417q-60 0 -60 53v119q0 53 62 53h18q-101 131 -131 174q-20 -25 -69.5 -89t-65.5 -85h33q59 0 59 -55v-121q0 -29 -13 -39t-42 -10h-387q-31 0 -43.5 13.5t-12.5 39.5v119q0 53 60 53h80l241 299l-219 279h-74q-57 0 -57 51v121q0 53 59 53h396q32 0 45.5 -13
t13.5 -42v-133q0 -37 -70 -37q95 -128 113 -154q25 40 104 154q-30 0 -47.5 13.5t-17.5 37.5v121q0 53 63 53h351q59 0 59 -55v-121q0 -29 -14.5 -39t-44.5 -10h-78l-221 -273l247 -305h82q58 0 58 -55v-121q0 -29 -14 -39t-46 -10z" />
    <glyph glyph-name="y" unicode="y" horiz-adv-x="1142" 
d="M1079 803h-43l-377 -928q-46 -113 -65 -151q-46 -99 -111 -160q-88 -76 -256 -76q-130 0 -176 16q-39 12 -39 52q0 21 9.5 72t15.5 67q15 29 43 29q5 0 42 -4.5t64 -4.5q72 0 103 21q25 14 41.5 35.5t36.5 62.5q42 91 55 129l16 43l-325 797h-52q-53 0 -53 51v121
q0 26 13 39.5t45 13.5h374q58 0 58 -55v-121q0 -29 -14 -39t-44 -10h-37q119 -311 177 -490q47 145 172 490h-39q-56 0 -56 51v121q0 53 58 53h362q58 0 58 -55v-121q0 -29 -13.5 -39t-42.5 -10z" />
    <glyph glyph-name="z" unicode="z" horiz-adv-x="1026" 
d="M928 0h-819q-60 0 -60 61v64q0 30 8 48t31 46q471 564 487 582h-292l-4 -80q-1 -28 -14.5 -38.5t-39.5 -10.5h-92q-55 0 -55 49v254q0 53 49 53h762q29 0 42 -12t13 -43v-74q0 -35 -10.5 -57t-44.5 -64q-425 -504 -467 -551h350l8 82q3 29 15.5 39t40.5 10h92
q53 0 53 -49q0 -170 -4 -262q0 -47 -49 -47z" />
    <glyph glyph-name="braceleft" unicode="{" horiz-adv-x="724" 
d="M256 629q102 -21 153.5 -91t51.5 -202v-293q0 -116 35 -162q32 -43 147 -51q22 -2 31.5 -14t9.5 -41v-31q0 -26 -12 -36.5t-37 -10.5q-127 0 -206.5 18.5t-119.5 67.5q-61 75 -61 225v295q0 129 -38 184t-118 66q-28 3 -38.5 15.5t-10.5 37.5v35q0 50 43 59q86 17 124 75
t38 177v258q0 171 59 240q45 56 122 81t198 25q57 0 57 -53v-24q0 -54 -49 -54q-112 -4 -148 -65q-26 -42 -26 -148v-280q0 -139 -50 -207t-155 -96z" />
    <glyph glyph-name="bar" unicode="|" horiz-adv-x="540" 
d="M379 -242q0 -59 -53 -59h-113q-51 0 -51 59v1735q0 57 53 57h117q28 0 37.5 -12.5t9.5 -42.5v-1737z" />
    <glyph glyph-name="braceright" unicode="}" horiz-adv-x="724" 
d="M455 625q-101 21 -152 91t-51 202v292q0 116 -35 162q-32 43 -149 51q-22 2 -31.5 14.5t-9.5 41.5v30q0 47 49 47q128 0 206.5 -18.5t118.5 -67.5q64 -79 64 -225v-295q0 -129 37.5 -184t118.5 -66q49 -5 49 -53v-35q0 -50 -45 -59q-84 -17 -122 -75.5t-38 -176.5v-258
q0 -167 -62 -240q-45 -56 -121.5 -81t-195.5 -25q-57 0 -57 53v25q0 53 47 53q114 8 149 66q27 43 27 147v281q0 139 49.5 207t153.5 96z" />
    <glyph glyph-name="asciitilde" unicode="~" horiz-adv-x="1435" 
d="M336 494q-32 -35 -57 -35q-33 0 -70 35q-29 29 -29 55q0 29 19 51q146 176 303 176q52 0 100.5 -16.5t136.5 -65.5q111 -61 189 -61q49 0 88.5 21t79.5 69q35 39 59 39q28 0 68 -35q32 -29 32 -55t-20 -54q-69 -91 -140.5 -135.5t-168.5 -44.5q-110 0 -236 72
q-120 70 -188 70q-88 0 -166 -86z" />
    <glyph glyph-name="exclamdown" unicode="&#xa1;" horiz-adv-x="608" 
d="M145 471q3 70 80 70h78q41 0 62 -16t22 -58q27 -641 27 -782q0 -48 -17 -72.5t-61 -24.5h-143q-39 0 -57.5 18t-18.5 68q0 170 28 797zM117 893q0 162 159 162q66 0 110 -36t44 -124q0 -87 -43.5 -126.5t-114.5 -39.5q-72 0 -113.5 35.5t-41.5 128.5z" />
    <glyph glyph-name="cent" unicode="&#xa2;" horiz-adv-x="1034" 
d="M672 -143q0 -50 -41 -50h-39q-25 0 -34 11t-9 39v123q-111 2 -189.5 29.5t-135.5 87.5t-84 161t-27 248q0 275 98.5 404.5t337.5 144.5v127q0 51 45 51h39q21 0 30 -12t9 -39v-127q172 -4 248 -29q36 -13 36 -53v-252q0 -28 -12.5 -38.5t-38.5 -10.5h-94q-50 0 -53 53
l-8 117q-22 4 -78 8v-651q129 8 188 24q40 10 55 10q25 0 37 -30q25 -70 25 -119q0 -34 -35 -51q-88 -41 -270 -49v-127zM393 520q0 -150 33 -224.5t123 -92.5v637q-90 -24 -123 -99t-33 -221z" />
    <glyph glyph-name="sterling" unicode="&#xa3;" horiz-adv-x="1230" 
d="M1100 0h-895q-51 0 -51 49v103q0 40 34 57q58 30 99 65t60.5 68.5t27.5 60t8 50.5q0 51 -23 122h-174q-45 0 -45 41v84q0 43 45 43h129q-51 169 -51 269q0 191 125 294t377 103q189 0 311 -41q39 -10 39 -53v-256q0 -47 -55 -47h-100q-49 0 -52 47l-8 110q-61 13 -139 13
q-115 0 -162 -49.5t-47 -145.5q0 -90 49 -244h350q49 0 49 -43v-84q0 -41 -49 -41h-321q18 -62 18 -129q0 -62 -34 -121t-107 -96h590q53 0 53 -47v-137q0 -45 -51 -45z" />
    <glyph glyph-name="currency" unicode="&#xa4;" horiz-adv-x="1122" 
d="M981 233q-19 -22 -43 -22q-21 0 -41 20l-100 101q-97 -66 -236 -66q-135 0 -235 64l-95 -99q-22 -22 -45 -22q-24 0 -43 22l-18 21q-23 23 -23 43q0 22 23 45l100 102q-73 102 -73 238q0 132 71 235l-98 101q-23 23 -23 43q0 25 25 47l16 16q26 23 43 23q23 0 43 -23
l99 -100q99 74 233 74q141 0 234 -72l100 98q26 23 43 23q23 0 43 -23l16 -16q21 -21 21 -45q0 -19 -21 -43l-98 -100q72 -102 72 -238q0 -134 -72 -238l100 -102q21 -21 21 -43q0 -21 -21 -45zM813 680q0 120 -71 191t-181 71q-108 0 -181 -72t-73 -188q0 -121 72 -193.5
t182 -72.5q109 0 180.5 72.5t71.5 191.5z" />
    <glyph glyph-name="yen" unicode="&#xa5;" horiz-adv-x="1359" 
d="M899 0h-438q-51 0 -51 55v115q0 51 55 51h80v168h-287q-45 0 -45 43v51q0 43 45 43h287v49l-60 93h-227q-45 0 -45 45v49q0 45 45 45h145l-225 356h-88q-47 0 -47 58v112q0 51 53 51h443q28 0 40.5 -12t12.5 -41v-117q0 -29 -10 -40t-35 -11h-62q129 -202 205 -342
q121 214 201 342h-57q-50 0 -50 56v112q0 53 56 53h424q55 0 55 -53v-119q0 -28 -12.5 -38.5t-38.5 -10.5h-88l-226 -356h146q45 0 45 -43v-51q0 -45 -45 -45h-226l-57 -93v-49h283q45 0 45 -41v-53q0 -43 -45 -43h-283v-168h80q53 0 53 -53v-119q0 -29 -11.5 -39t-39.5 -10
z" />
    <glyph glyph-name="brokenbar" unicode="&#xa6;" horiz-adv-x="555" 
d="M379 899q0 -57 -53 -57h-113q-51 0 -51 57v514q0 57 53 57h117q28 0 37.5 -13.5t9.5 -43.5v-514zM379 20q0 -57 -53 -57h-113q-51 0 -51 57v515q0 57 53 57h117q28 0 37.5 -13.5t9.5 -43.5v-515z" />
    <glyph glyph-name="section" unicode="&#xa7;" horiz-adv-x="1087" 
d="M805 268q68 -45 95.5 -104t27.5 -141q0 -63 -13 -114.5t-45 -97t-82 -76.5t-128 -49t-179 -18q-206 0 -348 49q-43 14 -43 64v248q0 55 51 55h99q28 0 38.5 -11t12.5 -36l8 -123q76 -23 178 -23q95 0 137.5 28.5t42.5 84.5q0 51 -29 80t-120 70l-150 67
q-159 70 -217.5 137.5t-58.5 188.5t59 195t152 96q-111 72 -111 245q0 72 20 130t64 106.5t124.5 75t191.5 26.5q187 0 299 -37q43 -13 43 -65v-246q0 -29 -13 -40t-41 -11h-94q-27 0 -38 12.5t-13 38.5l-10 123q-78 12 -131 12q-81 0 -114.5 -29.5t-33.5 -84.5
q0 -50 31 -82.5t125 -73.5l139 -61q87 -38 140 -72t83 -75t40 -84.5t10 -108.5q0 -103 -56.5 -176.5t-142.5 -92.5zM760 510q0 42 -20.5 69t-77.5 56q-119 61 -181 86q-24 12 -47 12q-16 0 -31 -6q-36 -11 -61 -46.5t-25 -84.5q0 -40 23 -67t78 -56q74 -39 198 -90
q16 -8 43 -8q18 0 29 8q29 14 50.5 50t21.5 77z" />
    <glyph glyph-name="dieresis" unicode="&#xa8;" horiz-adv-x="403" 
d="M139 1348q0 -73 -32.5 -104.5t-96.5 -31.5q-61 0 -94 30.5t-33 103.5q0 135 127 135q63 0 96 -30t33 -103zM520 1348q0 -73 -32.5 -104.5t-96.5 -31.5q-61 0 -94 30.5t-33 103.5q0 135 127 135q63 0 96 -30t33 -103z" />
    <glyph glyph-name="copyright" unicode="&#xa9;" horiz-adv-x="1699" 
d="M1575 707q0 -208 -89 -375t-255.5 -264t-382.5 -97q-162 0 -299 56.5t-230 155t-145.5 234t-52.5 290.5q0 208 89.5 375.5t255.5 264.5t380 97q221 0 388.5 -97t254 -263.5t86.5 -376.5zM1489 707q0 187 -77.5 335t-225 234t-340.5 86q-190 0 -336.5 -86.5t-223.5 -235
t-77 -333.5t77 -333t223.5 -234.5t338.5 -86.5t339 86t224.5 234t77.5 334zM1133 911q0 -45 -39 -45h-72q-37 0 -41 41l-8 97q-18 4 -74 4q-135 0 -182 -62t-47 -227q0 -163 47.5 -227t171.5 -64q83 0 164 23q30 10 47 10q22 0 30 -27q23 -75 23 -92q0 -27 -31 -39
q-117 -43 -280 -43q-89 0 -156 21.5t-119 70.5t-79 136.5t-27 211.5q0 248 100 359.5t324 111.5q113 0 207 -22q41 -11 41 -53v-185z" />
    <glyph glyph-name="ordfeminine" unicode="&#xaa;" horiz-adv-x="763" 
d="M686 539h-182q-23 0 -32 7t-11 25l-2 29q-25 -35 -70.5 -53.5t-97.5 -18.5q-228 0 -228 205q0 101 72 152q62 41 213 41q56 0 105 -6v28q0 33 -7 47q-8 19 -29.5 26t-72.5 7q-73 0 -141 -10q-32 -4 -47 -4q-22 0 -29 26q-10 30 -10 82q0 33 28 39q87 25 226 25
q177 0 229 -49q26 -25 35.5 -61.5t9.5 -96.5v-289h37q43 0 43 -41v-71q0 -39 -39 -39zM453 809q-25 2 -80 2q-82 0 -107 -20q-22 -15 -22 -54q0 -37 22.5 -55t75.5 -18q63 0 88 22q13 9 16 21q7 21 7 38v64z" />
    <glyph glyph-name="guillemotleft" unicode="&#xab;" horiz-adv-x="1095" 
d="M324 543l245 -326q21 -26 21 -51q0 -12 -9.5 -21.5t-25.5 -9.5h-139q-23 0 -39 10t-35 33l-248 303q-28 36 -28 60q0 27 22 55l250 311q37 47 80 47h137q14 0 24.5 -6.5t10.5 -19.5q0 -26 -23 -56zM770 543l246 -326q20 -25 20 -51q0 -12 -9 -21.5t-26 -9.5h-139
q-23 0 -39 10t-35 33l-247 303q-29 37 -29 60q0 26 23 55l251 311q20 24 37 35.5t41 11.5h137q14 0 24.5 -6.5t10.5 -19.5q0 -30 -20 -56z" />
    <glyph glyph-name="logicalnot" unicode="&#xac;" horiz-adv-x="1435" 
d="M1231 129q0 -31 -15 -44t-47 -13h-63q-32 0 -47 13t-15 44v381h-823q-55 0 -55 65v58q0 65 55 65h948q62 0 62 -65v-504z" />
    <glyph glyph-name="uni00AD" unicode="&#xad;" horiz-adv-x="673" 
d="M553 434h-430q-53 0 -53 53v127q0 25 12 37.5t43 12.5h426q55 0 55 -52v-131q0 -26 -13 -36.5t-40 -10.5z" />
    <glyph glyph-name="registered" unicode="&#xae;" horiz-adv-x="1699" 
d="M1575 707q0 -208 -89 -375t-255.5 -264t-382.5 -97q-162 0 -299 56.5t-230 155t-145.5 234t-52.5 290.5q0 208 89.5 375.5t255.5 264.5t380 97q221 0 388.5 -97t254 -263.5t86.5 -376.5zM1489 707q0 187 -77.5 335t-225 234t-340.5 86q-190 0 -336.5 -86.5t-223.5 -235
t-77 -333.5t77 -333t223.5 -234.5t338.5 -86.5t339 86t224.5 234t77.5 334zM805 276h-281q-41 0 -41 46v59q0 45 41 45h45v586h-45q-41 0 -41 45v57q0 45 47 45h289q174 0 250 -29q125 -52 125 -233q0 -174 -135 -235l106 -209q13 -27 45 -27h27q41 0 41 -41v-68
q0 -22 -9.5 -31.5t-35.5 -9.5h-113q-40 0 -63.5 14t-38.5 48l-135 287q-7 0 -27 -1t-31 -1h-69v-197h45q43 0 43 -45v-64q0 -23 -9 -32t-30 -9zM756 768h73q78 0 113 14q29 10 45.5 38.5t16.5 68.5q0 92 -58 110q-41 13 -121 13h-69v-244z" />
    <glyph glyph-name="macron" unicode="&#xaf;" horiz-adv-x="403" 
d="M451 1225h-492q-55 0 -55 51v98q0 51 55 51h490q55 0 55 -53v-100q0 -28 -12.5 -37.5t-40.5 -9.5z" />
    <glyph glyph-name="degree" unicode="&#xb0;" horiz-adv-x="688" 
d="M627 1178q0 -134 -78 -208.5t-207 -74.5q-125 0 -202 74t-77 207q0 134 79 208t210 74q129 0 202 -72.5t73 -207.5zM520 1176q0 92 -45.5 140t-126.5 48q-83 0 -129.5 -49.5t-46.5 -143.5q0 -88 47.5 -135t130.5 -47q79 0 124.5 49.5t45.5 137.5z" />
    <glyph glyph-name="plusminus" unicode="&#xb1;" horiz-adv-x="1435" 
d="M813 371q0 -60 -61 -60h-68q-61 0 -61 60v364h-381q-58 0 -58 66v57q0 64 58 64h379v360q0 59 61 59h70q31 0 46 -13.5t15 -45.5v-360h381q57 0 57 -64v-57q0 -66 -57 -66h-381v-364zM1251 63q0 -63 -57 -63h-952q-58 0 -58 63v60q0 63 58 63h952q57 0 57 -63v-60z" />
    <glyph glyph-name="twosuperior" unicode="&#xb2;" 
d="M672 860h-584q-15 0 -25 9.5t-10 21.5v76q0 29 23 45q214 148 315 241q86 75 86 181q0 65 -36.5 98t-118.5 33q-46 0 -138 -15q-40 -8 -49 -8q-18 0 -24 19q-19 67 -19 90q0 28 35 39q92 30 238 30q94 0 157 -17.5t95.5 -53t44.5 -77t12 -99.5q0 -142 -96 -246
q-107 -110 -271 -215q57 2 252 2l8 82q1 22 11.5 30.5t33.5 8.5h64q43 0 43 -41v-193q0 -41 -47 -41z" />
    <glyph glyph-name="threesuperior" unicode="&#xb3;" 
d="M489 1307q100 -7 145.5 -58t45.5 -149q0 -63 -14.5 -106.5t-50.5 -79t-104 -53t-169 -17.5q-139 0 -225 22q-35 8 -35 33q0 39 18 98q8 23 31 23q5 0 21.5 -3.5t25.5 -4.5q73 -13 154 -13q93 0 122 26t29 81q0 62 -34 85t-127 23h-35q-35 0 -35 39v80q0 41 35 41h35
q76 0 105.5 23t29.5 71q0 56 -28 75.5t-107 19.5q-44 0 -127 -11q-7 -1 -26 -3.5t-26 -2.5t-15 6.5t-11 14.5q-15 55 -15 90q0 24 33 35q89 28 232 28q63 0 109 -6t77 -20.5t50 -32t29 -46.5t13.5 -58.5t3.5 -73.5q0 -64 -40 -112t-120 -64z" />
    <glyph glyph-name="acute" unicode="&#xb4;" horiz-adv-x="403" 
d="M188 1225q-37 -37 -84 -37h-100q-49 0 -49 37q0 23 18 47l187 239q19 24 36.5 34.5t43.5 10.5h157q52 0 52 -38q0 -22 -23 -48z" />
    <glyph glyph-name="mu" unicode="&#xb5;" horiz-adv-x="1243" 
d="M436 25v-385q0 -58 -53 -58h-170q-51 0 -51 58v1333q0 57 51 57h172q51 0 51 -57v-602q0 -60 13 -101q11 -34 43 -48.5t96 -14.5q99 0 166 26q32 9 45 27q12 15 12 59v654q0 26 14 41.5t41 15.5h168q51 0 51 -57v-907q0 -68 -61 -68h-150q-31 0 -43 10.5t-14 36.5l-4 29
q-68 -78 -246 -78q-93 0 -131 29z" />
    <glyph glyph-name="paragraph" unicode="&#xb6;" horiz-adv-x="1179" 
d="M666 -221q0 -41 -35 -41h-41q-37 0 -37 43v694q-459 0 -459 459q0 93 15 166.5t54.5 140t103.5 110.5t165.5 69.5t237.5 25.5h272q62 0 62 -57v-1608q0 -43 -37 -43h-39q-37 0 -37 43v1552h-225v-1554z" />
    <glyph glyph-name="periodcentered" unicode="&#xb7;" horiz-adv-x="499" 
d="M414 551q0 -168 -166 -168q-69 0 -115.5 37.5t-46.5 128.5q0 90 45.5 130t120.5 40q74 0 118 -36.5t44 -131.5z" />
    <glyph glyph-name="cedilla" unicode="&#xb8;" horiz-adv-x="403" 
d="M240 -104q50 -1 85 -14t54 -30.5t29.5 -46t13 -52.5t2.5 -58q0 -211 -289 -211q-68 0 -102 10q-43 9 -43 51q0 39 8 66q6 24 16 31.5t33 7.5q15 0 47 -4q16 -4 58 -4q39 0 54 10.5t15 40.5q0 33 -13.5 46t-43.5 13q-6 0 -26 -1t-25 -1q-45 0 -45 41q0 4 10 66l33 163h149
z" />
    <glyph glyph-name="onesuperior" unicode="&#xb9;" 
d="M631 860h-393q-26 0 -34.5 11t-8.5 38v60q0 47 47 47h108v504l-96 -41q-18 -11 -33 -11q-17 0 -24 21q-35 87 -35 100q0 19 24 29l166 74q30 12 70 12h86q39 0 39 -41v-647h80q28 0 38.5 -9t10.5 -36v-66q0 -30 -8 -37.5t-37 -7.5z" />
    <glyph glyph-name="ordmasculine" unicode="&#xba;" horiz-adv-x="761" 
d="M700 860q0 -99 -20 -164.5t-62.5 -103t-99.5 -53t-141 -15.5q-81 0 -136.5 14.5t-97.5 51.5t-62 102.5t-20 163.5q0 99 24 166t70 101.5t100 48.5t128 14q66 0 112 -7t87.5 -27.5t65.5 -56.5t38 -94t14 -141zM502 854q0 111 -23 143.5t-96 32.5q-68 0 -96.5 -35
t-28.5 -139q0 -108 27 -143t96 -35q47 0 70.5 11.5t37 50t13.5 114.5z" />
    <glyph glyph-name="guillemotright" unicode="&#xbb;" horiz-adv-x="1095" 
d="M774 547l-248 327q-18 23 -18 50q0 30 33 30h139q24 0 40.5 -10t35.5 -33l248 -303q26 -35 26 -59q0 -28 -20 -53l-252 -314q-37 -47 -80 -47h-137q-13 0 -23 7.5t-10 21.5q0 26 20 55zM326 547l-246 327q-21 30 -21 50q0 13 9 21.5t26 8.5h139q24 0 40.5 -10t35.5 -33
l248 -303q27 -31 27 -59q0 -27 -21 -53l-252 -314q-37 -47 -80 -47h-137q-14 0 -24.5 7.5t-10.5 21.5q0 22 23 55z" />
    <glyph glyph-name="onequarter" unicode="&#xbc;" horiz-adv-x="1783" 
d="M598 -29q-11 -21 -22 -29t-31 -8h-45q-29 0 -29 27q0 15 12 39l678 1411q22 45 51 45h58q26 0 26 -26q0 -14 -18 -50zM627 541h-394q-26 0 -34.5 11t-8.5 38v59q0 47 48 47h108v504l-94 -41q-20 -8 -35 -8q-21 0 -29 23q-30 72 -30 92q0 24 30 37l160 69q30 12 62 12h96
q37 0 37 -41v-647h80q28 0 38.5 -9t10.5 -36v-65q0 -30 -8 -37.5t-37 -7.5zM1569 0h-289q-26 0 -34.5 11t-8.5 38v60q0 24 11 35.5t38 11.5h55v63h-350q-43 0 -43 35v65q0 33 19 58l272 434q23 33 55 33h121q27 0 27 -21t-10 -35q-82 -127 -135 -208.5t-87 -131.5t-49 -73
h180v129q0 41 39 41h111q35 0 35 -37v-133h71q41 0 41 -33v-90q0 -33 -41 -33h-71v-63h41q28 0 38.5 -9t10.5 -36v-66q0 -30 -9 -37.5t-38 -7.5z" />
    <glyph glyph-name="onehalf" unicode="&#xbd;" horiz-adv-x="1783" 
d="M590 -29q-11 -21 -22 -29t-31 -8h-45q-29 0 -29 27q0 15 12 39l678 1411q22 45 51 45h58q26 0 26 -26q0 -14 -18 -50zM627 541h-394q-26 0 -34.5 11t-8.5 38v59q0 47 48 47h108v504l-94 -41q-20 -8 -35 -8q-21 0 -29 23q-30 72 -30 92q0 24 30 37l160 69q30 12 62 12h96
q37 0 37 -41v-647h80q28 0 38.5 -9t10.5 -36v-65q0 -30 -8 -37.5t-37 -7.5zM1649 0h-584q-15 0 -25 9.5t-10 21.5v75q0 30 23 46q214 148 315 241q86 75 86 180q0 65 -37 98.5t-119 33.5q-45 0 -137 -15q-40 -8 -49 -8q-19 0 -25 18q-18 63 -18 91q0 27 35 38q95 31 237 31
q76 0 132 -12.5t89.5 -33.5t54 -53.5t27.5 -67.5t7 -81q0 -140 -97 -245q-109 -111 -270 -215q57 2 252 2l8 82q1 22 11.5 30t33.5 8h64q43 0 43 -41v-192q0 -41 -47 -41z" />
    <glyph glyph-name="threequarters" unicode="&#xbe;" horiz-adv-x="1783" 
d="M657 -29q-11 -21 -22 -29t-31 -8h-45q-29 0 -29 27q0 13 13 39l678 1411q22 45 51 45h57q27 0 27 -26q0 -12 -19 -50zM557 987q100 -7 145.5 -58t45.5 -149q0 -63 -14.5 -106.5t-50.5 -79t-104 -53t-169 -17.5q-136 0 -226 23q-34 8 -34 33q0 40 18 98q7 22 31 22
q5 0 21.5 -3.5t25.5 -4.5q68 -12 153 -12q49 0 80.5 7t46.5 22.5t20 32.5t5 44q0 62 -34.5 85.5t-127.5 23.5h-35q-35 0 -35 39v80q0 41 35 41h35q76 0 105.5 23t29.5 71q0 55 -27.5 74.5t-107.5 19.5q-52 0 -127 -10q-8 -1 -26 -3.5t-25 -2.5t-15.5 6t-11.5 14
q-14 52 -14 90q0 24 33 35q92 29 231 29q94 0 151 -13.5t86 -46.5t37.5 -72t8.5 -106q0 -64 -40 -112t-120 -64zM1624 0h-289q-26 0 -34.5 11t-8.5 38v60q0 24 11 35.5t38 11.5h56v63h-350q-43 0 -43 35v65q0 34 18 58l272 434q23 33 56 33h120q27 0 27 -21t-10 -35
q-82 -128 -134.5 -208t-87 -132t-48.5 -73h180v129q0 41 39 41h110q35 0 35 -37v-133h72q41 0 41 -33v-90q0 -33 -41 -33h-72v-63h41q28 0 38.5 -9t10.5 -36v-66q0 -30 -9 -37.5t-38 -7.5z" />
    <glyph glyph-name="questiondown" unicode="&#xbf;" horiz-adv-x="923" 
d="M461 539h94q30 0 46 -8.5t20 -30.5q6 -31 6 -94q0 -73 -21 -117t-88 -94q-96 -70 -133 -124.5t-37 -123.5q0 -75 39.5 -113.5t140.5 -38.5q100 0 174 15q56 8 62 8q47 0 59 -47q15 -69 15 -105q0 -57 -54 -72q-127 -36 -297 -36q-123 0 -206.5 21t-132 65t-69 105
t-20.5 149q0 60 7 101.5t29 85.5t64.5 84t110.5 85q70 46 96 76.5t33 87.5q1 7 4 37.5t7 48.5q7 35 51 35zM356 893q0 164 162 164q31 0 57 -7.5t50 -24.5t37.5 -50t13.5 -80q0 -90 -44 -130t-118 -40q-72 0 -115 36.5t-43 131.5z" />
    <glyph glyph-name="Agrave" unicode="&#xc0;" horiz-adv-x="1386" 
d="M494 0h-433q-55 0 -55 55v119q0 53 60 53h45l417 1166q20 55 78 55h178q31 0 48.5 -12.5t27.5 -42.5l416 -1166h47q57 0 57 -55v-123q0 -28 -12.5 -38.5t-40.5 -10.5h-428q-53 0 -53 55v119q0 53 55 53h86l-74 205h-440l-72 -205h91q57 0 57 -55v-123q0 -29 -12.5 -39
t-42.5 -10zM545 653h303q-124 366 -152 467q-42 -149 -151 -467zM659 1581l-305 207q-32 19 -32 53q0 13 13 23t36 10h180q49 0 92 -37l240 -201q28 -26 28 -51q0 -12 -11.5 -21.5t-31.5 -9.5h-118q-42 0 -91 27z" />
    <glyph glyph-name="Aacute" unicode="&#xc1;" horiz-adv-x="1386" 
d="M494 0h-433q-55 0 -55 55v119q0 53 60 53h45l417 1166q20 55 78 55h178q31 0 48.5 -12.5t27.5 -42.5l416 -1166h47q57 0 57 -55v-123q0 -28 -12.5 -38.5t-40.5 -10.5h-428q-53 0 -53 55v119q0 53 55 53h86l-74 205h-440l-72 -205h91q57 0 57 -55v-123q0 -29 -12.5 -39
t-42.5 -10zM545 653h303q-124 366 -152 467q-42 -149 -151 -467zM733 1563q-47 -27 -88 -27h-119q-20 0 -31.5 9.5t-11.5 21.5q0 24 29 51l240 201q42 36 92 36h180q23 0 36 -9.5t13 -22.5q0 -34 -33 -54z" />
    <glyph glyph-name="Acircumflex" unicode="&#xc2;" horiz-adv-x="1386" 
d="M494 0h-433q-55 0 -55 55v119q0 53 60 53h45l417 1166q20 55 78 55h178q31 0 48.5 -12.5t27.5 -42.5l416 -1166h47q57 0 57 -55v-123q0 -28 -12.5 -38.5t-40.5 -10.5h-428q-53 0 -53 55v119q0 53 55 53h86l-74 205h-440l-72 -205h91q57 0 57 -55v-123q0 -29 -12.5 -39
t-42.5 -10zM545 653h303q-124 366 -152 467q-42 -149 -151 -467zM469 1554h-94q-26 0 -39.5 11.5t-13.5 27.5q0 25 18 43l205 205q51 55 98 55h117q43 0 90 -47l207 -213q18 -18 18 -43q0 -39 -57 -39h-94q-46 0 -88 39l-140 121l-141 -123q-24 -21 -41.5 -29t-44.5 -8z" />
    <glyph glyph-name="Atilde" unicode="&#xc3;" horiz-adv-x="1386" 
d="M494 0h-433q-55 0 -55 55v119q0 53 60 53h45l417 1166q20 55 78 55h178q31 0 48.5 -12.5t27.5 -42.5l416 -1166h47q57 0 57 -55v-123q0 -28 -12.5 -38.5t-40.5 -10.5h-428q-53 0 -53 55v119q0 53 55 53h86l-74 205h-440l-72 -205h91q57 0 57 -55v-123q0 -29 -12.5 -39
t-42.5 -10zM545 653h303q-124 366 -152 467q-42 -149 -151 -467zM436 1552h-57q-49 0 -49 45q0 28 12 52q84 200 205 200q59 0 160 -53q74 -41 112 -41q25 0 44 13t38 49q21 41 64 41h51q25 0 36 -10.5t11 -35.5q0 -31 -12 -61q-72 -190 -201 -190q-37 0 -71.5 11t-96.5 42
q-74 39 -111 39q-24 0 -40 -12t-33 -42q-21 -47 -62 -47z" />
    <glyph glyph-name="Adieresis" unicode="&#xc4;" horiz-adv-x="1386" 
d="M494 0h-433q-55 0 -55 55v119q0 53 60 53h45l417 1166q20 55 78 55h178q31 0 48.5 -12.5t27.5 -42.5l416 -1166h47q57 0 57 -55v-123q0 -28 -12.5 -38.5t-40.5 -10.5h-428q-53 0 -53 55v119q0 53 55 53h86l-74 205h-440l-72 -205h91q57 0 57 -55v-123q0 -29 -12.5 -39
t-42.5 -10zM545 653h303q-124 366 -152 467q-42 -149 -151 -467zM623 1698q0 -71 -32.5 -103t-96.5 -32q-127 0 -127 133q0 137 127 137q63 0 96 -30.5t33 -104.5zM1030 1698q0 -72 -32 -103.5t-97 -31.5q-127 0 -127 133q0 137 127 137q63 0 96 -30.5t33 -104.5z" />
    <glyph glyph-name="Aring" unicode="&#xc5;" horiz-adv-x="1386" 
d="M494 0h-433q-55 0 -55 55v119q0 53 60 53h45l417 1166q20 55 78 55h178q31 0 48.5 -12.5t27.5 -42.5l416 -1166h47q57 0 57 -55v-123q0 -28 -12.5 -38.5t-40.5 -10.5h-428q-53 0 -53 55v119q0 53 55 53h86l-74 205h-440l-72 -205h91q57 0 57 -55v-123q0 -29 -12.5 -39
t-42.5 -10zM545 653h303q-124 366 -152 467q-42 -149 -151 -467zM893 1702q0 -95 -54.5 -146t-146.5 -51q-88 0 -140 51t-52 146q0 94 54 147.5t144 53.5q91 0 143 -53t52 -148zM805 1706q0 58 -29 88.5t-82 30.5q-49 0 -79.5 -31.5t-30.5 -89.5q0 -56 30 -87.5t82 -31.5
q51 0 80 31.5t29 89.5z" />
    <glyph glyph-name="AE" unicode="&#xc6;" horiz-adv-x="2052" 
d="M530 0h-475q-51 0 -51 53v121q0 53 57 53h82l625 992h-90q-53 0 -53 55v115q0 57 59 57h1217q51 0 51 -53v-293q0 -28 -12 -37.5t-39 -9.5h-113q-51 0 -55 51l-7 113h-380v-353h411q30 0 42.5 -11.5t12.5 -41.5v-131q0 -47 -55 -47h-414v-406h418l13 121q3 51 55 51h110
q27 0 40.5 -10t13.5 -37q0 -211 -4 -305q0 -47 -54 -47h-948q-53 0 -53 55v119q0 26 12 39.5t43 13.5h72v209h-459l-135 -209h61q58 0 58 -55v-123q0 -29 -13 -39t-43 -10zM731 659h330v541q-87 -157 -330 -541z" />
    <glyph glyph-name="Ccedilla" unicode="&#xc7;" horiz-adv-x="1236" 
d="M709 -106q52 -2 89.5 -15t57.5 -31.5t31.5 -48t14.5 -55t3 -61.5q0 -222 -305 -222q-64 0 -108 9q-48 12 -48 55q0 27 11 69q8 25 19 34.5t34 9.5q7 0 27 -4t24 -5q20 -4 57 -4q42 0 58 12t16 44q0 33 -14 45t-47 12q-9 0 -27 -1t-22 -1q-50 0 -50 43q0 8 11 71l24 127
q-116 11 -200 54t-146 127t-92.5 219t-30.5 323q0 208 31.5 350t105 238.5t194 140.5t298.5 44q201 0 342 -31q53 -15 53 -66v-282q0 -52 -59 -52h-107q-52 0 -55 52l-10 139q-55 10 -154 10q-85 0 -145 -20t-99.5 -57.5t-62.5 -102t-32 -143t-9 -189.5q0 -140 14.5 -233.5
t52 -162.5t103.5 -100.5t166 -31.5q164 0 297 45q44 12 63 12q25 0 33 -22q39 -102 39 -140q0 -35 -47 -53q-160 -64 -387 -70z" />
    <glyph glyph-name="Egrave" unicode="&#xc8;" horiz-adv-x="1204" 
d="M1081 0h-942q-55 0 -55 55v119q0 53 57 53h72v992h-74q-55 0 -55 55v119q0 53 57 53h916q24 0 36.5 -11t12.5 -38v-297q0 -27 -13 -37t-40 -10h-113q-51 0 -55 51l-6 115h-381v-355h411q30 0 44 -11.5t14 -41.5v-131q0 -47 -58 -47h-411v-406h415l9 121q3 51 55 51h113
q27 0 40 -10.5t13 -38.5q0 -76 -6 -299q0 -51 -56 -51zM582 1581l-306 207q-32 19 -32 53q0 13 13 23t36 10h180q49 0 92 -37l240 -201q29 -27 29 -51q0 -12 -11.5 -21.5t-31.5 -9.5h-119q-40 0 -90 27z" />
    <glyph glyph-name="Eacute" unicode="&#xc9;" horiz-adv-x="1204" 
d="M1081 0h-942q-55 0 -55 55v119q0 53 57 53h72v992h-74q-55 0 -55 55v119q0 53 57 53h916q24 0 36.5 -11t12.5 -38v-297q0 -27 -13 -37t-40 -10h-113q-51 0 -55 51l-6 115h-381v-355h411q30 0 44 -11.5t14 -41.5v-131q0 -47 -58 -47h-411v-406h415l9 121q3 51 55 51h113
q27 0 40 -10.5t13 -38.5q0 -76 -6 -299q0 -51 -56 -51zM684 1563q-46 -27 -88 -27h-119q-20 0 -31.5 9.5t-11.5 21.5q0 24 29 51l239 201q42 36 93 36h180q23 0 36 -9.5t13 -22.5q0 -34 -33 -54z" />
    <glyph glyph-name="Ecircumflex" unicode="&#xca;" horiz-adv-x="1204" 
d="M1081 0h-942q-55 0 -55 55v119q0 53 57 53h72v992h-74q-55 0 -55 55v119q0 53 57 53h916q24 0 36.5 -11t12.5 -38v-297q0 -27 -13 -37t-40 -10h-113q-51 0 -55 51l-6 115h-381v-355h411q30 0 44 -11.5t14 -41.5v-131q0 -47 -58 -47h-411v-406h415l9 121q3 51 55 51h113
q27 0 40 -10.5t13 -38.5q0 -76 -6 -299q0 -51 -56 -51zM403 1554h-94q-26 0 -39.5 11.5t-13.5 27.5q0 25 18 43l205 205q51 55 99 55h116q43 0 90 -47l207 -213q19 -19 19 -43q0 -39 -58 -39h-94q-46 0 -88 39l-139 121l-142 -123q-24 -21 -41.5 -29t-44.5 -8z" />
    <glyph glyph-name="Edieresis" unicode="&#xcb;" horiz-adv-x="1204" 
d="M1081 0h-942q-55 0 -55 55v119q0 53 57 53h72v992h-74q-55 0 -55 55v119q0 53 57 53h916q24 0 36.5 -11t12.5 -38v-297q0 -27 -13 -37t-40 -10h-113q-51 0 -55 51l-6 115h-381v-355h411q30 0 44 -11.5t14 -41.5v-131q0 -47 -58 -47h-411v-406h415l9 121q3 51 55 51h113
q27 0 40 -10.5t13 -38.5q0 -76 -6 -299q0 -51 -56 -51zM553 1698q0 -71 -32.5 -103t-96.5 -32q-127 0 -127 133q0 137 127 137q63 0 96 -30.5t33 -104.5zM961 1698q0 -72 -32.5 -103.5t-97.5 -31.5q-126 0 -126 133q0 137 126 137q63 0 96.5 -30.5t33.5 -104.5z" />
    <glyph glyph-name="Igrave" unicode="&#xcc;" horiz-adv-x="710" 
d="M571 0h-432q-55 0 -55 55v119q0 53 57 53h72v992h-74q-55 0 -55 55v119q0 53 57 53h428q30 0 43 -12.5t13 -42.5v-123q0 -29 -12 -39t-42 -10h-73v-992h71q29 0 42.5 -13t13.5 -42v-123q0 -29 -12 -39t-42 -10zM311 1581l-305 207q-33 20 -33 53q0 13 13.5 23t36.5 10
h180q49 0 92 -37l240 -201q28 -26 28 -51q0 -12 -11.5 -21.5t-31.5 -9.5h-119q-41 0 -90 27z" />
    <glyph glyph-name="Iacute" unicode="&#xcd;" horiz-adv-x="710" 
d="M571 0h-432q-55 0 -55 55v119q0 53 57 53h72v992h-74q-55 0 -55 55v119q0 53 57 53h428q30 0 43 -12.5t13 -42.5v-123q0 -29 -12 -39t-42 -10h-73v-992h71q29 0 42.5 -13t13.5 -42v-123q0 -29 -12 -39t-42 -10zM375 1581q-47 -27 -88 -27h-119q-20 0 -31.5 9.5
t-11.5 21.5q0 24 29 51l239 201q43 37 92 37h181q23 0 36 -10t13 -23q0 -33 -33 -53z" />
    <glyph glyph-name="Icircumflex" unicode="&#xce;" horiz-adv-x="710" 
d="M571 0h-432q-55 0 -55 55v119q0 53 57 53h72v992h-74q-55 0 -55 55v119q0 53 57 53h428q30 0 43 -12.5t13 -42.5v-123q0 -29 -12 -39t-42 -10h-73v-992h71q29 0 42.5 -13t13.5 -42v-123q0 -29 -12 -39t-42 -10zM125 1554h-94q-26 0 -40 11.5t-14 27.5q0 24 19 43l205 205
q51 55 98 55h117q43 0 90 -47l207 -213q18 -18 18 -43q0 -39 -57 -39h-94q-46 0 -88 39l-140 121l-141 -123q-24 -21 -41.5 -29t-44.5 -8z" />
    <glyph glyph-name="Idieresis" unicode="&#xcf;" horiz-adv-x="710" 
d="M571 0h-432q-55 0 -55 55v119q0 53 57 53h72v992h-74q-55 0 -55 55v119q0 53 57 53h428q30 0 43 -12.5t13 -42.5v-123q0 -29 -12 -39t-42 -10h-73v-992h71q29 0 42.5 -13t13.5 -42v-123q0 -29 -12 -39t-42 -10zM279 1698q0 -71 -32.5 -103t-96.5 -32q-127 0 -127 133
q0 137 127 137q63 0 96 -30.5t33 -104.5zM686 1698q0 -72 -32 -103.5t-97 -31.5q-127 0 -127 133q0 137 127 137q63 0 96 -30.5t33 -104.5z" />
    <glyph glyph-name="Eth" unicode="&#xd0;" horiz-adv-x="1464" 
d="M596 0h-457q-55 0 -55 55v119q0 53 57 53h72v420h-104q-28 0 -42 14t-14 37v97q0 51 56 51h104v373h-74q-55 0 -55 55v115q0 57 59 57h480q255 0 385 -39q184 -53 272 -219t88 -449q0 -139 -17.5 -244t-58.5 -193.5t-112 -151t-176 -101.5q-133 -49 -408 -49zM498 227
h141q175 0 252 39q104 50 144 164t40 307q0 187 -39 293t-139 150q-85 39 -260 39h-139v-373h247q28 0 41 -12t13 -39v-101q0 -28 -13 -37.5t-43 -9.5h-245v-420z" />
    <glyph glyph-name="Ntilde" unicode="&#xd1;" horiz-adv-x="1505" 
d="M569 0h-430q-55 0 -55 55v119q0 53 57 53h74v992h-76q-55 0 -55 55v119q0 53 57 53h285q47 0 72 -41q394 -603 540 -868q-2 137 -2 682h-80q-55 0 -55 55v119q0 53 57 53h428q30 0 43 -12.5t13 -42.5v-123q0 -29 -12 -39t-41 -10h-76v-1160q0 -29 -16.5 -45t-43.5 -16
h-133q-32 0 -51 9.5t-37 37.5q-405 635 -545 877q2 -119 2 -695h78q29 0 42.5 -13t13.5 -42v-123q0 -29 -12 -39t-42 -10zM514 1552h-57q-49 0 -49 45q0 28 12 52q84 200 205 200q58 0 159 -53q74 -41 113 -41q25 0 44 13t38 49q21 41 63 41h52q25 0 36 -10.5t11 -35.5
q0 -28 -13 -61q-72 -190 -200 -190q-37 0 -71.5 11t-96.5 42q-74 39 -111 39q-24 0 -40.5 -12t-33.5 -42q-21 -47 -61 -47z" />
    <glyph glyph-name="Ograve" unicode="&#xd2;" horiz-adv-x="1439" 
d="M1339 733q0 -180 -25 -310t-72.5 -217t-125.5 -138.5t-175.5 -73t-231.5 -21.5q-129 0 -223 21t-171 72.5t-123.5 138t-71 216.5t-24.5 310q0 179 31.5 311.5t85.5 214t136.5 131t172 67.5t205.5 18q94 0 164.5 -8t137 -28.5t113 -56t86 -91t63 -133.5t36 -183t12.5 -240
zM1047 729q0 130 -12 219.5t-34.5 148t-64 90.5t-91.5 44t-126 12q-85 0 -142.5 -21.5t-102.5 -77t-66 -157.5t-21 -256q0 -132 14 -225.5t39 -152t67 -92.5t90.5 -46t117.5 -12q68 0 115.5 11.5t91 44t69.5 90.5t41 152.5t15 227.5zM700 1581l-305 207q-33 20 -33 53
q0 13 13.5 23t36.5 10h180q49 0 92 -37l240 -201q28 -26 28 -51q0 -12 -11.5 -21.5t-31.5 -9.5h-118q-41 0 -91 27z" />
    <glyph glyph-name="Oacute" unicode="&#xd3;" horiz-adv-x="1439" 
d="M1339 733q0 -180 -25 -310t-72.5 -217t-125.5 -138.5t-175.5 -73t-231.5 -21.5q-129 0 -223 21t-171 72.5t-123.5 138t-71 216.5t-24.5 310q0 179 31.5 311.5t85.5 214t136.5 131t172 67.5t205.5 18q94 0 164.5 -8t137 -28.5t113 -56t86 -91t63 -133.5t36 -183t12.5 -240
zM1047 729q0 130 -12 219.5t-34.5 148t-64 90.5t-91.5 44t-126 12q-85 0 -142.5 -21.5t-102.5 -77t-66 -157.5t-21 -256q0 -132 14 -225.5t39 -152t67 -92.5t90.5 -46t117.5 -12q68 0 115.5 11.5t91 44t69.5 90.5t41 152.5t15 227.5zM756 1581q-46 -27 -88 -27h-119
q-20 0 -31.5 9.5t-11.5 21.5q0 24 29 51l239 201q43 37 92 37h181q23 0 36 -10t13 -23q0 -33 -33 -53z" />
    <glyph glyph-name="Ocircumflex" unicode="&#xd4;" horiz-adv-x="1439" 
d="M1339 733q0 -180 -25 -310t-72.5 -217t-125.5 -138.5t-175.5 -73t-231.5 -21.5q-129 0 -223 21t-171 72.5t-123.5 138t-71 216.5t-24.5 310q0 179 31.5 311.5t85.5 214t136.5 131t172 67.5t205.5 18q94 0 164.5 -8t137 -28.5t113 -56t86 -91t63 -133.5t36 -183t12.5 -240
zM1047 729q0 130 -12 219.5t-34.5 148t-64 90.5t-91.5 44t-126 12q-85 0 -142.5 -21.5t-102.5 -77t-66 -157.5t-21 -256q0 -132 14 -225.5t39 -152t67 -92.5t90.5 -46t117.5 -12q68 0 115.5 11.5t91 44t69.5 90.5t41 152.5t15 227.5zM496 1554h-95q-26 0 -39.5 11.5
t-13.5 27.5q0 24 19 43l204 205q51 55 99 55h116q44 0 91 -47l206 -213q19 -19 19 -43q0 -39 -58 -39h-94q-46 0 -88 39l-139 121l-141 -123q-24 -21 -41.5 -29t-44.5 -8z" />
    <glyph glyph-name="Otilde" unicode="&#xd5;" horiz-adv-x="1439" 
d="M1339 733q0 -180 -25 -310t-72.5 -217t-125.5 -138.5t-175.5 -73t-231.5 -21.5q-129 0 -223 21t-171 72.5t-123.5 138t-71 216.5t-24.5 310q0 179 31.5 311.5t85.5 214t136.5 131t172 67.5t205.5 18q94 0 164.5 -8t137 -28.5t113 -56t86 -91t63 -133.5t36 -183t12.5 -240
zM1047 729q0 130 -12 219.5t-34.5 148t-64 90.5t-91.5 44t-126 12q-85 0 -142.5 -21.5t-102.5 -77t-66 -157.5t-21 -256q0 -132 14 -225.5t39 -152t67 -92.5t90.5 -46t117.5 -12q68 0 115.5 11.5t91 44t69.5 90.5t41 152.5t15 227.5zM461 1552h-58q-49 0 -49 45q0 26 13 52
q84 200 204 200q59 0 160 -53q74 -41 113 -41q25 0 44 13t38 49q21 41 63 41h51q25 0 36 -10.5t11 -35.5q0 -31 -12 -61q-72 -190 -201 -190q-36 0 -70.5 11t-96.5 42q-74 39 -111 39q-24 0 -40.5 -12t-33.5 -42q-21 -47 -61 -47z" />
    <glyph glyph-name="Odieresis" unicode="&#xd6;" horiz-adv-x="1439" 
d="M1339 733q0 -180 -25 -310t-72.5 -217t-125.5 -138.5t-175.5 -73t-231.5 -21.5q-129 0 -223 21t-171 72.5t-123.5 138t-71 216.5t-24.5 310q0 179 31.5 311.5t85.5 214t136.5 131t172 67.5t205.5 18q94 0 164.5 -8t137 -28.5t113 -56t86 -91t63 -133.5t36 -183t12.5 -240
zM1047 729q0 130 -12 219.5t-34.5 148t-64 90.5t-91.5 44t-126 12q-85 0 -142.5 -21.5t-102.5 -77t-66 -157.5t-21 -256q0 -132 14 -225.5t39 -152t67 -92.5t90.5 -46t117.5 -12q68 0 115.5 11.5t91 44t69.5 90.5t41 152.5t15 227.5zM649 1698q0 -71 -32.5 -103t-96.5 -32
q-127 0 -127 133q0 137 127 137q63 0 96 -30.5t33 -104.5zM1057 1698q0 -72 -32 -103.5t-97 -31.5q-127 0 -127 133q0 137 127 137q63 0 96 -30.5t33 -104.5z" />
    <glyph glyph-name="multiply" unicode="&#xd7;" horiz-adv-x="1435" 
d="M1137 326q20 -23 20 -45q0 -25 -20 -45l-45 -48q-24 -24 -45 -24t-43 22l-289 281l-285 -285q-23 -20 -43 -20q-23 0 -43 20l-45 47q-20 23 -20 43q0 28 20 45l287 289l-293 289q-23 20 -23 45q0 20 23 43l49 51q21 21 41 21q22 0 45 -23l289 -291l295 291q18 21 43 21
q22 0 45 -23l43 -45q20 -20 20 -45q0 -28 -20 -45l-295 -289z" />
    <glyph glyph-name="Oslash" unicode="&#xd8;" horiz-adv-x="1439" 
d="M219 -41q-13 -20 -31 -20q-16 0 -67 38q-15 12 -15 25t15 33l94 131q-119 174 -119 565q0 179 31.5 311.5t85.5 214t136.5 131t172 67.5t205.5 18q258 0 385 -74l84 114q13 19 31 19q13 0 26 -10q54 -37 54 -54q0 -12 -13 -28l-88 -123q133 -165 133 -584
q0 -180 -25 -310t-72.5 -217t-125.5 -138.5t-175.5 -73t-231.5 -21.5q-272 0 -406 101zM1047 729q0 215 -33 324l-547 -752q39 -55 99 -76.5t149 -21.5q68 0 115.5 11.5t91 44t69.5 90.5t41 152.5t15 227.5zM387 731q0 -179 25 -295l536 740q-67 67 -229 67
q-85 0 -142.5 -21.5t-102.5 -77t-66 -157.5t-21 -256z" />
    <glyph glyph-name="Ugrave" unicode="&#xd9;" horiz-adv-x="1474" 
d="M1290 578q0 -165 -12.5 -255t-48.5 -153q-120 -199 -506 -199q-88 0 -159 9.5t-137.5 32.5t-116 66t-77.5 105q-30 62 -39.5 155.5t-9.5 233.5v646h-69q-56 0 -56 55v119q0 53 58 53h426q30 0 42.5 -12.5t12.5 -42.5v-123q0 -29 -12 -39t-41 -10h-74v-707q0 -83 8 -134
t33 -87q57 -82 227 -82q180 0 236 78q26 36 35.5 85.5t9.5 135.5v711h-80q-55 0 -55 55v119q0 53 57 53h418q29 0 42 -12.5t13 -42.5v-123q0 -29 -12.5 -39t-40.5 -10h-72v-641zM713 1581l-305 207q-33 20 -33 53q0 13 13 23t36 10h180q49 0 92 -37l240 -201q29 -27 29 -51
q0 -12 -11.5 -21.5t-31.5 -9.5h-119q-41 0 -90 27z" />
    <glyph glyph-name="Uacute" unicode="&#xda;" horiz-adv-x="1474" 
d="M1290 578q0 -165 -12.5 -255t-48.5 -153q-120 -199 -506 -199q-88 0 -159 9.5t-137.5 32.5t-116 66t-77.5 105q-30 62 -39.5 155.5t-9.5 233.5v646h-69q-56 0 -56 55v119q0 53 58 53h426q30 0 42.5 -12.5t12.5 -42.5v-123q0 -29 -12 -39t-41 -10h-74v-707q0 -83 8 -134
t33 -87q57 -82 227 -82q180 0 236 78q26 36 35.5 85.5t9.5 135.5v711h-80q-55 0 -55 55v119q0 53 57 53h418q29 0 42 -12.5t13 -42.5v-123q0 -29 -12.5 -39t-40.5 -10h-72v-641zM780 1581q-46 -27 -88 -27h-119q-20 0 -31.5 9.5t-11.5 21.5q0 24 29 51l240 201q43 37 92 37
h180q23 0 36 -10t13 -23q0 -33 -33 -53z" />
    <glyph glyph-name="Ucircumflex" unicode="&#xdb;" horiz-adv-x="1474" 
d="M1290 578q0 -165 -12.5 -255t-48.5 -153q-120 -199 -506 -199q-88 0 -159 9.5t-137.5 32.5t-116 66t-77.5 105q-30 62 -39.5 155.5t-9.5 233.5v646h-69q-56 0 -56 55v119q0 53 58 53h426q30 0 42.5 -12.5t12.5 -42.5v-123q0 -29 -12 -39t-41 -10h-74v-707q0 -83 8 -134
t33 -87q57 -82 227 -82q180 0 236 78q26 36 35.5 85.5t9.5 135.5v711h-80q-55 0 -55 55v119q0 53 57 53h418q29 0 42 -12.5t13 -42.5v-123q0 -29 -12.5 -39t-40.5 -10h-72v-641zM520 1554h-94q-26 0 -39.5 11.5t-13.5 27.5q0 25 18 43l205 205q51 55 98 55h117q43 0 90 -47
l207 -213q18 -18 18 -43q0 -39 -57 -39h-94q-46 0 -88 39l-139 121l-142 -123q-24 -21 -41.5 -29t-44.5 -8z" />
    <glyph glyph-name="Udieresis" unicode="&#xdc;" horiz-adv-x="1474" 
d="M1290 578q0 -165 -12.5 -255t-48.5 -153q-120 -199 -506 -199q-88 0 -159 9.5t-137.5 32.5t-116 66t-77.5 105q-30 62 -39.5 155.5t-9.5 233.5v646h-69q-56 0 -56 55v119q0 53 58 53h426q30 0 42.5 -12.5t12.5 -42.5v-123q0 -29 -12 -39t-41 -10h-74v-707q0 -83 8 -134
t33 -87q57 -82 227 -82q180 0 236 78q26 36 35.5 85.5t9.5 135.5v711h-80q-55 0 -55 55v119q0 53 57 53h418q29 0 42 -12.5t13 -42.5v-123q0 -29 -12.5 -39t-40.5 -10h-72v-641zM670 1698q0 -71 -32.5 -103t-96.5 -32q-127 0 -127 133q0 137 127 137q63 0 96 -30.5
t33 -104.5zM1077 1698q0 -72 -32 -103.5t-97 -31.5q-127 0 -127 133q0 137 127 137q63 0 96 -30.5t33 -104.5z" />
    <glyph glyph-name="Yacute" unicode="&#xdd;" horiz-adv-x="1333" 
d="M1272 1219h-90l-371 -611v-381h72q29 0 42 -13t13 -42v-123q0 -29 -12 -39t-41 -10h-436q-56 0 -56 55v119q0 53 58 53h75v373l-374 619h-91q-53 0 -53 55v119q0 53 58 53h448q30 0 43.5 -12.5t13.5 -42.5v-123q0 -29 -12.5 -39t-42.5 -10h-22q97 -165 184 -332
q59 115 186 332h-28q-56 0 -56 55v119q0 53 58 53h432q30 0 42.5 -12.5t12.5 -42.5v-123q0 -29 -12 -39t-41 -10zM774 1563q-46 -27 -88 -27h-119q-20 0 -31.5 9.5t-11.5 21.5q0 24 29 51l240 201q42 36 92 36h180q23 0 36 -9.5t13 -22.5q0 -34 -33 -54z" />
    <glyph glyph-name="Thorn" unicode="&#xde;" horiz-adv-x="1335" 
d="M573 1219h-77v-50h127q296 0 417 -51q207 -82 207 -368q0 -153 -62.5 -256t-211.5 -148q-121 -37 -338 -37h-139v-82h75q29 0 42.5 -13t13.5 -42v-123q0 -29 -12 -39t-42 -10h-434q-53 0 -53 55v119q0 53 57 53h70v992h-74q-53 0 -53 55v119q0 53 57 53h428
q30 0 43 -12.5t13 -42.5v-123q0 -29 -12 -39t-42 -10zM496 528h153q129 0 199 25q51 19 79.5 66t28.5 116q0 78 -26 119t-78 61q-56 23 -209 23h-147v-410z" />
    <glyph glyph-name="germandbls" unicode="&#xdf;" horiz-adv-x="1210" 
d="M399 0h-288q-56 0 -56 55v117q0 53 58 53h65v783q0 227 37 311q30 68 75.5 112.5t137 73.5t227.5 29q225 0 319.5 -94t94.5 -273q0 -161 -52 -246.5t-173 -119.5q89 -10 148.5 -39.5t92 -82t45.5 -118.5t13 -160q0 -122 -26.5 -204.5t-82 -129t-128 -66t-175.5 -19.5
q-102 0 -162 18q-13 4 -20.5 18.5t-7.5 30.5q0 59 8 119q6 43 43 43q6 0 45.5 -4t77.5 -4q86 0 120.5 47t34.5 180q0 129 -52 178t-191 49h-23q-22 0 -34.5 13.5t-12.5 36.5v133q0 53 49 53h21q83 0 125.5 50.5t42.5 164.5t-39 160.5t-123 46.5q-119 0 -158 -82
q-22 -43 -22 -182v-996q0 -22 -14 -38.5t-40 -16.5z" />
    <glyph glyph-name="agrave" unicode="&#xe0;" horiz-adv-x="1159" 
d="M1044 0h-280q-52 0 -55 41l-2 47q-89 -108 -273 -108q-352 0 -352 333q0 178 121 254q97 66 313 66q109 0 180 -8v49q0 58 -12 88q-11 30 -50 44.5t-124 14.5q-98 0 -199 -16q-63 -10 -75 -10q-35 0 -46 41q-16 77 -16 118q0 47 43 60q142 43 336 43q146 0 224 -19
t120 -63q39 -40 54.5 -100.5t15.5 -155.5v-494h75q29 0 42.5 -13t13.5 -42v-121q0 -29 -12 -39t-42 -10zM696 440q-92 9 -143 9q-120 0 -172 -37q-39 -27 -39 -93q0 -64 36 -98.5t126 -34.5q106 0 158 41q20 16 26 35q8 21 8 68v110zM496 1225l-238 245q-25 25 -25 48
q0 17 14 27.5t38 10.5h159q47 0 80 -45l187 -239q18 -24 18 -47q0 -37 -49 -37h-94q-53 0 -90 37z" />
    <glyph glyph-name="aacute" unicode="&#xe1;" horiz-adv-x="1159" 
d="M1044 0h-280q-52 0 -55 41l-2 47q-89 -108 -273 -108q-352 0 -352 333q0 178 121 254q97 66 313 66q109 0 180 -8v49q0 58 -12 88q-11 30 -50 44.5t-124 14.5q-98 0 -199 -16q-63 -10 -75 -10q-35 0 -46 41q-16 77 -16 118q0 47 43 60q142 43 336 43q146 0 224 -19
t120 -63q39 -40 54.5 -100.5t15.5 -155.5v-494h75q29 0 42.5 -13t13.5 -42v-121q0 -29 -12 -39t-42 -10zM696 440q-92 9 -143 9q-120 0 -172 -37q-39 -27 -39 -93q0 -64 36 -98.5t126 -34.5q106 0 158 41q20 16 26 35q8 21 8 68v110zM641 1225q-37 -37 -84 -37h-100
q-49 0 -49 37q0 23 18 47l186 239q19 24 36.5 34.5t43.5 10.5h158q51 0 51 -38q0 -23 -22 -48z" />
    <glyph glyph-name="acircumflex" unicode="&#xe2;" horiz-adv-x="1159" 
d="M1044 0h-280q-52 0 -55 41l-2 47q-89 -108 -273 -108q-352 0 -352 333q0 178 121 254q97 66 313 66q109 0 180 -8v49q0 58 -12 88q-11 30 -50 44.5t-124 14.5q-98 0 -199 -16q-63 -10 -75 -10q-35 0 -46 41q-16 77 -16 118q0 47 43 60q142 43 336 43q146 0 224 -19
t120 -63q39 -40 54.5 -100.5t15.5 -155.5v-494h75q29 0 42.5 -13t13.5 -42v-121q0 -29 -12 -39t-42 -10zM696 440q-92 9 -143 9q-120 0 -172 -37q-39 -27 -39 -93q0 -64 36 -98.5t126 -34.5q106 0 158 41q20 16 26 35q8 21 8 68v110zM362 1182h-90q-49 0 -49 39q0 21 19 43
l174 239q21 26 38.5 39.5t41.5 13.5h135q40 0 78 -51l174 -241q18 -25 18 -43q0 -39 -49 -39h-92q-45 0 -74 39l-127 149l-123 -149q-28 -39 -74 -39z" />
    <glyph glyph-name="atilde" unicode="&#xe3;" horiz-adv-x="1159" 
d="M1044 0h-280q-52 0 -55 41l-2 47q-89 -108 -273 -108q-352 0 -352 333q0 178 121 254q97 66 313 66q109 0 180 -8v49q0 58 -12 88q-11 30 -50 44.5t-124 14.5q-98 0 -199 -16q-63 -10 -75 -10q-35 0 -46 41q-16 77 -16 118q0 47 43 60q142 43 336 43q146 0 224 -19
t120 -63q39 -40 54.5 -100.5t15.5 -155.5v-494h75q29 0 42.5 -13t13.5 -42v-121q0 -29 -12 -39t-42 -10zM696 440q-92 9 -143 9q-120 0 -172 -37q-39 -27 -39 -93q0 -64 36 -98.5t126 -34.5q106 0 158 41q20 16 26 35q8 21 8 68v110zM324 1196h-64q-47 0 -47 43q0 18 14 53
q30 93 80 149t117 56q59 0 154 -53q70 -37 110 -37q24 0 37.5 10.5t30.5 46.5q16 43 61 43h60q47 0 47 -45q0 -5 -21 -76q-28 -87 -76 -134.5t-112 -47.5q-72 0 -168 53q-70 37 -94 37t-40 -10.5t-30 -40.5q-12 -25 -24 -36t-35 -11z" />
    <glyph glyph-name="adieresis" unicode="&#xe4;" horiz-adv-x="1159" 
d="M1044 0h-280q-52 0 -55 41l-2 47q-89 -108 -273 -108q-352 0 -352 333q0 178 121 254q97 66 313 66q109 0 180 -8v49q0 58 -12 88q-11 30 -50 44.5t-124 14.5q-98 0 -199 -16q-63 -10 -75 -10q-35 0 -46 41q-16 77 -16 118q0 47 43 60q142 43 336 43q146 0 224 -19
t120 -63q39 -40 54.5 -100.5t15.5 -155.5v-494h75q29 0 42.5 -13t13.5 -42v-121q0 -29 -12 -39t-42 -10zM696 440q-92 9 -143 9q-120 0 -172 -37q-39 -27 -39 -93q0 -64 36 -98.5t126 -34.5q106 0 158 41q20 16 26 35q8 21 8 68v110zM504 1348q0 -73 -32.5 -104.5
t-96.5 -31.5q-61 0 -94 30.5t-33 103.5q0 135 127 135q63 0 96 -30t33 -103zM885 1348q0 -73 -32.5 -104.5t-96.5 -31.5q-61 0 -94 30.5t-33 103.5q0 135 127 135q63 0 96 -30t33 -103z" />
    <glyph glyph-name="aring" unicode="&#xe5;" horiz-adv-x="1159" 
d="M1044 0h-280q-52 0 -55 41l-2 47q-89 -108 -273 -108q-352 0 -352 333q0 178 121 254q97 66 313 66q109 0 180 -8v49q0 58 -12 88q-11 30 -50 44.5t-124 14.5q-98 0 -199 -16q-63 -10 -75 -10q-35 0 -46 41q-16 77 -16 118q0 47 43 60q142 43 336 43q146 0 224 -19
t120 -63q39 -40 54.5 -100.5t15.5 -155.5v-494h75q29 0 42.5 -13t13.5 -42v-121q0 -29 -12 -39t-42 -10zM696 440q-92 9 -143 9q-120 0 -172 -37q-39 -27 -39 -93q0 -64 36 -98.5t126 -34.5q106 0 158 41q20 16 26 35q8 21 8 68v110zM770 1372q0 -94 -57 -146t-150 -52
q-90 0 -143 51.5t-53 146.5q0 96 55 150.5t147 54.5q93 0 147 -54.5t54 -150.5zM680 1376q0 59 -30 90t-85 31q-51 0 -82.5 -31.5t-31.5 -91.5q0 -58 30.5 -89.5t85.5 -31.5q54 0 83.5 31.5t29.5 91.5z" />
    <glyph glyph-name="ae" unicode="&#xe6;" horiz-adv-x="1699" 
d="M973 449q3 -141 63 -194.5t181 -53.5q151 0 268 37q23 10 53 10q31 0 41 -33q27 -83 27 -121q0 -36 -35 -53q-63 -33 -171 -50.5t-210 -17.5q-141 0 -228 31t-141 96q-130 -120 -375 -120q-84 0 -148 17.5t-104 47.5t-64.5 74t-34 91t-9.5 105q0 180 117 252
q112 64 329 64q124 0 179 -4v51q0 43 -13 84q-11 30 -50 44.5t-124 14.5q-112 0 -221 -16q-58 -10 -74 -10q-34 0 -45 41q-14 51 -14 120q0 48 45 60q135 41 344 41q133 0 213 -28t109 -99q41 59 129 93t180 34q82 0 146 -13t109.5 -35t77.5 -60t51.5 -78.5t30 -100t14 -116
t3.5 -134.5q0 -46 -23 -61q-13 -10 -47 -10h-579zM711 444q-75 7 -142 7q-136 0 -186 -35q-37 -29 -37 -92q0 -67 37.5 -102.5t128.5 -35.5q65 0 132 16t95 44q-28 73 -28 198zM977 629h395q2 12 2 35q0 100 -39 150t-145 50q-113 0 -162 -57.5t-51 -177.5z" />
    <glyph glyph-name="ccedilla" unicode="&#xe7;" horiz-adv-x="985" 
d="M567 -104q50 -1 85.5 -14t54.5 -30.5t29.5 -46t13 -52.5t2.5 -58q0 -211 -289 -211q-69 0 -103 10q-43 9 -43 51q0 36 9 66q6 24 16 31.5t33 7.5q15 0 47 -4q16 -4 57 -4q39 0 54.5 10.5t15.5 40.5q0 33 -13.5 46t-43.5 13q-6 0 -26.5 -1t-25.5 -1q-45 0 -45 41
q0 7 2 17.5t5 25t4 23.5l24 123q-177 22 -261.5 141.5t-84.5 376.5q0 147 25 249.5t83 173t153 103.5t235 33q196 0 288 -31q41 -13 41 -63v-256q0 -29 -13 -38.5t-40 -9.5h-113q-27 0 -38 13t-13 39l-6 116q-35 4 -119 4q-61 -1 -102.5 -24t-63.5 -67t-31.5 -98.5
t-9.5 -127.5q0 -170 47 -244.5t173 -74.5q107 0 213 26q6 1 20 5.5t25.5 7t19.5 2.5q33 0 43 -33q29 -80 29 -121q0 -33 -35 -51q-96 -49 -315 -58z" />
    <glyph glyph-name="egrave" unicode="&#xe8;" horiz-adv-x="1085" 
d="M362 434q4 -73 20.5 -121t48.5 -73.5t72.5 -35t100.5 -9.5q128 0 260 36q52 13 60 13q20 0 28 -8t15 -27q26 -72 26 -115q0 -35 -35 -53q-64 -33 -174 -50.5t-211 -17.5q-140 0 -234 31.5t-150.5 99.5t-80.5 165.5t-24 240.5q0 292 117 419.5t374 127.5q84 0 149 -13.5
t111 -36.5t78 -62t51 -80t29.5 -101.5t13.5 -116t3 -133.5q0 -55 -23 -68q-15 -12 -47 -12h-578zM367 625h383q2 12 2 32q0 106 -36 152.5t-145 46.5q-108 0 -154.5 -58t-49.5 -173zM512 1225l-238 245q-24 24 -24 48q0 38 51 38h160q47 0 80 -45l186 -239q18 -24 18 -47
q0 -37 -49 -37h-94q-53 0 -90 37z" />
    <glyph glyph-name="eacute" unicode="&#xe9;" horiz-adv-x="1085" 
d="M362 434q4 -73 20.5 -121t48.5 -73.5t72.5 -35t100.5 -9.5q128 0 260 36q52 13 60 13q20 0 28 -8t15 -27q26 -72 26 -115q0 -35 -35 -53q-64 -33 -174 -50.5t-211 -17.5q-140 0 -234 31.5t-150.5 99.5t-80.5 165.5t-24 240.5q0 292 117 419.5t374 127.5q84 0 149 -13.5
t111 -36.5t78 -62t51 -80t29.5 -101.5t13.5 -116t3 -133.5q0 -55 -23 -68q-15 -12 -47 -12h-578zM367 625h383q2 12 2 32q0 106 -36 152.5t-145 46.5q-108 0 -154.5 -58t-49.5 -173zM633 1225q-37 -37 -84 -37h-100q-50 0 -50 37q0 22 19 47l186 239q19 24 36.5 34.5
t43.5 10.5h158q51 0 51 -38q0 -22 -23 -48z" />
    <glyph glyph-name="ecircumflex" unicode="&#xea;" horiz-adv-x="1085" 
d="M362 434q4 -73 20.5 -121t48.5 -73.5t72.5 -35t100.5 -9.5q128 0 260 36q52 13 60 13q20 0 28 -8t15 -27q26 -72 26 -115q0 -35 -35 -53q-64 -33 -174 -50.5t-211 -17.5q-140 0 -234 31.5t-150.5 99.5t-80.5 165.5t-24 240.5q0 292 117 419.5t374 127.5q84 0 149 -13.5
t111 -36.5t78 -62t51 -80t29.5 -101.5t13.5 -116t3 -133.5q0 -55 -23 -68q-15 -12 -47 -12h-578zM367 625h383q2 12 2 32q0 106 -36 152.5t-145 46.5q-108 0 -154.5 -58t-49.5 -173zM377 1182h-90q-49 0 -49 39q0 22 18 43l174 239q21 26 38.5 39.5t41.5 13.5h135
q40 0 78 -51l174 -241q18 -25 18 -43q0 -39 -49 -39h-92q-45 0 -74 39l-127 149l-122 -149q-28 -39 -74 -39z" />
    <glyph glyph-name="edieresis" unicode="&#xeb;" horiz-adv-x="1085" 
d="M362 434q4 -73 20.5 -121t48.5 -73.5t72.5 -35t100.5 -9.5q128 0 260 36q52 13 60 13q20 0 28 -8t15 -27q26 -72 26 -115q0 -35 -35 -53q-64 -33 -174 -50.5t-211 -17.5q-140 0 -234 31.5t-150.5 99.5t-80.5 165.5t-24 240.5q0 292 117 419.5t374 127.5q84 0 149 -13.5
t111 -36.5t78 -62t51 -80t29.5 -101.5t13.5 -116t3 -133.5q0 -55 -23 -68q-15 -12 -47 -12h-578zM367 625h383q2 12 2 32q0 106 -36 152.5t-145 46.5q-108 0 -154.5 -58t-49.5 -173zM502 1348q0 -73 -32.5 -104.5t-96.5 -31.5q-61 0 -94 30.5t-33 103.5q0 135 127 135
q63 0 96 -30t33 -103zM883 1348q0 -73 -32.5 -104.5t-96.5 -31.5q-61 0 -94 30.5t-33 103.5q0 135 127 135q63 0 96 -30t33 -103z" />
    <glyph glyph-name="igrave" unicode="&#xec;" horiz-adv-x="655" 
d="M240 1225l-238 245q-25 25 -25 48q0 17 14 27.5t38 10.5h159q47 0 80 -45l187 -239q18 -24 18 -47q0 -37 -49 -37h-94q-53 0 -90 37zM541 0h-412q-55 0 -55 53v119q0 53 57 53h64v578h-66q-55 0 -55 51v121q0 53 57 53h289q28 0 38.5 -14.5t10.5 -42.5v-746h70
q30 0 43.5 -11.5t13.5 -39.5v-125q0 -29 -12.5 -39t-42.5 -10z" />
    <glyph glyph-name="iacute" unicode="&#xed;" horiz-adv-x="655" 
d="M360 1225q-37 -37 -84 -37h-100q-49 0 -49 37q0 23 18 47l187 239q19 24 36.5 34.5t43.5 10.5h157q52 0 52 -38q0 -22 -23 -48zM541 0h-412q-55 0 -55 53v119q0 53 57 53h64v578h-66q-55 0 -55 51v121q0 53 57 53h289q28 0 38.5 -14.5t10.5 -42.5v-746h70
q30 0 43.5 -11.5t13.5 -39.5v-125q0 -29 -12.5 -39t-42.5 -10z" />
    <glyph glyph-name="icircumflex" unicode="&#xee;" horiz-adv-x="655" 
d="M541 0h-412q-55 0 -55 53v119q0 53 57 53h64v578h-66q-55 0 -55 51v121q0 53 57 53h289q28 0 38.5 -14.5t10.5 -42.5v-746h70q30 0 43.5 -11.5t13.5 -39.5v-125q0 -29 -12.5 -39t-42.5 -10zM121 1182h-90q-49 0 -49 39q0 22 18 43l174 239q21 26 38.5 39.5t41.5 13.5h135
q40 0 78 -51l174 -241q18 -25 18 -43q0 -39 -49 -39h-92q-45 0 -74 39l-127 149l-122 -149q-28 -39 -74 -39z" />
    <glyph glyph-name="idieresis" unicode="&#xef;" horiz-adv-x="655" 
d="M256 1348q0 -73 -32.5 -104.5t-96.5 -31.5q-61 0 -94 30.5t-33 103.5q0 135 127 135q63 0 96 -30t33 -103zM637 1348q0 -73 -32.5 -104.5t-96.5 -31.5q-61 0 -94 30.5t-33 103.5q0 135 127 135q63 0 96 -30t33 -103zM541 0h-412q-55 0 -55 53v119q0 53 57 53h64v578h-66
q-55 0 -55 51v121q0 53 57 53h289q28 0 38.5 -14.5t10.5 -42.5v-746h70q30 0 43.5 -11.5t13.5 -39.5v-125q0 -29 -12.5 -39t-42.5 -10z" />
    <glyph glyph-name="eth" unicode="&#xf0;" horiz-adv-x="1157" 
d="M993 1393l-92 -60q100 -118 136 -312t36 -495q0 -162 -30.5 -270t-95.5 -170t-154.5 -87.5t-221.5 -25.5q-101 0 -175 14.5t-135 51t-98.5 98t-58 155.5t-20.5 224q0 124 24.5 216t65.5 149t104 91.5t130.5 47t154.5 12.5q69 0 135 -19.5t93 -62.5q-29 156 -101 240
l-119 -76q-30 -20 -51 -20q-18 0 -39 28q-26 38 -33.5 52t-7.5 30q0 20 29 41l76 47q-84 38 -201 47q-19 2 -31 12.5t-12 28.5q0 35 14 107q3 20 17.5 31.5t36.5 11.5q38 0 61 -2q205 -15 334 -88l131 86q29 18 45 18q18 0 33 -22q4 -6 12 -16.5t11 -15l8 -12l7 -10.5
t4.5 -8.5t3.5 -9t2 -8t1 -8.5q0 -20 -29 -41zM797 508q0 123 -20.5 187t-65 88t-129.5 24q-115 0 -168.5 -64t-53.5 -227q0 -100 11.5 -162t39.5 -96t65.5 -45.5t98.5 -11.5q49 0 81 6t61 24.5t45.5 52.5t25.5 89t9 135z" />
    <glyph glyph-name="ntilde" unicode="&#xf1;" horiz-adv-x="1284" 
d="M541 0h-412q-55 0 -55 53v121q0 26 13 38.5t44 12.5h64v578h-66q-55 0 -55 51v121q0 53 57 53h275q55 0 59 -51l2 -43q31 55 119.5 87t189.5 32q140 0 208 -32t93 -97q21 -56 21 -201v-498h69q29 0 42.5 -13t13.5 -42v-121q0 -30 -11.5 -39.5t-40.5 -9.5h-294
q-54 0 -54 55v607q0 69 -10 100q-16 59 -131 59q-93 0 -156 -28q-34 -15 -45 -31q-12 -24 -12 -64v-473h70q57 0 57 -55v-121q0 -29 -12.5 -39t-42.5 -10zM387 1196h-63q-48 0 -48 43q0 15 15 53q30 94 79.5 149.5t116.5 55.5q59 0 154 -53q70 -37 111 -37q24 0 37 10.5
t30 46.5q16 43 62 43h59q47 0 47 -45q0 -8 -20 -76q-28 -87 -76.5 -134.5t-112.5 -47.5q-72 0 -168 53q-70 37 -94 37t-40 -10.5t-30 -40.5q-12 -25 -24 -36t-35 -11z" />
    <glyph glyph-name="ograve" unicode="&#xf2;" horiz-adv-x="1153" 
d="M1071 522q0 -162 -30 -269.5t-95 -169t-154 -86t-221 -24.5q-101 0 -175 14.5t-135 51t-98.5 98t-58 155.5t-20.5 224q0 132 25 229t67 156.5t108 95t136.5 48t163.5 12.5q83 0 145 -8.5t119 -30t96.5 -60.5t69 -97.5t43.5 -143t14 -195.5zM797 512q0 130 -20 197.5
t-65 94.5t-132 27q-59 0 -98 -14t-67.5 -49t-41.5 -96t-13 -154q0 -132 23 -202.5t67.5 -95.5t124.5 -25q60 0 98.5 12t68 46t42.5 97t13 162zM504 1225l-238 245q-24 24 -24 48q0 38 51 38h160q46 0 79 -45l187 -239q18 -24 18 -47q0 -37 -49 -37h-94q-53 0 -90 37z" />
    <glyph glyph-name="oacute" unicode="&#xf3;" horiz-adv-x="1153" 
d="M1071 522q0 -162 -30 -269.5t-95 -169t-154 -86t-221 -24.5q-101 0 -175 14.5t-135 51t-98.5 98t-58 155.5t-20.5 224q0 132 25 229t67 156.5t108 95t136.5 48t163.5 12.5q83 0 145 -8.5t119 -30t96.5 -60.5t69 -97.5t43.5 -143t14 -195.5zM797 512q0 130 -20 197.5
t-65 94.5t-132 27q-59 0 -98 -14t-67.5 -49t-41.5 -96t-13 -154q0 -132 23 -202.5t67.5 -95.5t124.5 -25q60 0 98.5 12t68 46t42.5 97t13 162zM635 1225q-37 -37 -84 -37h-100q-50 0 -50 37q0 22 19 47l186 239q19 24 36.5 34.5t43.5 10.5h158q51 0 51 -38q0 -22 -23 -48z
" />
    <glyph glyph-name="ocircumflex" unicode="&#xf4;" horiz-adv-x="1153" 
d="M1071 522q0 -162 -30 -269.5t-95 -169t-154 -86t-221 -24.5q-101 0 -175 14.5t-135 51t-98.5 98t-58 155.5t-20.5 224q0 132 25 229t67 156.5t108 95t136.5 48t163.5 12.5q83 0 145 -8.5t119 -30t96.5 -60.5t69 -97.5t43.5 -143t14 -195.5zM797 512q0 130 -20 197.5
t-65 94.5t-132 27q-59 0 -98 -14t-67.5 -49t-41.5 -96t-13 -154q0 -132 23 -202.5t67.5 -95.5t124.5 -25q60 0 98.5 12t68 46t42.5 97t13 162zM383 1182h-90q-49 0 -49 39q0 22 18 43l174 239q21 26 38.5 39.5t41.5 13.5h135q40 0 78 -51l174 -241q19 -27 19 -43
q0 -39 -50 -39h-92q-44 0 -73 39l-127 149l-123 -149q-28 -39 -74 -39z" />
    <glyph glyph-name="otilde" unicode="&#xf5;" horiz-adv-x="1153" 
d="M1071 522q0 -162 -30 -269.5t-95 -169t-154 -86t-221 -24.5q-101 0 -175 14.5t-135 51t-98.5 98t-58 155.5t-20.5 224q0 132 25 229t67 156.5t108 95t136.5 48t163.5 12.5q83 0 145 -8.5t119 -30t96.5 -60.5t69 -97.5t43.5 -143t14 -195.5zM797 512q0 130 -20 197.5
t-65 94.5t-132 27q-59 0 -98 -14t-67.5 -49t-41.5 -96t-13 -154q0 -132 23 -202.5t67.5 -95.5t124.5 -25q60 0 98.5 12t68 46t42.5 97t13 162zM334 1196h-64q-47 0 -47 43q0 15 15 53q30 94 79.5 149.5t116.5 55.5q59 0 154 -53q70 -37 110 -37q24 0 37.5 10.5t30.5 46.5
q16 43 61 43h60q47 0 47 -45q0 -5 -21 -76q-28 -87 -76 -134.5t-112 -47.5q-72 0 -168 53q-70 37 -94 37t-40 -10.5t-30 -40.5q-12 -25 -24 -36t-35 -11z" />
    <glyph glyph-name="odieresis" unicode="&#xf6;" horiz-adv-x="1153" 
d="M1071 522q0 -162 -30 -269.5t-95 -169t-154 -86t-221 -24.5q-101 0 -175 14.5t-135 51t-98.5 98t-58 155.5t-20.5 224q0 132 25 229t67 156.5t108 95t136.5 48t163.5 12.5q83 0 145 -8.5t119 -30t96.5 -60.5t69 -97.5t43.5 -143t14 -195.5zM797 512q0 130 -20 197.5
t-65 94.5t-132 27q-59 0 -98 -14t-67.5 -49t-41.5 -96t-13 -154q0 -132 23 -202.5t67.5 -95.5t124.5 -25q60 0 98.5 12t68 46t42.5 97t13 162zM520 1348q0 -73 -32.5 -104.5t-96.5 -31.5q-61 0 -94 30.5t-33 103.5q0 135 127 135q63 0 96 -30t33 -103zM901 1348
q0 -73 -32.5 -104.5t-96.5 -31.5q-61 0 -94 30.5t-33 103.5q0 135 127 135q63 0 96 -30t33 -103z" />
    <glyph glyph-name="divide" unicode="&#xf7;" horiz-adv-x="1435" 
d="M838 963q0 -125 -121 -125q-52 0 -84.5 29.5t-32.5 95.5q0 64 33.5 94t89.5 30q115 0 115 -124zM1249 575q0 -65 -51 -65h-958q-56 0 -56 65v60q0 33 13 49t43 16h958q28 0 39.5 -15.5t11.5 -49.5v-60zM838 240q0 -64 -32 -95.5t-89 -31.5q-52 0 -84.5 30.5t-32.5 96.5
q0 63 33.5 94t89.5 31q115 0 115 -125z" />
    <glyph glyph-name="oslash" unicode="&#xf8;" horiz-adv-x="1153" 
d="M217 -66q-16 -16 -29 -16q-15 0 -59 33q-14 11 -14 22q0 12 14 31l66 90q-111 123 -111 422q0 111 16.5 196.5t49.5 144.5t75.5 98.5t101.5 61.5t120.5 31t138.5 9q180 0 276 -43l80 110q14 17 27 17q11 0 26 -11q45 -30 45 -47q0 -15 -8 -26l-78 -107q117 -120 117 -428
q0 -162 -30 -269.5t-95 -169t-154 -86t-221 -24.5q-181 0 -288 52zM797 512q0 123 -19 197l-346 -478q43 -36 143 -36q60 0 98.5 12t68 46t42.5 97t13 162zM360 518q0 -106 15 -174l336 463q-47 24 -129 24q-60 0 -99.5 -14t-68 -49t-41.5 -96t-13 -154z" />
    <glyph glyph-name="ugrave" unicode="&#xf9;" horiz-adv-x="1282" 
d="M1167 0h-284q-32 0 -45.5 10.5t-16.5 36.5l-4 45q-39 -55 -120 -86t-183 -31q-141 0 -209.5 33t-91.5 98q-25 74 -25 216v481h-65q-55 0 -55 51v121q0 53 59 53h285q51 0 51 -59v-598q0 -72 10 -101q12 -35 42.5 -49t92.5 -14q104 0 154 26q28 12 41 35q14 17 14 70v465
h-67q-30 0 -42 12.5t-12 38.5v121q0 53 56 53h286q26 0 40 -15t14 -42v-746h77q28 0 40 -13t12 -42v-121q0 -29 -12 -39t-42 -10zM524 1229l-237 246q-25 25 -25 47q0 18 13.5 28.5t37.5 10.5h160q47 0 80 -45l186 -240q19 -25 19 -47q0 -37 -49 -37h-95q-53 0 -90 37z" />
    <glyph glyph-name="uacute" unicode="&#xfa;" horiz-adv-x="1282" 
d="M1167 0h-284q-32 0 -45.5 10.5t-16.5 36.5l-4 45q-39 -55 -120 -86t-183 -31q-141 0 -209.5 33t-91.5 98q-25 74 -25 216v481h-65q-55 0 -55 51v121q0 53 59 53h285q51 0 51 -59v-598q0 -72 10 -101q12 -35 42.5 -49t92.5 -14q104 0 154 26q28 12 41 35q14 17 14 70v465
h-67q-30 0 -42 12.5t-12 38.5v121q0 53 56 53h286q26 0 40 -15t14 -42v-746h77q28 0 40 -13t12 -42v-121q0 -29 -12 -39t-42 -10zM688 1225q-37 -37 -84 -37h-100q-49 0 -49 37q0 23 18 47l186 239q19 24 36.5 34.5t43.5 10.5h158q51 0 51 -38q0 -23 -22 -48z" />
    <glyph glyph-name="ucircumflex" unicode="&#xfb;" horiz-adv-x="1282" 
d="M1167 0h-284q-32 0 -45.5 10.5t-16.5 36.5l-4 45q-39 -55 -120 -86t-183 -31q-141 0 -209.5 33t-91.5 98q-25 74 -25 216v481h-65q-55 0 -55 51v121q0 53 59 53h285q51 0 51 -59v-598q0 -72 10 -101q12 -35 42.5 -49t92.5 -14q104 0 154 26q28 12 41 35q14 17 14 70v465
h-67q-30 0 -42 12.5t-12 38.5v121q0 53 56 53h286q26 0 40 -15t14 -42v-746h77q28 0 40 -13t12 -42v-121q0 -29 -12 -39t-42 -10zM428 1182h-90q-49 0 -49 39q0 22 18 43l174 239q21 26 38.5 39.5t41.5 13.5h135q40 0 78 -51l174 -241q19 -27 19 -43q0 -39 -49 -39h-93
q-44 0 -73 39l-127 149l-123 -149q-28 -39 -74 -39z" />
    <glyph glyph-name="udieresis" unicode="&#xfc;" horiz-adv-x="1282" 
d="M1167 0h-284q-32 0 -45.5 10.5t-16.5 36.5l-4 45q-39 -55 -120 -86t-183 -31q-141 0 -209.5 33t-91.5 98q-25 74 -25 216v481h-65q-55 0 -55 51v121q0 53 59 53h285q51 0 51 -59v-598q0 -72 10 -101q12 -35 42.5 -49t92.5 -14q104 0 154 26q28 12 41 35q14 17 14 70v465
h-67q-30 0 -42 12.5t-12 38.5v121q0 53 56 53h286q26 0 40 -15t14 -42v-746h77q28 0 40 -13t12 -42v-121q0 -29 -12 -39t-42 -10zM565 1348q0 -73 -32.5 -104.5t-96.5 -31.5q-61 0 -94 30.5t-33 103.5q0 135 127 135q63 0 96 -30t33 -103zM946 1348q0 -73 -32.5 -104.5
t-96.5 -31.5q-61 0 -94 30.5t-33 103.5q0 135 127 135q63 0 96 -30t33 -103z" />
    <glyph glyph-name="yacute" unicode="&#xfd;" horiz-adv-x="1142" 
d="M1079 803h-43l-377 -928q-46 -113 -65 -151q-46 -99 -111 -160q-88 -76 -256 -76q-130 0 -176 16q-39 12 -39 52q0 21 9.5 72t15.5 67q15 29 43 29q5 0 42 -4.5t64 -4.5q72 0 103 21q25 14 41.5 35.5t36.5 62.5q42 91 55 129l16 43l-325 797h-52q-53 0 -53 51v121
q0 26 13 39.5t45 13.5h374q58 0 58 -55v-121q0 -29 -14 -39t-44 -10h-37q119 -311 177 -490q47 145 172 490h-39q-56 0 -56 51v121q0 53 58 53h362q58 0 58 -55v-121q0 -29 -13.5 -39t-42.5 -10zM662 1225q-37 -37 -84 -37h-101q-49 0 -49 37q0 23 18 47l187 239
q19 24 36.5 34.5t43.5 10.5h157q52 0 52 -38q0 -22 -23 -48z" />
    <glyph glyph-name="thorn" unicode="&#xfe;" horiz-adv-x="1214" 
d="M567 -500h-444q-55 0 -55 56v116q0 54 57 54h65v1581h-67q-53 0 -53 55v117q0 53 57 53h272q39 0 52.5 -13t13.5 -49v-522q83 103 307 103q97 0 164.5 -24.5t117.5 -84t73.5 -162t23.5 -254.5q0 -165 -29.5 -271.5t-95 -165.5t-153.5 -81t-222 -22q-50 0 -105 10t-81 27
v-297h100q56 0 56 -56v-121q0 -29 -13 -39t-41 -10zM465 231q61 -28 153 -28q81 0 129.5 15t77.5 54.5t39 98.5t10 157q0 67 -4.5 112t-16.5 82t-34.5 57.5t-57 31t-85.5 10.5q-116 0 -182 -41q-21 -17 -25 -28q-4 -10 -4 -39v-482z" />
    <glyph glyph-name="ydieresis" unicode="&#xff;" horiz-adv-x="1142" 
d="M1079 803h-43l-377 -928q-46 -113 -65 -151q-46 -99 -111 -160q-88 -76 -256 -76q-130 0 -176 16q-39 12 -39 52q0 21 9.5 72t15.5 67q15 29 43 29q5 0 42 -4.5t64 -4.5q72 0 103 21q25 14 41.5 35.5t36.5 62.5q42 91 55 129l16 43l-325 797h-52q-53 0 -53 51v121
q0 26 13 39.5t45 13.5h374q58 0 58 -55v-121q0 -29 -14 -39t-44 -10h-37q119 -311 177 -490q47 145 172 490h-39q-56 0 -56 51v121q0 53 58 53h362q58 0 58 -55v-121q0 -29 -13.5 -39t-42.5 -10zM520 1348q0 -73 -32.5 -104.5t-96.5 -31.5q-61 0 -94 30.5t-33 103.5
q0 135 127 135q63 0 96 -30t33 -103zM901 1348q0 -73 -32.5 -104.5t-96.5 -31.5q-61 0 -94 30.5t-33 103.5q0 135 127 135q63 0 96 -30t33 -103z" />
    <glyph glyph-name="Amacron" unicode="&#x100;" horiz-adv-x="1386" 
d="M494 0h-433q-55 0 -55 55v119q0 53 60 53h45l417 1166q20 55 78 55h178q31 0 48.5 -12.5t27.5 -42.5l416 -1166h47q57 0 57 -55v-123q0 -28 -12.5 -38.5t-40.5 -10.5h-428q-53 0 -53 55v119q0 53 55 53h86l-74 205h-440l-72 -205h91q57 0 57 -55v-123q0 -29 -12.5 -39
t-42.5 -10zM545 653h303q-124 366 -152 467q-42 -149 -151 -467zM956 1595h-524q-55 0 -55 52v94q0 51 55 51h522q56 0 56 -53v-97q0 -28 -13 -37.5t-41 -9.5z" />
    <glyph glyph-name="amacron" unicode="&#x101;" horiz-adv-x="1159" 
d="M1044 0h-280q-52 0 -55 41l-2 47q-89 -108 -273 -108q-352 0 -352 333q0 178 121 254q97 66 313 66q109 0 180 -8v49q0 58 -12 88q-11 30 -50 44.5t-124 14.5q-98 0 -199 -16q-63 -10 -75 -10q-35 0 -46 41q-16 77 -16 118q0 47 43 60q142 43 336 43q146 0 224 -19
t120 -63q39 -40 54.5 -100.5t15.5 -155.5v-494h75q29 0 42.5 -13t13.5 -42v-121q0 -29 -12 -39t-42 -10zM696 440q-92 9 -143 9q-120 0 -172 -37q-39 -27 -39 -93q0 -64 36 -98.5t126 -34.5q106 0 158 41q20 16 26 35q8 21 8 68v110zM819 1225h-491q-56 0 -56 51v98
q0 51 56 51h489q55 0 55 -53v-100q0 -28 -12.5 -37.5t-40.5 -9.5z" />
    <glyph glyph-name="Abreve" unicode="&#x102;" horiz-adv-x="1386" 
d="M494 0h-433q-55 0 -55 55v119q0 53 60 53h45l417 1166q20 55 78 55h178q31 0 48.5 -12.5t27.5 -42.5l416 -1166h47q57 0 57 -55v-123q0 -28 -12.5 -38.5t-40.5 -10.5h-428q-53 0 -53 55v119q0 53 55 53h86l-74 205h-440l-72 -205h91q57 0 57 -55v-123q0 -29 -12.5 -39
t-42.5 -10zM545 653h303q-124 366 -152 467q-42 -149 -151 -467zM985 1874q49 0 49 -43q0 -39 -14 -90q-30 -94 -106.5 -145.5t-219.5 -51.5q-265 0 -321 197q-11 33 -11 80q0 53 54 53h65q54 0 62 -43q10 -52 42 -77t111 -25q84 0 115.5 23t46.5 77q7 26 20.5 35.5
t39.5 9.5h67z" />
    <glyph glyph-name="abreve" unicode="&#x103;" horiz-adv-x="1159" 
d="M1044 0h-280q-52 0 -55 41l-2 47q-89 -108 -273 -108q-352 0 -352 333q0 178 121 254q97 66 313 66q109 0 180 -8v49q0 58 -12 88q-11 30 -50 44.5t-124 14.5q-98 0 -199 -16q-63 -10 -75 -10q-35 0 -46 41q-16 77 -16 118q0 47 43 60q142 43 336 43q146 0 224 -19
t120 -63q39 -40 54.5 -100.5t15.5 -155.5v-494h75q29 0 42.5 -13t13.5 -42v-121q0 -29 -12 -39t-42 -10zM696 440q-92 9 -143 9q-120 0 -172 -37q-39 -27 -39 -93q0 -64 36 -98.5t126 -34.5q106 0 158 41q20 16 26 35q8 21 8 68v110zM842 1516q25 0 34 -12t9 -36
q0 -45 -13 -92q-29 -99 -101 -153t-210 -54q-133 0 -209 58t-96 151q-6 30 -6 82q0 56 49 56h63q52 0 60 -48q10 -60 40 -90t103 -30q78 0 108 28.5t44 89.5q7 27 20.5 38.5t36.5 11.5h68z" />
    <glyph glyph-name="Aogonek" unicode="&#x104;" horiz-adv-x="1386" 
d="M494 0h-433q-55 0 -55 55v119q0 53 60 53h45l417 1166q20 55 78 55h178q31 0 48.5 -12.5t27.5 -42.5l416 -1166h47q57 0 57 -55v-123q0 -28 -12.5 -38.5t-40.5 -10.5h-102q-57 -42 -86.5 -66t-59 -56.5t-40.5 -65.5t-11 -74q0 -50 21 -70t71 -20q20 0 54 5t38 5
q19 0 27 -8t16 -33q13 -47 13 -74q0 -38 -47 -49q-55 -16 -138 -16q-136 0 -197 56.5t-61 168.5q0 59 16.5 106.5t49 82.5t68 59t85.5 49h-145q-53 0 -53 55v119q0 53 55 53h86l-74 205h-440l-72 -205h91q57 0 57 -55v-123q0 -29 -12.5 -39t-42.5 -10zM545 653h303
q-124 366 -152 467q-42 -149 -151 -467z" />
    <glyph glyph-name="aogonek" unicode="&#x105;" horiz-adv-x="1159" 
d="M1044 0h-122q-109 -74 -152 -124t-43 -124q0 -88 88 -88q20 0 53 4t37 4q16 0 26 -8t17 -31q8 -36 8 -69q0 -36 -45 -47q-55 -17 -135 -17q-129 0 -187.5 55t-58.5 162q0 109 54.5 172t158.5 113q-31 6 -34 39l-2 47q-89 -108 -273 -108q-352 0 -352 333q0 178 121 254
q97 66 313 66q109 0 180 -8v49q0 58 -12 88q-11 30 -50 44.5t-124 14.5q-98 0 -199 -16q-63 -10 -75 -10q-35 0 -46 41q-16 77 -16 118q0 47 43 60q142 43 336 43q146 0 224 -19t120 -63q39 -40 54.5 -100.5t15.5 -155.5v-494h75q29 0 42.5 -13t13.5 -42v-121q0 -29 -12 -39
t-42 -10zM696 440q-92 9 -143 9q-120 0 -172 -37q-39 -27 -39 -93q0 -64 36 -98.5t126 -34.5q106 0 158 41q20 16 26 35q8 21 8 68v110z" />
    <glyph glyph-name="Cacute" unicode="&#x106;" horiz-adv-x="1236" 
d="M387 731q0 -140 14.5 -233.5t52 -162.5t103.5 -100.5t166 -31.5q164 0 297 45q44 12 63 12q25 0 33 -22q39 -102 39 -140q0 -35 -47 -53q-179 -72 -446 -72q-92 0 -166.5 15t-139 49t-112 90t-81 136t-50.5 189.5t-17 247.5q0 208 31.5 350t105 238.5t194 140.5t298.5 44
q201 0 342 -31q53 -15 53 -66v-282q0 -52 -59 -52h-107q-52 0 -55 52l-10 139q-55 10 -154 10q-85 0 -145 -20t-99.5 -57.5t-62.5 -102t-32 -143t-9 -189.5zM768 1581q-46 -27 -88 -27h-119q-20 0 -31.5 9.5t-11.5 21.5q0 24 29 51l239 201q43 37 93 37h180q23 0 36 -10
t13 -23q0 -33 -33 -53z" />
    <glyph glyph-name="cacute" unicode="&#x107;" horiz-adv-x="985" 
d="M360 514q0 -170 47 -244.5t173 -74.5q107 0 213 26q6 1 20 5.5t25.5 7t19.5 2.5q33 0 43 -33q29 -80 29 -121q0 -33 -35 -51q-58 -30 -159.5 -44t-194.5 -14q-117 0 -199 25.5t-141.5 85.5t-88 162t-28.5 252q0 147 25 249.5t83 173t153 103.5t235 33q196 0 288 -31
q41 -13 41 -63v-256q0 -29 -13 -38.5t-40 -9.5h-113q-27 0 -38 13t-13 39l-6 116q-35 4 -119 4q-61 -1 -102.5 -24t-63.5 -67t-31.5 -98.5t-9.5 -127.5zM641 1225q-37 -37 -84 -37h-100q-49 0 -49 37q0 23 18 47l186 239q19 24 36.5 34.5t43.5 10.5h158q51 0 51 -38
q0 -23 -22 -48z" />
    <glyph glyph-name="Ccircumflex" unicode="&#x108;" horiz-adv-x="1236" 
d="M387 731q0 -140 14.5 -233.5t52 -162.5t103.5 -100.5t166 -31.5q164 0 297 45q44 12 63 12q25 0 33 -22q39 -102 39 -140q0 -35 -47 -53q-179 -72 -446 -72q-92 0 -166.5 15t-139 49t-112 90t-81 136t-50.5 189.5t-17 247.5q0 208 31.5 350t105 238.5t194 140.5t298.5 44
q201 0 342 -31q53 -15 53 -66v-282q0 -52 -59 -52h-107q-52 0 -55 52l-10 139q-55 10 -154 10q-85 0 -145 -20t-99.5 -57.5t-62.5 -102t-32 -143t-9 -189.5zM489 1554h-94q-26 0 -39.5 11.5t-13.5 27.5q0 25 18 43l205 205q51 55 99 55h116q43 0 90 -47l207 -213
q19 -19 19 -43q0 -39 -58 -39h-94q-46 0 -88 39l-139 121l-142 -123q-24 -21 -41.5 -29t-44.5 -8z" />
    <glyph glyph-name="ccircumflex" unicode="&#x109;" horiz-adv-x="985" 
d="M360 514q0 -170 47 -244.5t173 -74.5q107 0 213 26q6 1 20 5.5t25.5 7t19.5 2.5q33 0 43 -33q29 -80 29 -121q0 -33 -35 -51q-58 -30 -159.5 -44t-194.5 -14q-117 0 -199 25.5t-141.5 85.5t-88 162t-28.5 252q0 147 25 249.5t83 173t153 103.5t235 33q196 0 288 -31
q41 -13 41 -63v-256q0 -29 -13 -38.5t-40 -9.5h-113q-27 0 -38 13t-13 39l-6 116q-35 4 -119 4q-61 -1 -102.5 -24t-63.5 -67t-31.5 -98.5t-9.5 -127.5zM369 1182h-90q-50 0 -50 39q0 21 19 43l174 239q21 26 38.5 39.5t41.5 13.5h135q40 0 78 -51l174 -241q18 -25 18 -43
q0 -39 -49 -39h-92q-45 0 -74 39l-127 149l-123 -149q-28 -39 -73 -39z" />
    <glyph glyph-name="Cdotaccent" unicode="&#x10a;" horiz-adv-x="1236" 
d="M387 731q0 -140 14.5 -233.5t52 -162.5t103.5 -100.5t166 -31.5q164 0 297 45q44 12 63 12q25 0 33 -22q39 -102 39 -140q0 -35 -47 -53q-179 -72 -446 -72q-92 0 -166.5 15t-139 49t-112 90t-81 136t-50.5 189.5t-17 247.5q0 208 31.5 350t105 238.5t194 140.5t298.5 44
q201 0 342 -31q53 -15 53 -66v-282q0 -52 -59 -52h-107q-52 0 -55 52l-10 139q-55 10 -154 10q-85 0 -145 -20t-99.5 -57.5t-62.5 -102t-32 -143t-9 -189.5zM840 1698q0 -72 -32 -103.5t-97 -31.5q-127 0 -127 133q0 137 127 137q63 0 96 -30.5t33 -104.5z" />
    <glyph glyph-name="cdotaccent" unicode="&#x10b;" horiz-adv-x="985" 
d="M360 514q0 -170 47 -244.5t173 -74.5q107 0 213 26q6 1 20 5.5t25.5 7t19.5 2.5q33 0 43 -33q29 -80 29 -121q0 -33 -35 -51q-58 -30 -159.5 -44t-194.5 -14q-117 0 -199 25.5t-141.5 85.5t-88 162t-28.5 252q0 147 25 249.5t83 173t153 103.5t235 33q196 0 288 -31
q41 -13 41 -63v-256q0 -29 -13 -38.5t-40 -9.5h-113q-27 0 -38 13t-13 39l-6 116q-35 4 -119 4q-61 -1 -102.5 -24t-63.5 -67t-31.5 -98.5t-9.5 -127.5zM690 1348q0 -73 -33 -104.5t-98 -31.5q-59 0 -92 30.5t-33 103.5q0 135 125 135q64 0 97.5 -30t33.5 -103z" />
    <glyph glyph-name="Ccaron" unicode="&#x10c;" horiz-adv-x="1236" 
d="M387 731q0 -140 14.5 -233.5t52 -162.5t103.5 -100.5t166 -31.5q164 0 297 45q44 12 63 12q25 0 33 -22q39 -102 39 -140q0 -35 -47 -53q-179 -72 -446 -72q-92 0 -166.5 15t-139 49t-112 90t-81 136t-50.5 189.5t-17 247.5q0 208 31.5 350t105 238.5t194 140.5t298.5 44
q201 0 342 -31q53 -15 53 -66v-282q0 -52 -59 -52h-107q-52 0 -55 52l-10 139q-55 10 -154 10q-85 0 -145 -20t-99.5 -57.5t-62.5 -102t-32 -143t-9 -189.5zM930 1896h92q27 0 41 -11.5t14 -29.5q0 -23 -20 -43l-203 -204q-54 -54 -98 -54h-119q-46 0 -90 48l-205 213
q-18 18 -18 40q0 41 55 41h96q27 0 45.5 -8.5t42.5 -29.5l139 -121l140 121q23 21 41.5 29.5t46.5 8.5z" />
    <glyph glyph-name="ccaron" unicode="&#x10d;" horiz-adv-x="985" 
d="M360 514q0 -170 47 -244.5t173 -74.5q107 0 213 26q6 1 20 5.5t25.5 7t19.5 2.5q33 0 43 -33q29 -80 29 -121q0 -33 -35 -51q-58 -30 -159.5 -44t-194.5 -14q-117 0 -199 25.5t-141.5 85.5t-88 162t-28.5 252q0 147 25 249.5t83 173t153 103.5t235 33q196 0 288 -31
q41 -13 41 -63v-256q0 -29 -13 -38.5t-40 -9.5h-113q-27 0 -38 13t-13 39l-6 116q-35 4 -119 4q-61 -1 -102.5 -24t-63.5 -67t-31.5 -98.5t-9.5 -127.5zM760 1563h90q49 0 49 -39q0 -20 -20 -43l-174 -240q-37 -53 -80 -53h-136q-41 0 -75 51l-176 242q-17 24 -17 43
q0 39 47 39h94q43 0 74 -39l125 -150l123 150q31 39 76 39z" />
    <glyph glyph-name="Dcaron" unicode="&#x10e;" horiz-adv-x="1464" 
d="M596 0h-457q-55 0 -55 55v119q0 53 57 53h72v992h-74q-55 0 -55 55v115q0 57 59 57h480q255 0 385 -39q184 -53 272 -219t88 -449q0 -139 -17.5 -244t-58.5 -193.5t-112 -151t-176 -101.5q-133 -49 -408 -49zM498 227h141q175 0 252 39q104 50 144 164t40 307
q0 187 -39 293t-139 150q-85 39 -260 39h-139v-992zM922 1896h92q27 0 41 -11.5t14 -29.5q0 -23 -20 -43l-203 -204q-54 -54 -98 -54h-119q-46 0 -90 48l-205 213q-19 19 -19 40q0 41 56 41h96q27 0 45.5 -8.5t42.5 -29.5l139 -121l140 121q23 21 41.5 29.5t46.5 8.5z" />
    <glyph glyph-name="dcaron" unicode="&#x10f;" horiz-adv-x="1232" 
d="M1118 0h-262q-37 0 -51 8t-17 35l-4 35q-48 -57 -123.5 -80t-183.5 -23q-194 0 -293.5 121.5t-99.5 397.5q0 133 21 229t60 160t103.5 102.5t143.5 54t188 15.5q120 0 172 -27v279h-67q-54 0 -54 55v115q0 55 60 55h282q28 0 41 -13t13 -51v-1243h69q30 0 42.5 -12
t12.5 -41v-121q0 -31 -12 -41t-41 -10zM772 315v490q-51 26 -151 26q-153 0 -207 -72t-54 -261q0 -160 48 -231.5t161 -71.5q112 0 174 41q20 16 25 34q4 12 4 45zM1372 1530q33 0 46.5 -15.5t13.5 -50.5q0 -87 -31.5 -187.5t-93.5 -180.5q-31 -39 -66 -39q-39 0 -72 22
q-18 10 -24 19t-6 24q0 19 16 56q29 60 42 121t13 151q0 80 70 80h92z" />
    <glyph glyph-name="Dcroat" unicode="&#x110;" horiz-adv-x="1464" 
d="M596 0h-457q-55 0 -55 55v119q0 53 57 53h72v420h-104q-28 0 -42 14t-14 37v97q0 51 56 51h104v373h-74q-55 0 -55 55v115q0 57 59 57h480q255 0 385 -39q184 -53 272 -219t88 -449q0 -139 -17.5 -244t-58.5 -193.5t-112 -151t-176 -101.5q-133 -49 -408 -49zM498 227
h141q175 0 252 39q104 50 144 164t40 307q0 187 -39 293t-139 150q-85 39 -260 39h-139v-373h247q28 0 41 -12t13 -39v-101q0 -28 -13 -37.5t-43 -9.5h-245v-420z" />
    <glyph glyph-name="dcroat" unicode="&#x111;" horiz-adv-x="1232" 
d="M1118 0h-262q-37 0 -51 8t-17 35l-4 35q-48 -57 -123.5 -80t-183.5 -23q-194 0 -293.5 121.5t-99.5 397.5q0 133 21 229t60 160t103.5 102.5t143.5 54t188 15.5q120 0 172 -27v64h-186q-56 0 -56 51v59q0 25 14.5 40t43.5 15h184v50h-67q-54 0 -54 55v115q0 55 60 55h282
q28 0 41 -13t13 -51v-211h69q29 0 42 -13t13 -42v-63q0 -28 -12 -37.5t-41 -9.5h-71v-867h69q30 0 42.5 -12t12.5 -41v-121q0 -31 -12 -41t-41 -10zM772 315v490q-51 26 -151 26q-153 0 -207 -72t-54 -261q0 -160 48 -231.5t161 -71.5q112 0 174 41q20 16 25 34q4 12 4 45z
" />
    <glyph glyph-name="Emacron" unicode="&#x112;" horiz-adv-x="1204" 
d="M1081 0h-942q-55 0 -55 55v119q0 53 57 53h72v992h-74q-55 0 -55 55v119q0 53 57 53h916q24 0 36.5 -11t12.5 -38v-297q0 -27 -13 -37t-40 -10h-113q-51 0 -55 51l-6 115h-381v-355h411q30 0 44 -11.5t14 -41.5v-131q0 -47 -58 -47h-411v-406h415l9 121q3 51 55 51h113
q27 0 40 -10.5t13 -38.5q0 -76 -6 -299q0 -51 -56 -51zM901 1595h-524q-55 0 -55 52v94q0 51 55 51h522q55 0 55 -53v-97q0 -28 -12.5 -37.5t-40.5 -9.5z" />
    <glyph glyph-name="emacron" unicode="&#x113;" horiz-adv-x="1085" 
d="M362 434q4 -73 20.5 -121t48.5 -73.5t72.5 -35t100.5 -9.5q128 0 260 36q52 13 60 13q20 0 28 -8t15 -27q26 -72 26 -115q0 -35 -35 -53q-64 -33 -174 -50.5t-211 -17.5q-140 0 -234 31.5t-150.5 99.5t-80.5 165.5t-24 240.5q0 292 117 419.5t374 127.5q84 0 149 -13.5
t111 -36.5t78 -62t51 -80t29.5 -101.5t13.5 -116t3 -133.5q0 -55 -23 -68q-15 -12 -47 -12h-578zM367 625h383q2 12 2 32q0 106 -36 152.5t-145 46.5q-108 0 -154.5 -58t-49.5 -173zM821 1225h-491q-56 0 -56 51v98q0 51 56 51h489q55 0 55 -53v-100q0 -28 -12.5 -37.5
t-40.5 -9.5z" />
    <glyph glyph-name="Ebreve" unicode="&#x114;" horiz-adv-x="1204" 
d="M1081 0h-942q-55 0 -55 55v119q0 53 57 53h72v992h-74q-55 0 -55 55v119q0 53 57 53h916q24 0 36.5 -11t12.5 -38v-297q0 -27 -13 -37t-40 -10h-113q-51 0 -55 51l-6 115h-381v-355h411q30 0 44 -11.5t14 -41.5v-131q0 -47 -58 -47h-411v-406h415l9 121q3 51 55 51h113
q27 0 40 -10.5t13 -38.5q0 -76 -6 -299q0 -51 -56 -51zM938 1874q49 0 49 -43q0 -39 -14 -90q-30 -94 -106.5 -145.5t-219.5 -51.5q-265 0 -321 197q-11 33 -11 80q0 53 54 53h65q54 0 62 -43q10 -52 42 -77t111 -25q84 0 115.5 23t46.5 77q7 26 20.5 35.5t38.5 9.5h68z" />
    <glyph glyph-name="ebreve" unicode="&#x115;" horiz-adv-x="1085" 
d="M362 434q4 -73 20.5 -121t48.5 -73.5t72.5 -35t100.5 -9.5q128 0 260 36q52 13 60 13q20 0 28 -8t15 -27q26 -72 26 -115q0 -35 -35 -53q-64 -33 -174 -50.5t-211 -17.5q-140 0 -234 31.5t-150.5 99.5t-80.5 165.5t-24 240.5q0 292 117 419.5t374 127.5q84 0 149 -13.5
t111 -36.5t78 -62t51 -80t29.5 -101.5t13.5 -116t3 -133.5q0 -55 -23 -68q-15 -12 -47 -12h-578zM367 625h383q2 12 2 32q0 106 -36 152.5t-145 46.5q-108 0 -154.5 -58t-49.5 -173zM846 1516q25 0 34 -12t9 -36q0 -48 -12 -92q-29 -99 -101.5 -153t-210.5 -54
q-133 0 -209 58t-96 151q-6 30 -6 82q0 56 49 56h64q26 0 40.5 -10.5t18.5 -37.5q10 -60 40 -90t103 -30q78 0 108 28.5t44 89.5q7 27 20.5 38.5t36.5 11.5h68z" />
    <glyph glyph-name="Edotaccent" unicode="&#x116;" horiz-adv-x="1204" 
d="M1081 0h-942q-55 0 -55 55v119q0 53 57 53h72v992h-74q-55 0 -55 55v119q0 53 57 53h916q24 0 36.5 -11t12.5 -38v-297q0 -27 -13 -37t-40 -10h-113q-51 0 -55 51l-6 115h-381v-355h411q30 0 44 -11.5t14 -41.5v-131q0 -47 -58 -47h-411v-406h415l9 121q3 51 55 51h113
q27 0 40 -10.5t13 -38.5q0 -76 -6 -299q0 -51 -56 -51zM760 1698q0 -72 -32 -103.5t-97 -31.5q-127 0 -127 133q0 137 127 137q63 0 96 -30.5t33 -104.5z" />
    <glyph glyph-name="edotaccent" unicode="&#x117;" horiz-adv-x="1085" 
d="M362 434q4 -73 20.5 -121t48.5 -73.5t72.5 -35t100.5 -9.5q128 0 260 36q52 13 60 13q20 0 28 -8t15 -27q26 -72 26 -115q0 -35 -35 -53q-64 -33 -174 -50.5t-211 -17.5q-140 0 -234 31.5t-150.5 99.5t-80.5 165.5t-24 240.5q0 292 117 419.5t374 127.5q84 0 149 -13.5
t111 -36.5t78 -62t51 -80t29.5 -101.5t13.5 -116t3 -133.5q0 -55 -23 -68q-15 -12 -47 -12h-578zM367 625h383q2 12 2 32q0 106 -36 152.5t-145 46.5q-108 0 -154.5 -58t-49.5 -173zM702 1348q0 -73 -33 -104.5t-98 -31.5q-59 0 -92 30.5t-33 103.5q0 135 125 135
q64 0 97.5 -30t33.5 -103z" />
    <glyph glyph-name="Eogonek" unicode="&#x118;" horiz-adv-x="1204" 
d="M1081 0h-39q-57 -41 -86.5 -65.5t-58.5 -57t-40 -65t-11 -74.5q0 -50 21 -70t71 -20q20 0 54 5t38 5q19 0 27 -8t16 -33q12 -44 12 -74q0 -38 -47 -49q-55 -16 -137 -16q-136 0 -197 56.5t-61 168.5q0 59 16.5 106.5t49 82.5t68 59t85.5 49h-723q-55 0 -55 55v119
q0 53 57 53h72v992h-74q-55 0 -55 55v119q0 53 57 53h916q24 0 36.5 -11t12.5 -38v-297q0 -27 -13 -37t-40 -10h-113q-51 0 -55 51l-6 115h-381v-355h411q30 0 44 -11.5t14 -41.5v-131q0 -47 -58 -47h-411v-406h415l9 121q3 51 55 51h113q27 0 40 -10.5t13 -38.5
q0 -76 -6 -299q0 -51 -56 -51z" />
    <glyph glyph-name="eogonek" unicode="&#x119;" horiz-adv-x="1085" 
d="M362 434q4 -73 20.5 -121t48.5 -73.5t72.5 -35t100.5 -9.5q128 0 260 36q52 13 60 13q20 0 28 -8t15 -27q26 -72 26 -115q0 -35 -35 -53q-56 -30 -161 -47q-103 -73 -144 -121.5t-41 -120.5q0 -88 88 -88q20 0 53.5 4t37.5 4q16 0 26 -8t17 -31q8 -36 8 -69
q0 -36 -45 -47q-55 -17 -135 -17q-129 0 -187.5 55t-58.5 162q0 93 41 152.5t116 103.5q-140 0 -234 31.5t-150.5 99.5t-80.5 165.5t-24 240.5q0 292 117 419.5t374 127.5q84 0 149 -13.5t111 -36.5t78 -62t51 -80t29.5 -101.5t13.5 -116t3 -133.5q0 -55 -23 -68
q-15 -12 -47 -12h-578zM367 625h383q2 12 2 32q0 106 -36 152.5t-145 46.5q-108 0 -154.5 -58t-49.5 -173z" />
    <glyph glyph-name="Ecaron" unicode="&#x11a;" horiz-adv-x="1204" 
d="M1081 0h-942q-55 0 -55 55v119q0 53 57 53h72v992h-74q-55 0 -55 55v119q0 53 57 53h916q24 0 36.5 -11t12.5 -38v-297q0 -27 -13 -37t-40 -10h-113q-51 0 -55 51l-6 115h-381v-355h411q30 0 44 -11.5t14 -41.5v-131q0 -47 -58 -47h-411v-406h415l9 121q3 51 55 51h113
q27 0 40 -10.5t13 -38.5q0 -76 -6 -299q0 -51 -56 -51zM864 1896h92q27 0 41.5 -11.5t14.5 -29.5q0 -22 -21 -43l-203 -204q-54 -54 -98 -54h-119q-46 0 -90 48l-205 213q-18 18 -18 40q0 41 55 41h97q27 0 45.5 -8.5t42.5 -29.5l139 -121l139 121q23 21 41.5 29.5t46.5 8.5
z" />
    <glyph glyph-name="ecaron" unicode="&#x11b;" horiz-adv-x="1085" 
d="M362 434q4 -73 20.5 -121t48.5 -73.5t72.5 -35t100.5 -9.5q128 0 260 36q52 13 60 13q20 0 28 -8t15 -27q26 -72 26 -115q0 -35 -35 -53q-64 -33 -174 -50.5t-211 -17.5q-140 0 -234 31.5t-150.5 99.5t-80.5 165.5t-24 240.5q0 292 117 419.5t374 127.5q84 0 149 -13.5
t111 -36.5t78 -62t51 -80t29.5 -101.5t13.5 -116t3 -133.5q0 -55 -23 -68q-15 -12 -47 -12h-578zM367 625h383q2 12 2 32q0 106 -36 152.5t-145 46.5q-108 0 -154.5 -58t-49.5 -173zM768 1563h90q49 0 49 -39q0 -20 -20 -43l-174 -240q-37 -53 -80 -53h-135q-42 0 -76 51
l-176 242q-17 24 -17 43q0 39 47 39h95q42 0 73 -39l125 -150l123 150q31 39 76 39z" />
    <glyph glyph-name="Gcircumflex" unicode="&#x11c;" horiz-adv-x="1368" 
d="M1239 131q0 -37 -10.5 -54t-38.5 -28q-74 -30 -215 -53t-295 -23q-119 0 -209 22t-162.5 73t-118.5 134.5t-70 207t-24 290.5q0 207 33.5 350t110 239t198.5 140t301 44q256 0 381 -35q47 -12 47 -58v-290q0 -28 -12 -38t-39 -10h-117q-28 0 -39.5 10.5t-13.5 34.5
l-8 144q-82 12 -176 12q-209 0 -292 -119.5t-83 -392.5q0 -141 15 -234t53.5 -162t107 -100.5t172.5 -31.5q131 0 260 33v296h-233q-23 0 -35 14t-12 34v133q0 21 13 34t36 13h424q51 0 51 -51v-578zM494 1554h-95q-26 0 -39.5 11.5t-13.5 27.5q0 24 19 43l204 205
q51 55 99 55h116q43 0 90 -47l207 -213q19 -19 19 -43q0 -39 -58 -39h-94q-46 0 -88 39l-139 121l-141 -123q-24 -21 -41.5 -29t-44.5 -8z" />
    <glyph glyph-name="gcircumflex" unicode="&#x11d;" horiz-adv-x="1087" 
d="M219 6q-79 14 -111 68.5t-32 148.5q0 164 127 215q-42 42 -61 102t-19 154q0 190 112.5 276.5t327.5 86.5q113 0 205 -29h264q51 0 51 -55v-115q0 -27 -11 -40t-38 -13h-90q23 -48 23 -96q0 -189 -96.5 -283t-313.5 -94q-69 0 -121 10q-50 8 -59 8q-21 0 -37 -12
q-25 -25 -25 -68q0 -54 47 -69q27 -8 275 -8q94 0 158.5 -5.5t117 -20.5t84 -38.5t52 -63t28.5 -90t8 -122.5q0 -71 -14.5 -125t-50.5 -100t-95 -75t-150.5 -45t-215.5 -16q-126 0 -216 15t-142.5 39t-82 64t-39 80.5t-9.5 98.5q0 179 149 217zM825 -156q0 48 -10.5 69
t-47.5 32.5t-120 15.5q-39 2 -174 2q-53 0 -76 -10q-67 -22 -67 -115q0 -34 8 -56t32 -41t73.5 -27.5t127.5 -8.5q83 0 135 8.5t77.5 28t33.5 42t8 60.5zM729 694q0 89 -42 122.5t-132 33.5q-87 0 -131.5 -33.5t-44.5 -120.5q0 -52 12 -86t37.5 -51t54.5 -23t72 -6
q84 0 129 37.5t45 126.5zM360 1182h-90q-49 0 -49 39q0 21 19 43l174 239q21 26 38.5 39.5t41.5 13.5h135q40 0 78 -51l174 -241q18 -25 18 -43q0 -39 -49 -39h-92q-45 0 -74 39l-127 149l-123 -149q-28 -39 -74 -39z" />
    <glyph glyph-name="Gbreve" unicode="&#x11e;" horiz-adv-x="1368" 
d="M1239 131q0 -37 -10.5 -54t-38.5 -28q-74 -30 -215 -53t-295 -23q-119 0 -209 22t-162.5 73t-118.5 134.5t-70 207t-24 290.5q0 207 33.5 350t110 239t198.5 140t301 44q256 0 381 -35q47 -12 47 -58v-290q0 -28 -12 -38t-39 -10h-117q-28 0 -39.5 10.5t-13.5 34.5
l-8 144q-82 12 -176 12q-209 0 -292 -119.5t-83 -392.5q0 -141 15 -234t53.5 -162t107 -100.5t172.5 -31.5q131 0 260 33v296h-233q-23 0 -35 14t-12 34v133q0 21 13 34t36 13h424q51 0 51 -51v-578zM1010 1874q49 0 49 -43q0 -36 -15 -90q-30 -95 -106 -146t-219 -51
q-266 0 -322 197q-10 30 -10 80q0 53 53 53h66q53 0 61 -43q10 -52 42.5 -77t111.5 -25q84 0 115.5 23t46.5 77q7 26 20.5 35.5t38.5 9.5h68z" />
    <glyph glyph-name="gbreve" unicode="&#x11f;" horiz-adv-x="1087" 
d="M219 6q-79 14 -111 68.5t-32 148.5q0 164 127 215q-42 42 -61 102t-19 154q0 190 112.5 276.5t327.5 86.5q113 0 205 -29h264q51 0 51 -55v-115q0 -27 -11 -40t-38 -13h-90q23 -48 23 -96q0 -189 -96.5 -283t-313.5 -94q-69 0 -121 10q-50 8 -59 8q-21 0 -37 -12
q-25 -25 -25 -68q0 -54 47 -69q27 -8 275 -8q94 0 158.5 -5.5t117 -20.5t84 -38.5t52 -63t28.5 -90t8 -122.5q0 -71 -14.5 -125t-50.5 -100t-95 -75t-150.5 -45t-215.5 -16q-126 0 -216 15t-142.5 39t-82 64t-39 80.5t-9.5 98.5q0 179 149 217zM825 -156q0 48 -10.5 69
t-47.5 32.5t-120 15.5q-39 2 -174 2q-53 0 -76 -10q-67 -22 -67 -115q0 -34 8 -56t32 -41t73.5 -27.5t127.5 -8.5q83 0 135 8.5t77.5 28t33.5 42t8 60.5zM729 694q0 89 -42 122.5t-132 33.5q-87 0 -131.5 -33.5t-44.5 -120.5q0 -52 12 -86t37.5 -51t54.5 -23t72 -6
q84 0 129 37.5t45 126.5zM829 1516q25 0 34 -12t9 -36q0 -48 -12 -92q-29 -99 -101 -153t-210 -54q-133 0 -209 58t-96 151q-6 30 -6 82q0 56 49 56h63q52 0 60 -48q10 -60 40 -90t103 -30q78 0 108 28.5t44 89.5q7 27 20.5 38.5t36.5 11.5h67z" />
    <glyph glyph-name="Gdotaccent" unicode="&#x120;" horiz-adv-x="1368" 
d="M1239 131q0 -37 -10.5 -54t-38.5 -28q-74 -30 -215 -53t-295 -23q-119 0 -209 22t-162.5 73t-118.5 134.5t-70 207t-24 290.5q0 207 33.5 350t110 239t198.5 140t301 44q256 0 381 -35q47 -12 47 -58v-290q0 -28 -12 -38t-39 -10h-117q-28 0 -39.5 10.5t-13.5 34.5
l-8 144q-82 12 -176 12q-209 0 -292 -119.5t-83 -392.5q0 -141 15 -234t53.5 -162t107 -100.5t172.5 -31.5q131 0 260 33v296h-233q-23 0 -35 14t-12 34v133q0 21 13 34t36 13h424q51 0 51 -51v-578zM864 1698q0 -72 -32 -103.5t-97 -31.5q-127 0 -127 133q0 137 127 137
q63 0 96 -30.5t33 -104.5z" />
    <glyph glyph-name="gdotaccent" unicode="&#x121;" horiz-adv-x="1087" 
d="M219 6q-79 14 -111 68.5t-32 148.5q0 164 127 215q-42 42 -61 102t-19 154q0 190 112.5 276.5t327.5 86.5q113 0 205 -29h264q51 0 51 -55v-115q0 -27 -11 -40t-38 -13h-90q23 -48 23 -96q0 -189 -96.5 -283t-313.5 -94q-69 0 -121 10q-50 8 -59 8q-21 0 -37 -12
q-25 -25 -25 -68q0 -54 47 -69q27 -8 275 -8q94 0 158.5 -5.5t117 -20.5t84 -38.5t52 -63t28.5 -90t8 -122.5q0 -71 -14.5 -125t-50.5 -100t-95 -75t-150.5 -45t-215.5 -16q-126 0 -216 15t-142.5 39t-82 64t-39 80.5t-9.5 98.5q0 179 149 217zM825 -156q0 48 -10.5 69
t-47.5 32.5t-120 15.5q-39 2 -174 2q-53 0 -76 -10q-67 -22 -67 -115q0 -34 8 -56t32 -41t73.5 -27.5t127.5 -8.5q83 0 135 8.5t77.5 28t33.5 42t8 60.5zM729 694q0 89 -42 122.5t-132 33.5q-87 0 -131.5 -33.5t-44.5 -120.5q0 -52 12 -86t37.5 -51t54.5 -23t72 -6
q84 0 129 37.5t45 126.5zM688 1348q0 -73 -33 -104.5t-98 -31.5q-59 0 -92 30.5t-33 103.5q0 135 125 135q64 0 97.5 -30t33.5 -103z" />
    <glyph glyph-name="Gcommaaccent" unicode="&#x122;" horiz-adv-x="1368" 
d="M1239 131q0 -37 -10.5 -54t-38.5 -28q-74 -30 -215 -53t-295 -23q-119 0 -209 22t-162.5 73t-118.5 134.5t-70 207t-24 290.5q0 207 33.5 350t110 239t198.5 140t301 44q256 0 381 -35q47 -12 47 -58v-290q0 -28 -12 -38t-39 -10h-117q-28 0 -39.5 10.5t-13.5 34.5
l-8 144q-82 12 -176 12q-209 0 -292 -119.5t-83 -392.5q0 -141 15 -234t53.5 -162t107 -100.5t172.5 -31.5q131 0 260 33v296h-233q-23 0 -35 14t-12 34v133q0 21 13 34t36 13h424q51 0 51 -51v-578zM784 -131q33 0 46.5 -16.5t13.5 -51.5q0 -92 -30 -192t-97 -176
q-31 -39 -64 -39q-31 0 -71 22q-31 17 -31 45q0 19 16 56q29 59 42.5 119.5t13.5 150.5q0 82 69 82h92z" />
    <glyph glyph-name="gcommaaccent" unicode="&#x123;" horiz-adv-x="1087" 
d="M219 6q-79 14 -111 68.5t-32 148.5q0 164 127 215q-42 42 -61 102t-19 154q0 190 112.5 276.5t327.5 86.5q113 0 205 -29h264q51 0 51 -55v-115q0 -27 -11 -40t-38 -13h-94q27 -37 27 -96q0 -189 -96.5 -283t-313.5 -94q-66 0 -121 10q-50 8 -59 8q-21 0 -37 -12
q-25 -25 -25 -68q0 -54 47 -69q27 -8 275 -8q94 0 158.5 -5.5t117 -20.5t84 -38.5t52 -63t28.5 -90t8 -122.5q0 -71 -14.5 -125t-50.5 -100t-95 -75t-150.5 -45t-215.5 -16q-126 0 -216 15t-142.5 39t-82 64t-39 80.5t-9.5 98.5q0 179 149 217zM825 -156q0 30 -3 46
t-13 31.5t-31.5 22.5t-55 11.5t-87.5 5.5q-39 2 -162 2q-53 0 -76 -10q-67 -24 -67 -115q0 -34 8 -56t32 -41t73.5 -27.5t127.5 -8.5q83 0 135 8.5t77.5 28t33.5 42t8 60.5zM729 694q0 89 -42 122.5t-132 33.5q-87 0 -131.5 -33.5t-44.5 -120.5q0 -52 12 -86t37.5 -51
t54.5 -23t72 -6q84 0 129 37.5t45 126.5zM588 1182h-86q-35 0 -48.5 14.5t-13.5 50.5q0 93 29 192t96 173q35 39 66 39t69 -21q31 -16 31 -43q0 -21 -16 -53q-30 -62 -43 -122.5t-13 -149.5q0 -80 -71 -80z" />
    <glyph glyph-name="Hcircumflex" unicode="&#x124;" horiz-adv-x="1515" 
d="M571 0h-432q-55 0 -55 55v121q0 51 57 51h72v992h-74q-55 0 -55 55v119q0 53 57 53h428q30 0 43 -12.5t13 -42.5v-123q0 -29 -12 -39t-42 -10h-73v-355h518v355h-74q-53 0 -53 55v119q0 53 57 53h428q30 0 43 -12.5t13 -42.5v-123q0 -29 -12 -39t-42 -10h-73v-992h71
q29 0 42.5 -13t13.5 -42v-123q0 -29 -12 -39t-42 -10h-434q-53 0 -53 55v121q0 51 57 51h70v408h-518v-408h71q29 0 42.5 -13t13.5 -42v-123q0 -29 -12 -39t-42 -10zM535 1554h-95q-26 0 -39.5 11.5t-13.5 27.5q0 24 19 43l204 205q51 55 99 55h116q43 0 90 -47l207 -213
q19 -19 19 -43q0 -39 -58 -39h-94q-46 0 -88 39l-139 121l-141 -123q-24 -21 -41.5 -29t-44.5 -8z" />
    <glyph glyph-name="hcircumflex" unicode="&#x125;" horiz-adv-x="1275" 
d="M532 0h-415q-54 0 -54 55v117q0 53 58 53h65v1082h-67q-53 0 -53 55v117q0 27 12.5 40t44.5 13h276q34 0 47 -17.5t13 -54.5v-524q33 55 120 86t193 31q97 0 158 -16t90.5 -42.5t46.5 -70.5q20 -53 20 -201v-498h70q57 0 57 -53v-123q0 -29 -12.5 -39t-42.5 -10h-295
q-51 0 -51 55v607q0 73 -8 98q-11 34 -39 47.5t-92 13.5q-96 0 -158 -28q-30 -11 -43 -31q-14 -18 -14 -62v-475h71q56 0 56 -55v-121q0 -29 -13 -39t-41 -10zM111 1602h-95q-26 0 -39.5 11t-13.5 27q0 24 19 43l204 205q52 56 99 56h116q43 0 91 -48l206 -213
q19 -19 19 -43q0 -38 -58 -38h-94q-47 0 -88 38l-139 121l-141 -123q-23 -20 -40.5 -28t-45.5 -8z" />
    <glyph glyph-name="Hbar" unicode="&#x126;" horiz-adv-x="1515" 
d="M571 0h-432q-55 0 -55 55v121q0 51 57 51h72v721h-104q-28 0 -42 14t-14 37v97q0 51 56 51h104v72h-74q-55 0 -55 55v119q0 53 57 53h428q30 0 43 -12.5t13 -42.5v-123q0 -29 -12 -39t-42 -10h-73v-72h518v72h-74q-53 0 -53 55v119q0 53 57 53h428q30 0 43 -12.5
t13 -42.5v-123q0 -29 -12 -39t-42 -10h-73v-72h106q28 0 40.5 -12t12.5 -39v-101q0 -28 -12.5 -37.5t-42.5 -9.5h-104v-721h71q29 0 42.5 -13t13.5 -42v-123q0 -29 -12 -39t-42 -10h-434q-53 0 -53 55v121q0 51 57 51h70v408h-518v-408h71q29 0 42.5 -13t13.5 -42v-123
q0 -29 -12 -39t-42 -10zM498 864h518v84h-518v-84z" />
    <glyph glyph-name="hbar" unicode="&#x127;" horiz-adv-x="1275" 
d="M532 0h-415q-54 0 -54 55v117q0 53 58 53h65v867h-102q-55 0 -55 51v59q0 55 57 55h100v50h-67q-53 0 -53 55v117q0 27 12.5 40t44.5 13h276q34 0 47 -17.5t13 -54.5v-203h155q29 0 42.5 -13t13.5 -42v-63q0 -28 -12.5 -37.5t-41.5 -9.5h-157v-156q33 55 120 86t193 31
q97 0 158 -16t90.5 -42.5t46.5 -70.5q20 -53 20 -201v-498h70q57 0 57 -53v-123q0 -29 -12.5 -39t-42.5 -10h-295q-51 0 -51 55v607q0 73 -8 98q-11 34 -39 47.5t-92 13.5q-96 0 -158 -28q-30 -11 -43 -31q-14 -18 -14 -62v-475h71q56 0 56 -55v-121q0 -29 -13 -39t-41 -10z
" />
    <glyph glyph-name="Itilde" unicode="&#x128;" horiz-adv-x="710" 
d="M571 0h-432q-55 0 -55 55v119q0 53 57 53h72v992h-74q-55 0 -55 55v119q0 53 57 53h428q30 0 43 -12.5t13 -42.5v-123q0 -29 -12 -39t-42 -10h-73v-992h71q29 0 42.5 -13t13.5 -42v-123q0 -29 -12 -39t-42 -10zM94 1552h-57q-49 0 -49 45q0 28 12 52q84 200 205 200
q59 0 160 -53q74 -41 112 -41q25 0 44 13t38 49q21 41 64 41h51q25 0 36 -10.5t11 -35.5q0 -31 -12 -61q-72 -190 -201 -190q-37 0 -71.5 11t-96.5 42q-74 39 -111 39q-24 0 -40 -12t-33 -42q-21 -47 -62 -47z" />
    <glyph glyph-name="itilde" unicode="&#x129;" horiz-adv-x="655" 
d="M68 1196h-64q-47 0 -47 43q0 18 14 53q30 93 80 149t117 56q59 0 154 -53q70 -37 110 -37q24 0 37.5 10.5t30.5 46.5q16 43 61 43h60q47 0 47 -45q0 -5 -21 -76q-28 -87 -76 -134.5t-112 -47.5q-72 0 -168 53q-70 37 -94 37t-40 -10.5t-30 -40.5q-12 -25 -24 -36t-35 -11
zM541 0h-412q-55 0 -55 53v119q0 53 57 53h64v578h-66q-55 0 -55 51v121q0 53 57 53h289q28 0 38.5 -14.5t10.5 -42.5v-746h70q30 0 43.5 -11.5t13.5 -39.5v-125q0 -29 -12.5 -39t-42.5 -10z" />
    <glyph glyph-name="Imacron" unicode="&#x12a;" horiz-adv-x="710" 
d="M571 0h-432q-55 0 -55 55v119q0 53 57 53h72v992h-74q-55 0 -55 55v119q0 53 57 53h428q30 0 43 -12.5t13 -42.5v-123q0 -29 -12 -39t-42 -10h-73v-992h71q29 0 42.5 -13t13.5 -42v-123q0 -29 -12 -39t-42 -10zM621 1595h-525q-55 0 -55 52v94q0 51 55 51h522
q56 0 56 -53v-97q0 -28 -12.5 -37.5t-40.5 -9.5z" />
    <glyph glyph-name="imacron" unicode="&#x12b;" horiz-adv-x="655" 
d="M555 1225h-492q-55 0 -55 51v98q0 51 55 51h490q55 0 55 -53v-100q0 -28 -12.5 -37.5t-40.5 -9.5zM541 0h-412q-55 0 -55 53v119q0 53 57 53h64v578h-66q-55 0 -55 51v121q0 53 57 53h289q28 0 38.5 -14.5t10.5 -42.5v-746h70q30 0 43.5 -11.5t13.5 -39.5v-125
q0 -29 -12.5 -39t-42.5 -10z" />
    <glyph glyph-name="Ibreve" unicode="&#x12c;" horiz-adv-x="710" 
d="M571 0h-432q-55 0 -55 55v119q0 53 57 53h72v992h-74q-55 0 -55 55v119q0 53 57 53h428q30 0 43 -12.5t13 -42.5v-123q0 -29 -12 -39t-42 -10h-73v-992h71q29 0 42.5 -13t13.5 -42v-123q0 -29 -12 -39t-42 -10zM639 1874q49 0 49 -43q0 -39 -14 -90
q-30 -94 -106.5 -145.5t-219.5 -51.5q-265 0 -321 197q-11 33 -11 80q0 53 54 53h65q54 0 62 -43q10 -52 42 -77t111 -25q84 0 115.5 23t46.5 77q7 26 20.5 35.5t38.5 9.5h68z" />
    <glyph glyph-name="ibreve" unicode="&#x12d;" horiz-adv-x="655" 
d="M590 1516q25 0 34 -12t9 -36q0 -48 -12 -92q-29 -99 -101.5 -153t-210.5 -54q-133 0 -209 58t-96 151q-6 30 -6 82q0 56 49 56h64q26 0 40.5 -10.5t18.5 -37.5q10 -60 40 -90t103 -30q78 0 108 28.5t44 89.5q7 27 20.5 38.5t36.5 11.5h68zM541 0h-412q-55 0 -55 53v119
q0 53 57 53h64v578h-66q-55 0 -55 51v121q0 53 57 53h289q28 0 38.5 -14.5t10.5 -42.5v-746h70q30 0 43.5 -11.5t13.5 -39.5v-125q0 -29 -12.5 -39t-42.5 -10z" />
    <glyph glyph-name="Iogonek" unicode="&#x12e;" horiz-adv-x="710" 
d="M571 0h-116q-57 -42 -86.5 -66t-59 -56.5t-40.5 -65.5t-11 -74q0 -50 21 -70t71 -20q20 0 54 5t38 5q19 0 27 -8t16 -33q13 -47 13 -74q0 -38 -47 -49q-55 -16 -138 -16q-136 0 -197 56.5t-61 168.5q0 59 16.5 106.5t49 82.5t68 59t85.5 49h-135q-55 0 -55 55v119
q0 53 57 53h72v992h-74q-55 0 -55 55v119q0 53 57 53h428q30 0 43 -12.5t13 -42.5v-123q0 -29 -12 -39t-42 -10h-73v-992h71q29 0 42.5 -13t13.5 -42v-123q0 -29 -12 -39t-42 -10z" />
    <glyph glyph-name="iogonek" unicode="&#x12f;" horiz-adv-x="655" 
d="M541 0h-121q-109 -74 -152 -124t-43 -124q0 -88 88 -88q20 0 53 4t37 4q16 0 26 -8t17 -31q9 -40 9 -69q0 -36 -45 -47q-55 -17 -136 -17q-128 0 -186.5 54.5t-58.5 162.5q0 56 15.5 101t46 78.5t64.5 56.5t83 47h-109q-55 0 -55 53v119q0 53 57 53h64v578h-66
q-55 0 -55 51v121q0 53 57 53h289q28 0 38.5 -14.5t10.5 -42.5v-746h70q30 0 43.5 -11.5t13.5 -39.5v-125q0 -29 -12.5 -39t-42.5 -10zM471 1348q0 -83 -38.5 -119.5t-115.5 -36.5q-71 0 -111 34.5t-40 119.5q0 157 151 157q75 0 114.5 -34.5t39.5 -120.5z" />
    <glyph glyph-name="Idotaccent" unicode="&#x130;" horiz-adv-x="710" 
d="M571 0h-432q-55 0 -55 55v119q0 53 57 53h72v992h-74q-55 0 -55 55v119q0 53 57 53h428q30 0 43 -12.5t13 -42.5v-123q0 -29 -12 -39t-42 -10h-73v-992h71q29 0 42.5 -13t13.5 -42v-123q0 -29 -12 -39t-42 -10zM479 1698q0 -72 -32 -103.5t-97 -31.5q-127 0 -127 133
q0 137 127 137q63 0 96 -30.5t33 -104.5z" />
    <glyph glyph-name="dotlessi" unicode="&#x131;" horiz-adv-x="655" 
d="M541 0h-412q-55 0 -55 53v119q0 53 57 53h64v578h-66q-55 0 -55 51v121q0 53 57 53h289q28 0 38.5 -14.5t10.5 -42.5v-746h70q30 0 43.5 -11.5t13.5 -39.5v-125q0 -29 -12.5 -39t-42.5 -10z" />
    <glyph glyph-name="IJ" unicode="&#x132;" horiz-adv-x="1431" 
d="M571 0h-432q-55 0 -55 55v119q0 53 57 53h72v992h-74q-55 0 -55 55v119q0 53 57 53h428q30 0 43 -12.5t13 -42.5v-123q0 -29 -12 -39t-42 -10h-73v-992h71q29 0 42.5 -13t13.5 -42v-123q0 -29 -12 -39t-42 -10zM1249 203q0 -120 -20 -191.5t-62 -117.5
q-91 -105 -338 -105q-73 0 -100 8q-43 11 -43 53q0 69 10 121q6 49 49 49q7 0 35 -1t43 -1q79 0 111 29q20 19 25.5 61t5.5 128v983h-80q-54 0 -54 55v119q0 53 56 53h432q29 0 42 -12.5t13 -42.5v-123q0 -29 -12.5 -39t-40.5 -10h-72v-1016z" />
    <glyph glyph-name="ij" unicode="&#x133;" horiz-adv-x="1267" 
d="M541 0h-412q-55 0 -55 53v119q0 53 57 53h64v578h-66q-55 0 -55 51v121q0 53 57 53h289q28 0 38.5 -14.5t10.5 -42.5v-746h70q30 0 43.5 -11.5t13.5 -39.5v-125q0 -29 -12.5 -39t-42.5 -10zM471 1348q0 -83 -38.5 -119.5t-115.5 -36.5q-71 0 -111 34.5t-40 119.5
q0 157 151 157q75 0 114.5 -34.5t39.5 -120.5zM1106 -98q0 -221 -72 -301q-50 -57 -134.5 -84t-240.5 -27q-75 0 -75 59q0 78 2 105q6 54 61 57q61 3 90 9t51 22q26 19 34.5 52.5t8.5 90.5v918h-67q-53 0 -53 51v121q0 53 57 53h289q28 0 38.5 -14t10.5 -43v-1069z
M1108 1348q0 -83 -38.5 -119.5t-115.5 -36.5q-71 0 -111 34.5t-40 119.5q0 157 151 157q75 0 114.5 -34.5t39.5 -120.5z" />
    <glyph glyph-name="Jcircumflex" unicode="&#x134;" horiz-adv-x="720" 
d="M541 203q0 -120 -20 -191.5t-62 -117.5q-91 -105 -338 -105q-74 0 -101 8q-43 11 -43 53q0 64 11 121q6 49 49 49q7 0 35 -1t43 -1q78 0 110 29q20 19 25.5 61t5.5 128v983h-80q-53 0 -53 55v119q0 53 55 53h432q29 0 42.5 -12.5t13.5 -42.5v-123q0 -29 -13 -39t-41 -10
h-71v-1016zM158 1554h-95q-26 0 -39.5 11.5t-13.5 27.5q0 24 19 43l204 205q51 55 99 55h117q43 0 90 -47l206 -213q19 -19 19 -43q0 -39 -57 -39h-95q-46 0 -88 39l-139 121l-141 -123q-24 -21 -41.5 -29t-44.5 -8z" />
    <glyph glyph-name="jcircumflex" unicode="&#x135;" horiz-adv-x="612" 
d="M451 -98q0 -221 -72 -301q-50 -57 -134.5 -84t-240.5 -27q-76 0 -76 59q0 78 2 105q6 54 62 57q93 6 121 19q11 5 20 12q26 20 34.5 53t8.5 90v918h-67q-54 0 -54 51v121q0 53 58 53h288q28 0 39 -14t11 -43v-1069zM82 1182h-72q-49 0 -49 39q0 19 21 43l174 239
q37 53 80 53h104q40 0 78 -51l174 -241q16 -22 16 -43q0 -39 -47 -39h-74q-44 0 -73 39l-129 155l-129 -155q-31 -39 -74 -39z" />
    <glyph glyph-name="Kcommaaccent" unicode="&#x136;" horiz-adv-x="1382" 
d="M571 0h-432q-55 0 -55 55v119q0 53 57 53h72v992h-74q-55 0 -55 55v119q0 53 57 53h428q30 0 43 -12.5t13 -42.5v-123q0 -29 -12 -39t-42 -10h-73v-357h88q68 0 94 43l203 314h-43q-43 0 -43 55v119q0 26 12 39.5t43 13.5h426q29 0 42 -12.5t13 -42.5v-123
q0 -29 -12.5 -39t-40.5 -10h-98q-97 -146 -161 -243t-97 -147.5t-45 -68.5q78 -132 307 -494q13 -22 26 -30.5t41 -8.5h68q57 0 57 -55v-123q0 -29 -12.5 -39t-42.5 -10h-219q-55 0 -87.5 20t-60.5 68l-299 510q-13 23 -31 30t-51 7h-77v-408h71q29 0 42.5 -13t13.5 -42
v-123q0 -29 -12 -39t-42 -10zM774 -131q33 0 46.5 -16.5t13.5 -51.5q0 -92 -30 -192t-97 -176q-31 -39 -64 -39q-32 0 -72 22q-18 10 -24 19.5t-6 25.5q0 19 16 56q29 58 42 119t13 151q0 82 70 82h92z" />
    <glyph glyph-name="kcommaaccent" unicode="&#x137;" horiz-adv-x="1208" 
d="M535 0h-414q-53 0 -53 55v117q0 53 55 53h65v1082h-67q-53 0 -53 55v117q0 53 57 53h289q29 0 39 -13.5t10 -43.5v-803h102q35 0 54 9t34 34l54 88h-9q-53 0 -53 51v121q0 53 55 53h398q57 0 57 -55v-121q0 -29 -12.5 -39t-42.5 -10h-113q-67 -99 -158 -225
q1 -2 35.5 -59t79 -127t78.5 -116q16 -28 33.5 -39.5t48.5 -11.5h39q28 0 41.5 -12t13.5 -41v-119q0 -30 -15.5 -41.5t-45.5 -11.5h-179q-57 0 -89 23t-60 71l-193 322q-13 22 -31 29.5t-50 7.5h-72v-228h69q29 0 42.5 -13t13.5 -42v-121q0 -29 -12 -39t-41 -10zM670 -131
q33 0 46 -16.5t13 -51.5q0 -92 -30 -192t-97 -176q-31 -39 -63 -39t-72 22q-31 17 -31 45q0 16 17 56q29 58 42 119t13 151q0 82 70 82h92z" />
    <glyph glyph-name="kgreenlandic" unicode="&#x138;" horiz-adv-x="1208" 
d="M535 0h-414q-53 0 -53 55v117q0 53 55 53h65v578h-67q-53 0 -53 55v117q0 53 57 53h289q29 0 39 -13.5t10 -43.5v-314h98q62 0 88 43l62 103q-28 0 -44 13.5t-16 37.5v123q0 51 58 51h362q57 0 57 -55v-121q0 -29 -13 -39t-42 -10h-86q-44 -65 -97.5 -140t-60.5 -85
q5 -7 37.5 -58.5t78 -124t77.5 -119.5q20 -28 36 -39.5t46 -11.5h39q28 0 41.5 -12t13.5 -41v-119q0 -30 -15.5 -41.5t-45.5 -11.5h-181q-55 0 -85 21.5t-60 70.5l-186 307q-20 39 -86 39h-76v-213h69q29 0 42.5 -13t13.5 -42v-121q0 -29 -12 -39t-41 -10z" />
    <glyph glyph-name="Lacute" unicode="&#x139;" horiz-adv-x="1198" 
d="M1079 0h-940q-55 0 -55 55v119q0 53 57 53h72v992h-74q-55 0 -55 55v121q0 26 13 38.5t44 12.5h445q30 0 42.5 -12.5t12.5 -42.5v-121q0 -31 -12 -41t-41 -10h-90v-992h409l11 121q2 26 13 38.5t38 12.5h116q27 0 39.5 -9.5t12.5 -37.5q0 -170 -2 -297q0 -55 -56 -55z
M414 1581q-46 -27 -88 -27h-119q-20 0 -31.5 9.5t-11.5 21.5q0 24 29 51l239 201q43 37 92 37h181q23 0 36 -10t13 -23q0 -33 -33 -53z" />
    <glyph glyph-name="lacute" unicode="&#x13a;" horiz-adv-x="655" 
d="M541 0h-412q-55 0 -55 55v117q0 53 57 53h64v1082h-66q-55 0 -55 55v119q0 51 57 51h279q34 0 46.5 -17t12.5 -53v-1237h70q57 0 57 -55v-121q0 -29 -12.5 -39t-42.5 -10zM344 1622q-46 -27 -88 -27h-119q-20 0 -31.5 9.5t-11.5 21.5q0 24 29 51l239 201q43 37 93 37h180
q23 0 36 -10t13 -23q0 -33 -33 -53z" />
    <glyph glyph-name="Lcommaaccent" unicode="&#x13b;" horiz-adv-x="1198" 
d="M1079 0h-940q-55 0 -55 55v119q0 53 57 53h72v992h-74q-55 0 -55 55v121q0 26 13 38.5t44 12.5h445q30 0 42.5 -12.5t12.5 -42.5v-121q0 -31 -12 -41t-41 -10h-90v-992h409l11 121q2 26 13 38.5t38 12.5h116q27 0 39.5 -9.5t12.5 -37.5q0 -170 -2 -297q0 -55 -56 -55z
M674 -131q33 0 46 -16.5t13 -51.5q0 -92 -30 -192t-97 -176q-31 -39 -63 -39t-72 22q-31 17 -31 45q0 16 17 56q29 58 42 119t13 151q0 82 70 82h92z" />
    <glyph glyph-name="lcommaaccent" unicode="&#x13c;" horiz-adv-x="655" 
d="M541 0h-412q-55 0 -55 55v117q0 53 57 53h64v1082h-66q-55 0 -55 55v119q0 51 57 51h279q34 0 46.5 -17t12.5 -53v-1237h70q57 0 57 -55v-121q0 -29 -12.5 -39t-42.5 -10zM379 -131q33 0 46 -16.5t13 -51.5q0 -92 -30 -192t-97 -176q-31 -39 -63 -39t-72 22
q-31 17 -31 45q0 16 17 56q29 58 42 119t13 151q0 82 70 82h92z" />
    <glyph glyph-name="Lcaron" unicode="&#x13d;" horiz-adv-x="1198" 
d="M1079 0h-940q-55 0 -55 55v119q0 53 57 53h72v992h-74q-55 0 -55 55v121q0 26 13 38.5t44 12.5h445q30 0 42.5 -12.5t12.5 -42.5v-121q0 -31 -12 -41t-41 -10h-90v-992h409l11 121q2 26 13 38.5t38 12.5h116q27 0 39.5 -9.5t12.5 -37.5q0 -170 -2 -297q0 -55 -56 -55z
M938 1489q33 0 46 -15.5t13 -50.5q0 -87 -31.5 -187.5t-93.5 -180.5q-31 -39 -65 -39q-39 0 -72 22q-18 10 -24 19t-6 24q0 19 16 56q29 60 42 121t13 151q0 80 70 80h92z" />
    <glyph glyph-name="lcaron" unicode="&#x13e;" horiz-adv-x="655" 
d="M541 0h-412q-55 0 -55 55v117q0 53 57 53h64v1082h-66q-55 0 -55 55v119q0 51 57 51h279q34 0 46.5 -17t12.5 -53v-1237h70q57 0 57 -55v-121q0 -29 -12.5 -39t-42.5 -10zM793 1532q33 0 46 -15.5t13 -50.5q0 -87 -31.5 -187.5t-93.5 -180.5q-31 -39 -65 -39
q-39 0 -72 22q-19 10 -25 19t-6 24q0 19 16 56q29 60 42.5 121t13.5 151q0 80 69 80h93z" />
    <glyph glyph-name="Ldot" unicode="&#x13f;" horiz-adv-x="1198" 
d="M1079 0h-940q-55 0 -55 55v119q0 53 57 53h72v992h-74q-55 0 -55 55v121q0 26 13 38.5t44 12.5h445q30 0 42.5 -12.5t12.5 -42.5v-121q0 -31 -12 -41t-41 -10h-90v-990h409l11 119q2 26 13 38.5t38 12.5h116q27 0 39.5 -9.5t12.5 -37.5q0 -1 -0.5 -70t-1 -142.5
t-0.5 -84.5q-1 -29 -14.5 -42t-41.5 -13zM1094 731q0 -164 -160 -164q-65 0 -109.5 37.5t-44.5 124.5t43 126.5t115 39.5q71 0 113.5 -35.5t42.5 -128.5z" />
    <glyph glyph-name="ldot" unicode="&#x140;" horiz-adv-x="790" 
d="M870 731q0 -158 -151 -158q-62 0 -104 36t-42 120t42 122t108 38q69 0 108 -33.5t39 -124.5zM537 0h-414q-53 0 -53 55v117q0 53 55 53h65v1082h-67q-53 0 -53 55v119q0 51 57 51h279q34 0 46.5 -17t12.5 -53v-1237h70q29 0 42 -13t13 -42v-121q0 -29 -12 -39t-41 -10z
" />
    <glyph glyph-name="Lslash" unicode="&#x141;" horiz-adv-x="1198" 
d="M152 430q-21 -16 -41 -16q-22 0 -41 28q-39 59 -48.5 78.5t-9.5 32.5q0 24 27 43l174 121v502h-74q-55 0 -55 55v121q0 26 13 38.5t44 12.5h445q30 0 42.5 -12.5t12.5 -42.5v-121q0 -31 -12 -41t-41 -10h-90v-306l196 138q20 14 39 14q16 0 39 -29q43 -62 52.5 -79
t9.5 -29q0 -22 -25 -41l-311 -217v-443h409l11 121q2 26 13 38.5t38 12.5h116q27 0 39.5 -9.5t12.5 -37.5q0 -170 -2 -297q0 -55 -56 -55h-940q-55 0 -55 55v119q0 53 57 53h72v246z" />
    <glyph glyph-name="lslash" unicode="&#x142;" horiz-adv-x="655" 
d="M156 537q-24 -17 -43 -17q-18 0 -37 29q-45 67 -45 94q0 26 32 45l132 84v535h-66q-55 0 -55 55v119q0 51 57 51h279q34 0 46.5 -17t12.5 -53v-514l51 33q22 14 43 14q22 0 37 -26q45 -71 45 -97q0 -24 -31 -43l-145 -94v-510h70q57 0 57 -55v-121q0 -29 -12.5 -39
t-42.5 -10h-412q-55 0 -55 55v117q0 53 57 53h64v336z" />
    <glyph glyph-name="Nacute" unicode="&#x143;" horiz-adv-x="1505" 
d="M569 0h-430q-55 0 -55 55v119q0 53 57 53h74v992h-76q-55 0 -55 55v119q0 53 57 53h285q47 0 72 -41q394 -603 540 -868q-2 137 -2 682h-80q-55 0 -55 55v119q0 53 57 53h428q30 0 43 -12.5t13 -42.5v-123q0 -29 -12 -39t-41 -10h-76v-1160q0 -29 -16.5 -45t-43.5 -16
h-133q-32 0 -51 9.5t-37 37.5q-405 635 -545 877q2 -119 2 -695h78q29 0 42.5 -13t13.5 -42v-123q0 -29 -12 -39t-42 -10zM809 1581q-47 -27 -88 -27h-119q-20 0 -31.5 9.5t-11.5 21.5q0 24 29 51l239 201q43 37 93 37h180q23 0 36 -10t13 -23q0 -33 -33 -53z" />
    <glyph glyph-name="nacute" unicode="&#x144;" horiz-adv-x="1284" 
d="M541 0h-412q-55 0 -55 53v121q0 26 13 38.5t44 12.5h64v578h-66q-55 0 -55 51v121q0 53 57 53h275q55 0 59 -51l2 -43q31 55 119.5 87t189.5 32q140 0 208 -32t93 -97q21 -56 21 -201v-498h69q29 0 42.5 -13t13.5 -42v-121q0 -30 -11.5 -39.5t-40.5 -9.5h-294
q-54 0 -54 55v607q0 69 -10 100q-16 59 -131 59q-93 0 -156 -28q-34 -15 -45 -31q-12 -24 -12 -64v-473h70q57 0 57 -55v-121q0 -29 -12.5 -39t-42.5 -10zM713 1225q-37 -37 -84 -37h-101q-49 0 -49 37q0 22 19 47l186 239q19 24 36.5 34.5t43.5 10.5h158q51 0 51 -38
q0 -22 -23 -48z" />
    <glyph glyph-name="Ncommaaccent" unicode="&#x145;" horiz-adv-x="1505" 
d="M569 0h-430q-55 0 -55 55v119q0 53 57 53h74v992h-76q-55 0 -55 55v119q0 53 57 53h285q47 0 72 -41q394 -603 540 -868q-2 137 -2 682h-80q-55 0 -55 55v119q0 53 57 53h428q30 0 43 -12.5t13 -42.5v-123q0 -29 -12 -39t-41 -10h-76v-1160q0 -29 -16.5 -45t-43.5 -16
h-133q-32 0 -51 9.5t-37 37.5q-405 635 -545 877q2 -119 2 -695h78q29 0 42.5 -13t13.5 -42v-123q0 -29 -12 -39t-42 -10zM805 -131q33 0 46 -16.5t13 -51.5q0 -92 -30 -192t-97 -176q-31 -39 -63 -39t-72 22q-31 17 -31 45q0 16 17 56q29 58 42 119t13 151q0 82 70 82h92z
" />
    <glyph glyph-name="ncommaaccent" unicode="&#x146;" horiz-adv-x="1284" 
d="M541 0h-412q-55 0 -55 53v121q0 26 13 38.5t44 12.5h64v578h-66q-55 0 -55 51v121q0 53 57 53h275q55 0 59 -51l2 -43q31 55 119.5 87t189.5 32q140 0 208 -32t93 -97q21 -56 21 -201v-498h69q29 0 42.5 -13t13.5 -42v-121q0 -30 -11.5 -39.5t-40.5 -9.5h-294
q-54 0 -54 55v607q0 69 -10 100q-16 59 -131 59q-93 0 -156 -28q-34 -15 -45 -31q-12 -24 -12 -64v-473h70q57 0 57 -55v-121q0 -29 -12.5 -39t-42.5 -10zM700 -131q33 0 46.5 -16.5t13.5 -51.5q0 -92 -30 -192t-97 -176q-31 -39 -64 -39q-31 0 -71 22q-31 17 -31 45
q0 19 16 56q29 59 42.5 119.5t13.5 150.5q0 82 69 82h92z" />
    <glyph glyph-name="Ncaron" unicode="&#x147;" horiz-adv-x="1505" 
d="M569 0h-430q-55 0 -55 55v119q0 53 57 53h74v992h-76q-55 0 -55 55v119q0 53 57 53h285q47 0 72 -41q394 -603 540 -868q-2 137 -2 682h-80q-55 0 -55 55v119q0 53 57 53h428q30 0 43 -12.5t13 -42.5v-123q0 -29 -12 -39t-41 -10h-76v-1160q0 -29 -16.5 -45t-43.5 -16
h-133q-32 0 -51 9.5t-37 37.5q-405 635 -545 877q2 -119 2 -695h78q29 0 42.5 -13t13.5 -42v-123q0 -29 -12 -39t-42 -10zM991 1896h92q27 0 41.5 -11.5t14.5 -29.5q0 -22 -21 -43l-203 -204q-54 -54 -98 -54h-119q-46 0 -90 48l-205 213q-18 18 -18 40q0 41 55 41h97
q27 0 45.5 -8.5t42.5 -29.5l139 -121l139 121q23 21 41.5 29.5t46.5 8.5z" />
    <glyph glyph-name="ncaron" unicode="&#x148;" horiz-adv-x="1284" 
d="M541 0h-412q-55 0 -55 53v121q0 26 13 38.5t44 12.5h64v578h-66q-55 0 -55 51v121q0 53 57 53h275q55 0 59 -51l2 -43q31 55 119.5 87t189.5 32q140 0 208 -32t93 -97q21 -56 21 -201v-498h69q29 0 42.5 -13t13.5 -42v-121q0 -30 -11.5 -39.5t-40.5 -9.5h-294
q-54 0 -54 55v607q0 69 -10 100q-16 59 -131 59q-93 0 -156 -28q-34 -15 -45 -31q-12 -24 -12 -64v-473h70q57 0 57 -55v-121q0 -29 -12.5 -39t-42.5 -10zM823 1563h90q50 0 50 -39q0 -18 -21 -43l-174 -240q-37 -53 -80 -53h-135q-42 0 -76 51l-176 242q-16 22 -16 43
q0 39 47 39h94q43 0 74 -39l125 -150l123 150q31 39 75 39z" />
    <glyph glyph-name="napostrophe" unicode="&#x149;" horiz-adv-x="1284" 
d="M541 0h-412q-55 0 -55 53v121q0 26 13 38.5t44 12.5h64v578h-66q-55 0 -55 51v121q0 53 57 53h275q55 0 59 -51l2 -43q31 55 119.5 87t189.5 32q140 0 208 -32t93 -97q21 -56 21 -201v-498h69q29 0 42.5 -13t13.5 -42v-121q0 -30 -11.5 -39.5t-40.5 -9.5h-294
q-54 0 -54 55v607q0 69 -10 100q-16 59 -131 59q-93 0 -156 -28q-34 -15 -45 -31q-12 -24 -12 -64v-473h70q57 0 57 -55v-121q0 -29 -12.5 -39t-42.5 -10zM309 1606q33 0 46.5 -16.5t13.5 -51.5q0 -92 -30 -192.5t-97 -176.5q-31 -39 -64 -39q-31 0 -72 23q-18 10 -24 19.5
t-6 25.5q0 18 16 55q55 110 55 271q0 82 70 82h92z" />
    <glyph glyph-name="Eng" unicode="&#x14a;" horiz-adv-x="1505" 
d="M569 0h-430q-55 0 -55 55v119q0 53 57 53h74v992h-76q-55 0 -55 55v119q0 53 57 53h285q47 0 72 -41q394 -603 540 -868q-2 137 -2 682h-80q-55 0 -55 55v119q0 53 57 53h428q30 0 43 -12.5t13 -42.5v-123q0 -29 -12 -39t-41 -10h-76v-1256q0 -119 -21 -191.5t-63 -119.5
q-93 -103 -338 -103q-64 0 -107 11q-39 9 -39 51q0 29 13 123q7 53 49 53q7 0 35 -2t43 -2q76 0 110 31q31 31 31 168v73q-403 632 -539 867q2 -119 2 -695h78q29 0 42.5 -13t13.5 -42v-123q0 -29 -12 -39t-42 -10z" />
    <glyph glyph-name="eng" unicode="&#x14b;" horiz-adv-x="1284" 
d="M541 0h-412q-55 0 -55 53v121q0 26 13 38.5t44 12.5h64v578h-66q-55 0 -55 51v121q0 53 57 53h275q55 0 59 -51l2 -43q31 55 119.5 87t189.5 32q140 0 208 -32t93 -97q21 -56 21 -201v-733q0 -121 -22 -189.5t-64 -115.5q-90 -97 -314 -97q-60 0 -104 9q-39 12 -39 49
q0 52 10 114q7 50 47 50q9 0 36.5 -1.5t43.5 -1.5q62 0 96 27q35 30 35 182v646q0 69 -10 100q-16 59 -131 59q-93 0 -156 -28q-34 -15 -45 -31q-12 -24 -12 -64v-473h70q57 0 57 -55v-121q0 -29 -12.5 -39t-42.5 -10z" />
    <glyph glyph-name="Omacron" unicode="&#x14c;" horiz-adv-x="1439" 
d="M1339 733q0 -180 -25 -310t-72.5 -217t-125.5 -138.5t-175.5 -73t-231.5 -21.5q-129 0 -223 21t-171 72.5t-123.5 138t-71 216.5t-24.5 310q0 179 31.5 311.5t85.5 214t136.5 131t172 67.5t205.5 18q94 0 164.5 -8t137 -28.5t113 -56t86 -91t63 -133.5t36 -183t12.5 -240
zM1047 729q0 130 -12 219.5t-34.5 148t-64 90.5t-91.5 44t-126 12q-85 0 -142.5 -21.5t-102.5 -77t-66 -157.5t-21 -256q0 -132 14 -225.5t39 -152t67 -92.5t90.5 -46t117.5 -12q68 0 115.5 11.5t91 44t69.5 90.5t41 152.5t15 227.5zM987 1595h-524q-55 0 -55 52v94
q0 51 55 51h522q55 0 55 -53v-97q0 -28 -12.5 -37.5t-40.5 -9.5z" />
    <glyph glyph-name="omacron" unicode="&#x14d;" horiz-adv-x="1153" 
d="M1071 522q0 -162 -30 -269.5t-95 -169t-154 -86t-221 -24.5q-101 0 -175 14.5t-135 51t-98.5 98t-58 155.5t-20.5 224q0 132 25 229t67 156.5t108 95t136.5 48t163.5 12.5q83 0 145 -8.5t119 -30t96.5 -60.5t69 -97.5t43.5 -143t14 -195.5zM797 512q0 130 -20 197.5
t-65 94.5t-132 27q-59 0 -98 -14t-67.5 -49t-41.5 -96t-13 -154q0 -132 23 -202.5t67.5 -95.5t124.5 -25q60 0 98.5 12t68 46t42.5 97t13 162zM831 1225h-491q-55 0 -55 51v98q0 51 55 51h489q56 0 56 -53v-100q0 -28 -13 -37.5t-41 -9.5z" />
    <glyph glyph-name="Obreve" unicode="&#x14e;" horiz-adv-x="1439" 
d="M1339 733q0 -180 -25 -310t-72.5 -217t-125.5 -138.5t-175.5 -73t-231.5 -21.5q-129 0 -223 21t-171 72.5t-123.5 138t-71 216.5t-24.5 310q0 179 31.5 311.5t85.5 214t136.5 131t172 67.5t205.5 18q94 0 164.5 -8t137 -28.5t113 -56t86 -91t63 -133.5t36 -183t12.5 -240
zM1047 729q0 130 -12 219.5t-34.5 148t-64 90.5t-91.5 44t-126 12q-85 0 -142.5 -21.5t-102.5 -77t-66 -157.5t-21 -256q0 -132 14 -225.5t39 -152t67 -92.5t90.5 -46t117.5 -12q68 0 115.5 11.5t91 44t69.5 90.5t41 152.5t15 227.5zM1008 1874q49 0 49 -43q0 -36 -15 -90
q-30 -95 -106 -146t-219 -51q-266 0 -322 197q-10 30 -10 80q0 53 53 53h66q53 0 61 -43q10 -52 42.5 -77t111.5 -25q84 0 115.5 23t46.5 77q7 26 20.5 35.5t38.5 9.5h68z" />
    <glyph glyph-name="obreve" unicode="&#x14f;" horiz-adv-x="1153" 
d="M1071 522q0 -162 -30 -269.5t-95 -169t-154 -86t-221 -24.5q-101 0 -175 14.5t-135 51t-98.5 98t-58 155.5t-20.5 224q0 132 25 229t67 156.5t108 95t136.5 48t163.5 12.5q83 0 145 -8.5t119 -30t96.5 -60.5t69 -97.5t43.5 -143t14 -195.5zM797 512q0 130 -20 197.5
t-65 94.5t-132 27q-59 0 -98 -14t-67.5 -49t-41.5 -96t-13 -154q0 -132 23 -202.5t67.5 -95.5t124.5 -25q60 0 98.5 12t68 46t42.5 97t13 162zM852 1516q25 0 34 -12t9 -36q0 -48 -12 -92q-29 -99 -101.5 -153t-210.5 -54q-133 0 -209 58t-96 151q-6 30 -6 82q0 56 49 56h64
q26 0 40.5 -10.5t18.5 -37.5q10 -60 40 -90t103 -30q78 0 108 28.5t44 89.5q7 27 20.5 38.5t36.5 11.5h68z" />
    <glyph glyph-name="Ohungarumlaut" unicode="&#x150;" horiz-adv-x="1439" 
d="M1339 733q0 -180 -25 -310t-72.5 -217t-125.5 -138.5t-175.5 -73t-231.5 -21.5q-129 0 -223 21t-171 72.5t-123.5 138t-71 216.5t-24.5 310q0 179 31.5 311.5t85.5 214t136.5 131t172 67.5t205.5 18q94 0 164.5 -8t137 -28.5t113 -56t86 -91t63 -133.5t36 -183t12.5 -240
zM1047 729q0 130 -12 219.5t-34.5 148t-64 90.5t-91.5 44t-126 12q-85 0 -142.5 -21.5t-102.5 -77t-66 -157.5t-21 -256q0 -132 14 -225.5t39 -152t67 -92.5t90.5 -46t117.5 -12q68 0 115.5 11.5t91 44t69.5 90.5t41 152.5t15 227.5zM586 1581q-46 -27 -90 -27h-105
q-19 0 -30 9.5t-11 21.5q0 24 27 51l221 201q43 37 94 37h146q25 0 37 -10t12 -25q0 -27 -31 -51zM1020 1581q-47 -27 -90 -27h-105q-19 0 -30 9.5t-11 21.5q0 26 27 51l221 201q43 37 94 37h146q25 0 37 -10t12 -25q0 -27 -31 -51z" />
    <glyph glyph-name="ohungarumlaut" unicode="&#x151;" horiz-adv-x="1153" 
d="M1071 522q0 -162 -30 -269.5t-95 -169t-154 -86t-221 -24.5q-101 0 -175 14.5t-135 51t-98.5 98t-58 155.5t-20.5 224q0 132 25 229t67 156.5t108 95t136.5 48t163.5 12.5q83 0 145 -8.5t119 -30t96.5 -60.5t69 -97.5t43.5 -143t14 -195.5zM797 512q0 130 -20 197.5
t-65 94.5t-132 27q-59 0 -98 -14t-67.5 -49t-41.5 -96t-13 -154q0 -132 23 -202.5t67.5 -95.5t124.5 -25q60 0 98.5 12t68 46t42.5 97t13 162zM479 1225q-32 -37 -84 -37h-78q-47 0 -47 39q0 21 17 45l170 239q29 45 78 45h120q52 0 52 -36q0 -24 -23 -54zM838 1225
q-32 -37 -82 -37h-76q-49 0 -49 39q0 18 18 47l170 237q31 45 78 45h119q49 0 49 -36q0 -24 -23 -54z" />
    <glyph glyph-name="OE" unicode="&#x152;" horiz-adv-x="1966" 
d="M1843 0h-839q-137 -18 -277 -18q-137 0 -236 21.5t-176.5 72t-124 136.5t-70.5 212t-24 301t30.5 305.5t84.5 212.5t137 132t177.5 69.5t217.5 19.5q133 0 252 -18h824q27 0 38 -12.5t11 -40.5v-289q0 -28 -13 -39.5t-40 -11.5h-115q-27 0 -38 12.5t-13 36.5l-7 115h-380
v-353h409q30 0 44 -13.5t14 -45.5v-119q0 -53 -58 -53h-409v-406h413l11 121q3 51 55 51h112q27 0 40.5 -10t13.5 -37q0 -225 -6 -305q-3 -47 -58 -47zM977 242v975q-80 18 -225 18q-59 0 -102.5 -7t-88 -25.5t-74 -54.5t-53.5 -91t-35.5 -138.5t-11.5 -193.5
q0 -132 15 -224t41.5 -148t72 -87.5t95.5 -42t124 -10.5q131 0 242 29z" />
    <glyph glyph-name="oe" unicode="&#x153;" horiz-adv-x="1796" 
d="M1067 440q1 -73 17.5 -121t50 -73.5t74.5 -35t102 -9.5q155 0 268 37q23 10 53 10q31 0 41 -33q25 -92 25 -121q0 -36 -33 -53q-65 -33 -168.5 -50.5t-202.5 -17.5q-281 0 -376 144q-97 -144 -347 -144q-101 0 -175 14.5t-135 51t-98.5 98t-58 155.5t-20.5 224
q0 131 25.5 227.5t68 156t108.5 95.5t137 49t163 13q139 0 225 -29.5t133 -107.5q100 137 344 137q64 0 117 -8t94 -22t73 -37t54.5 -49t39 -63t26 -73.5t15 -85.5t7.5 -94t2 -105q0 -50 -22 -69q-14 -11 -47 -11h-580zM807 512q0 98 -10.5 158t-38 95t-68 47.5t-108.5 12.5
q-81 0 -128 -24t-73.5 -92.5t-26.5 -190.5q0 -99 12.5 -161.5t42 -96.5t68.5 -46.5t101 -12.5q60 0 98 11t70 43t46.5 95t14.5 162zM1071 629h395q2 8 2 33q0 103 -39.5 152.5t-144.5 49.5q-114 0 -162.5 -57.5t-50.5 -177.5z" />
    <glyph glyph-name="Racute" unicode="&#x154;" horiz-adv-x="1345" 
d="M590 0h-451q-55 0 -55 55v119q0 53 57 53h72v992h-74q-55 0 -55 55v119q0 53 57 53h473q276 0 396 -49q111 -45 159 -139.5t48 -235.5q0 -296 -238 -387l188 -363q13 -27 25.5 -36t44.5 -9h53q28 0 39.5 -13t11.5 -42v-123q0 -29 -11.5 -39t-39.5 -10h-188
q-69 0 -101.5 19t-58.5 73l-231 490q-31 -2 -105 -2h-110v-353h92q55 0 55 -55v-123q0 -29 -12.5 -39t-40.5 -10zM496 801h131q131 0 196 26q103 38 103 181q0 80 -25 124t-74 64q-61 21 -204 21h-127v-416zM705 1581q-46 -27 -89 -27h-118q-20 0 -31.5 9.5t-11.5 21.5
q0 25 28 51l240 201q43 37 92 37h180q23 0 36 -10t13 -23q0 -34 -32 -53z" />
    <glyph glyph-name="racute" unicode="&#x155;" horiz-adv-x="866" 
d="M575 0h-446q-55 0 -55 55v117q0 53 57 53h64v578h-66q-55 0 -55 51v121q0 53 59 53h273q33 0 46 -14t13 -43l2 -41q16 46 87.5 84.5t154.5 38.5q62 0 92 -9q37 -10 37 -53q0 -69 -13 -145q-9 -37 -49 -37q-13 0 -58.5 4t-62.5 4q-94 0 -145 -29q-26 -17 -33 -34
q-8 -20 -8 -52v-477h104q56 0 56 -55v-121q0 -29 -13 -39t-41 -10zM545 1225q-37 -37 -84 -37h-101q-49 0 -49 37q0 22 19 47l186 239q19 24 36.5 34.5t43.5 10.5h158q51 0 51 -38q0 -22 -23 -48z" />
    <glyph glyph-name="Rcommaaccent" unicode="&#x156;" horiz-adv-x="1345" 
d="M590 0h-451q-55 0 -55 55v119q0 53 57 53h72v992h-74q-55 0 -55 55v119q0 53 57 53h473q276 0 396 -49q111 -45 159 -139.5t48 -235.5q0 -296 -238 -387l188 -363q13 -27 25.5 -36t44.5 -9h53q28 0 39.5 -13t11.5 -42v-123q0 -29 -11.5 -39t-39.5 -10h-188
q-69 0 -101.5 19t-58.5 73l-231 490q-31 -2 -105 -2h-110v-353h92q55 0 55 -55v-123q0 -29 -12.5 -39t-40.5 -10zM496 801h131q131 0 196 26q103 38 103 181q0 80 -25 124t-74 64q-61 21 -204 21h-127v-416zM760 -131q33 0 46 -16.5t13 -51.5q0 -92 -30 -192t-97 -176
q-31 -39 -63 -39t-72 22q-31 17 -31 45q0 16 17 56q29 58 42 119t13 151q0 82 70 82h92z" />
    <glyph glyph-name="rcommaaccent" unicode="&#x157;" horiz-adv-x="866" 
d="M575 0h-446q-55 0 -55 55v117q0 53 57 53h64v578h-66q-55 0 -55 51v121q0 53 59 53h273q33 0 46 -14t13 -43l2 -41q16 46 87.5 84.5t154.5 38.5q62 0 92 -9q37 -10 37 -53q0 -69 -13 -145q-9 -37 -49 -37q-13 0 -58.5 4t-62.5 4q-94 0 -145 -29q-26 -17 -33 -34
q-8 -20 -8 -52v-477h104q56 0 56 -55v-121q0 -29 -13 -39t-41 -10zM393 -131q33 0 46.5 -16.5t13.5 -51.5q0 -92 -30 -192t-97 -176q-31 -39 -64 -39q-32 0 -72 22q-18 10 -24 19.5t-6 25.5q0 19 16 56q29 58 42 119t13 151q0 82 70 82h92z" />
    <glyph glyph-name="Rcaron" unicode="&#x158;" horiz-adv-x="1345" 
d="M590 0h-451q-55 0 -55 55v119q0 53 57 53h72v992h-74q-55 0 -55 55v119q0 53 57 53h473q276 0 396 -49q111 -45 159 -139.5t48 -235.5q0 -296 -238 -387l188 -363q13 -27 25.5 -36t44.5 -9h53q28 0 39.5 -13t11.5 -42v-123q0 -29 -11.5 -39t-39.5 -10h-188
q-69 0 -101.5 19t-58.5 73l-231 490q-31 -2 -105 -2h-110v-353h92q55 0 55 -55v-123q0 -29 -12.5 -39t-40.5 -10zM496 801h131q131 0 196 26q103 38 103 181q0 80 -25 124t-74 64q-61 21 -204 21h-127v-416zM870 1896h93q27 0 41 -11.5t14 -29.5q0 -22 -21 -43l-202 -204
q-54 -54 -99 -54h-118q-47 0 -91 48l-204 213q-19 19 -19 40q0 41 55 41h97q27 0 45.5 -8.5t42.5 -29.5l139 -121l139 121q23 21 41.5 29.5t46.5 8.5z" />
    <glyph glyph-name="rcaron" unicode="&#x159;" horiz-adv-x="866" 
d="M575 0h-446q-55 0 -55 55v117q0 53 57 53h64v578h-66q-55 0 -55 51v121q0 53 59 53h273q33 0 46 -14t13 -43l2 -41q16 46 87.5 84.5t154.5 38.5q62 0 92 -9q37 -10 37 -53q0 -69 -13 -145q-9 -37 -49 -37q-13 0 -58.5 4t-62.5 4q-94 0 -145 -29q-26 -17 -33 -34
q-8 -20 -8 -52v-477h104q56 0 56 -55v-121q0 -29 -13 -39t-41 -10zM655 1563h90q50 0 50 -39q0 -18 -21 -43l-174 -240q-37 -53 -80 -53h-135q-42 0 -76 51l-176 242q-16 22 -16 43q0 39 47 39h94q43 0 74 -39l125 -150l123 150q31 39 75 39z" />
    <glyph glyph-name="Sacute" unicode="&#x15a;" horiz-adv-x="1200" 
d="M754 834q200 -50 275 -136t75 -272q0 -107 -27 -187t-88.5 -141.5t-168.5 -93t-259 -31.5q-263 0 -426 62q-25 9 -37.5 24.5t-13.5 42.5q-8 215 -8 267q0 55 53 55h113q28 0 40 -12.5t15 -40.5l14 -133q103 -29 258 -29q77 0 128 15t74.5 43t31.5 56t8 66t-6 63t-26 50
t-59.5 43t-103.5 33l-176 40q-169 41 -249 137.5t-80 276.5q0 103 27.5 181t87.5 138t163.5 91t247.5 31q227 0 369 -46q47 -14 47 -67v-273q0 -28 -13 -38.5t-39 -10.5h-112q-55 0 -58 54l-8 127q-107 16 -207 16q-122 0 -168.5 -45.5t-46.5 -130.5q0 -67 35 -111t142 -71z
M676 1581q-47 -27 -88 -27h-119q-20 0 -31.5 9.5t-11.5 21.5q0 24 29 51l239 201q43 37 92 37h181q23 0 36 -10t13 -23q0 -33 -33 -53z" />
    <glyph glyph-name="sacute" unicode="&#x15b;" horiz-adv-x="966" 
d="M862 745q0 -28 -13 -38.5t-40 -10.5h-102q-30 0 -42 11.5t-14 37.5l-6 86q-67 9 -127 9q-84 0 -116.5 -25t-32.5 -72q0 -41 22.5 -63t100.5 -41l139 -35q101 -25 156.5 -59.5t82.5 -93.5t27 -154q0 -324 -424 -324q-235 0 -356 50q-19 8 -28.5 21.5t-10.5 39.5
q-2 41 -2 213q0 53 53 53h98q32 0 43.5 -12.5t14.5 -42.5l8 -80q85 -25 182 -25q88 0 120 27t32 72q0 37 -24 62t-97 42l-141 33q-89 20 -144.5 52t-88 94.5t-32.5 158.5q0 152 101.5 238t318.5 86q197 0 299 -31q43 -12 43 -59v-220zM584 1225q-37 -37 -84 -37h-101
q-49 0 -49 37q0 22 19 47l186 239q19 24 36.5 34.5t43.5 10.5h158q51 0 51 -38q0 -22 -23 -48z" />
    <glyph glyph-name="Scircumflex" unicode="&#x15c;" horiz-adv-x="1200" 
d="M754 834q200 -50 275 -136t75 -272q0 -107 -27 -187t-88.5 -141.5t-168.5 -93t-259 -31.5q-263 0 -426 62q-25 9 -37.5 24.5t-13.5 42.5q-8 215 -8 267q0 55 53 55h113q28 0 40 -12.5t15 -40.5l14 -133q103 -29 258 -29q77 0 128 15t74.5 43t31.5 56t8 66t-6 63t-26 50
t-59.5 43t-103.5 33l-176 40q-169 41 -249 137.5t-80 276.5q0 103 27.5 181t87.5 138t163.5 91t247.5 31q227 0 369 -46q47 -14 47 -67v-273q0 -28 -13 -38.5t-39 -10.5h-112q-55 0 -58 54l-8 127q-107 16 -207 16q-122 0 -168.5 -45.5t-46.5 -130.5q0 -67 35 -111t142 -71z
M385 1554h-94q-26 0 -39.5 11.5t-13.5 27.5q0 25 18 43l205 205q51 55 98 55h117q43 0 90 -47l207 -213q18 -18 18 -43q0 -39 -57 -39h-94q-46 0 -88 39l-140 121l-141 -123q-24 -21 -41.5 -29t-44.5 -8z" />
    <glyph glyph-name="scircumflex" unicode="&#x15d;" horiz-adv-x="966" 
d="M862 745q0 -28 -13 -38.5t-40 -10.5h-102q-30 0 -42 11.5t-14 37.5l-6 86q-67 9 -127 9q-84 0 -116.5 -25t-32.5 -72q0 -41 22.5 -63t100.5 -41l139 -35q101 -25 156.5 -59.5t82.5 -93.5t27 -154q0 -324 -424 -324q-235 0 -356 50q-19 8 -28.5 21.5t-10.5 39.5
q-2 41 -2 213q0 53 53 53h98q32 0 43.5 -12.5t14.5 -42.5l8 -80q85 -25 182 -25q88 0 120 27t32 72q0 37 -24 62t-97 42l-141 33q-89 20 -144.5 52t-88 94.5t-32.5 158.5q0 152 101.5 238t318.5 86q197 0 299 -31q43 -12 43 -59v-220zM305 1182h-90q-49 0 -49 39q0 22 18 43
l174 239q21 26 38.5 39.5t41.5 13.5h135q40 0 78 -51l174 -241q19 -27 19 -43q0 -39 -49 -39h-93q-44 0 -73 39l-127 149l-123 -149q-28 -39 -74 -39z" />
    <glyph glyph-name="Scedilla" unicode="&#x15e;" horiz-adv-x="1200" 
d="M596 -106q52 -2 89.5 -15t58 -31.5t32 -47.5t14.5 -55t3 -62q0 -222 -306 -222q-65 0 -108 9q-47 11 -47 55q0 31 10 69q8 25 19 34.5t34 9.5q7 0 27 -4t24 -5q20 -4 58 -4q42 0 58 12t16 44q0 33 -14.5 45t-47.5 12q-9 0 -27 -1t-22 -1q-49 0 -49 43q0 14 10 71l25 125
q-191 9 -318 60q-25 9 -37.5 24.5t-13.5 42.5q-8 215 -8 267q0 55 53 55h113q28 0 40 -12.5t15 -40.5l14 -133q103 -29 258 -29q77 0 128 15t74.5 43t31.5 56t8 66t-6 63t-26 50t-59.5 43t-103.5 33l-176 40q-169 41 -249 137.5t-80 276.5q0 103 27.5 181t87.5 138t163.5 91
t247.5 31q227 0 369 -46q47 -14 47 -67v-273q0 -28 -13 -38.5t-39 -10.5h-112q-55 0 -58 54l-8 127q-107 16 -207 16q-122 0 -168.5 -45.5t-46.5 -130.5q0 -67 35 -111t142 -71l176 -43q200 -50 275 -136t75 -272q0 -103 -25 -181t-81 -138.5t-154 -94t-236 -37.5z" />
    <glyph glyph-name="scedilla" unicode="&#x15f;" horiz-adv-x="966" 
d="M494 -104q50 -1 85 -14t54 -30.5t29.5 -46t13 -52.5t2.5 -58q0 -211 -289 -211q-68 0 -102 10q-43 9 -43 51q0 39 8 66q6 24 16 31.5t33 7.5q15 0 47 -4q16 -4 58 -4q39 0 54 10.5t15 40.5q0 33 -13.5 46t-43.5 13q-6 0 -26 -1t-25 -1q-45 0 -45 41q0 4 10 66l22 120
q-155 11 -237 46q-19 8 -28.5 21.5t-10.5 39.5q-2 41 -2 213q0 53 53 53h98q32 0 43.5 -12.5t14.5 -42.5l8 -80q85 -25 182 -25q88 0 120 27t32 72q0 37 -24 62t-97 42l-141 33q-89 20 -144.5 52t-88 94.5t-32.5 158.5q0 152 101.5 238t318.5 86q197 0 299 -31
q43 -12 43 -59v-220q0 -28 -13 -38.5t-40 -10.5h-102q-30 0 -42 11.5t-14 37.5l-6 86q-67 9 -127 9q-84 0 -116.5 -25t-32.5 -72q0 -41 22.5 -63t100.5 -41l139 -35q101 -25 156.5 -59.5t82.5 -93.5t27 -154q0 -150 -92.5 -233.5t-298.5 -90.5z" />
    <glyph glyph-name="Scaron" unicode="&#x160;" horiz-adv-x="1200" 
d="M754 834q200 -50 275 -136t75 -272q0 -107 -27 -187t-88.5 -141.5t-168.5 -93t-259 -31.5q-263 0 -426 62q-25 9 -37.5 24.5t-13.5 42.5q-8 215 -8 267q0 55 53 55h113q28 0 40 -12.5t15 -40.5l14 -133q103 -29 258 -29q77 0 128 15t74.5 43t31.5 56t8 66t-6 63t-26 50
t-59.5 43t-103.5 33l-176 40q-169 41 -249 137.5t-80 276.5q0 103 27.5 181t87.5 138t163.5 91t247.5 31q227 0 369 -46q47 -14 47 -67v-273q0 -28 -13 -38.5t-39 -10.5h-112q-55 0 -58 54l-8 127q-107 16 -207 16q-122 0 -168.5 -45.5t-46.5 -130.5q0 -67 35 -111t142 -71z
M842 1896h92q27 0 41 -11.5t14 -29.5q0 -23 -20 -43l-203 -204q-54 -54 -98 -54h-119q-46 0 -90 48l-205 213q-18 18 -18 40q0 41 55 41h96q27 0 45.5 -8.5t42.5 -29.5l139 -121l140 121q23 21 41.5 29.5t46.5 8.5z" />
    <glyph glyph-name="scaron" unicode="&#x161;" horiz-adv-x="966" 
d="M862 745q0 -28 -13 -38.5t-40 -10.5h-102q-30 0 -42 11.5t-14 37.5l-6 86q-67 9 -127 9q-84 0 -116.5 -25t-32.5 -72q0 -41 22.5 -63t100.5 -41l139 -35q101 -25 156.5 -59.5t82.5 -93.5t27 -154q0 -324 -424 -324q-235 0 -356 50q-19 8 -28.5 21.5t-10.5 39.5
q-2 41 -2 213q0 53 53 53h98q32 0 43.5 -12.5t14.5 -42.5l8 -80q85 -25 182 -25q88 0 120 27t32 72q0 37 -24 62t-97 42l-141 33q-89 20 -144.5 52t-88 94.5t-32.5 158.5q0 152 101.5 238t318.5 86q197 0 299 -31q43 -12 43 -59v-220zM698 1563h90q50 0 50 -39
q0 -18 -21 -43l-174 -240q-37 -53 -80 -53h-135q-42 0 -76 51l-176 242q-16 22 -16 43q0 39 47 39h94q43 0 74 -39l125 -150l123 150q31 39 75 39z" />
    <glyph glyph-name="uni0162" unicode="&#x162;" horiz-adv-x="1267" 
d="M659 -106q52 -2 89.5 -15t58 -31.5t32 -47.5t14.5 -55t3 -62q0 -222 -305 -222q-65 0 -109 9q-47 11 -47 55q0 27 11 69q8 25 19 34.5t34 9.5q7 0 27 -4t24 -5q20 -4 57 -4q42 0 58 12t16 44q0 33 -14 45t-47 12q-9 0 -27.5 -1t-22.5 -1q-49 0 -49 43q0 8 11 71l30 150
h-125q-55 0 -55 55v119q0 53 57 53h78v990h-207l-6 -113q-4 -51 -55 -51h-107q-28 0 -40.5 9.5t-12.5 37.5v291q0 55 55 55h1033q29 0 43 -12.5t14 -42.5v-291q0 -27 -13 -37t-40 -10h-111q-27 0 -38 13.5t-13 37.5l-8 113h-207v-990h78q57 0 57 -55v-123q0 -29 -12.5 -39
t-42.5 -10h-168z" />
    <glyph glyph-name="uni0163" unicode="&#x163;" horiz-adv-x="712" 
d="M438 -104q50 -1 85.5 -14t54.5 -30.5t29.5 -46t13 -52.5t2.5 -58q0 -211 -289 -211q-69 0 -103 10q-43 9 -43 51q0 36 9 66q6 24 16 31.5t33 7.5q15 0 47 -4q16 -4 57 -4q39 0 54.5 10.5t15.5 40.5q0 33 -14 46t-44 13q-6 0 -26 -1t-25 -1q-45 0 -45 41q0 4 10 66l29 151
q-47 20 -76 60q-57 77 -57 243v490h-94q-47 0 -47 49v121q0 24 15 40.5t42 16.5h90q2 76 8 213q3 64 56 64h157q47 0 47 -66v-211h170q30 0 43 -10.5t13 -34.5v-135q0 -47 -51 -47h-172v-418q0 -108 18 -145t78 -37q20 0 57 3t41 3q36 0 45 -41q8 -52 8 -111q0 -47 -49 -57
q-82 -16 -180 -16h-16z" />
    <glyph glyph-name="Tcaron" unicode="&#x164;" horiz-adv-x="1267" 
d="M844 0h-447q-55 0 -55 55v119q0 53 57 53h78v990h-207l-6 -113q-4 -51 -55 -51h-107q-28 0 -40.5 9.5t-12.5 37.5v291q0 55 55 55h1033q29 0 43 -12.5t14 -42.5v-291q0 -27 -13 -37t-40 -10h-111q-27 0 -38 13.5t-13 37.5l-8 113h-207v-990h78q57 0 57 -55v-123
q0 -29 -12.5 -39t-42.5 -10zM850 1896h92q27 0 41 -11.5t14 -29.5q0 -23 -20 -43l-203 -204q-54 -54 -98 -54h-119q-46 0 -90 48l-205 213q-18 18 -18 40q0 41 55 41h96q27 0 45.5 -8.5t42.5 -29.5l140 -121l139 121q23 21 41.5 29.5t46.5 8.5z" />
    <glyph glyph-name="tcaron" unicode="&#x165;" horiz-adv-x="712" 
d="M449 801v-418q0 -108 18 -145t78 -37q20 0 57 3t41 3q36 0 45 -41q8 -52 8 -111q0 -47 -49 -57q-82 -16 -180 -16q-172 0 -238 86q-57 71 -57 243v490h-94q-47 0 -47 49v121q0 24 15 40.5t42 16.5h90q2 76 8 213q3 64 56 64h157q47 0 47 -66v-211h170q30 0 43 -10.5
t13 -34.5v-135q0 -47 -51 -47h-172zM778 1583q33 0 46.5 -15.5t13.5 -49.5q0 -87 -31.5 -188.5t-93.5 -180.5q-31 -39 -66 -39q-37 0 -72 23q-18 10 -24 19t-6 24q0 18 16 55q29 60 42 121t13 151q0 80 70 80h92z" />
    <glyph glyph-name="Tbar" unicode="&#x166;" horiz-adv-x="1267" 
d="M856 0h-446q-56 0 -56 55v119q0 53 58 53h77v449h-235q-55 0 -55 51v90q0 51 55 51h235v349h-206l-7 -113q-4 -51 -55 -51h-106q-28 0 -41 9.5t-13 37.5v291q0 55 56 55h1032q29 0 43 -12.5t14 -42.5v-291q0 -27 -13 -37t-40 -10h-111q-27 0 -38 13.5t-13 37.5l-8 113
h-207v-349h240q55 0 55 -51v-94q0 -28 -12.5 -37.5t-40.5 -9.5h-242v-449h78q57 0 57 -55v-123q0 -29 -12.5 -39t-42.5 -10z" />
    <glyph glyph-name="tbar" unicode="&#x167;" horiz-adv-x="712" 
d="M449 801v-152h151q29 0 42 -13t13 -42v-72q0 -28 -12 -37.5t-41 -9.5h-153v-92q0 -108 18 -145t78 -37q20 0 57 3t41 3q36 0 45 -41q8 -52 8 -111q0 -47 -49 -57q-82 -16 -180 -16q-172 0 -238 86q-57 71 -57 243v164h-78q-55 0 -55 51v68q0 55 57 55h76v152h-94
q-47 0 -47 49v121q0 24 15 40.5t42 16.5h90q2 76 8 213q3 64 56 64h157q47 0 47 -66v-211h170q30 0 43 -10.5t13 -34.5v-135q0 -47 -51 -47h-172z" />
    <glyph glyph-name="Utilde" unicode="&#x168;" horiz-adv-x="1474" 
d="M1290 578q0 -165 -12.5 -255t-48.5 -153q-120 -199 -506 -199q-88 0 -159 9.5t-137.5 32.5t-116 66t-77.5 105q-30 62 -39.5 155.5t-9.5 233.5v646h-69q-56 0 -56 55v119q0 53 58 53h426q30 0 42.5 -12.5t12.5 -42.5v-123q0 -29 -12 -39t-41 -10h-74v-707q0 -83 8 -134
t33 -87q57 -82 227 -82q180 0 236 78q26 36 35.5 85.5t9.5 135.5v711h-80q-55 0 -55 55v119q0 53 57 53h418q29 0 42 -12.5t13 -42.5v-123q0 -29 -12.5 -39t-40.5 -10h-72v-641zM494 1552h-58q-49 0 -49 45q0 28 12 52q84 200 205 200q59 0 160 -53q74 -41 113 -41
q25 0 43.5 13t37.5 49q21 41 64 41h51q25 0 36 -10.5t11 -35.5q0 -31 -12 -61q-72 -190 -201 -190q-37 0 -71.5 11t-96.5 42q-74 39 -110 39q-24 0 -40.5 -12t-33.5 -42q-21 -47 -61 -47z" />
    <glyph glyph-name="utilde" unicode="&#x169;" horiz-adv-x="1282" 
d="M1167 0h-284q-32 0 -45.5 10.5t-16.5 36.5l-4 45q-39 -55 -120 -86t-183 -31q-141 0 -209.5 33t-91.5 98q-25 74 -25 216v481h-65q-55 0 -55 51v121q0 53 59 53h285q51 0 51 -59v-598q0 -72 10 -101q12 -35 42.5 -49t92.5 -14q104 0 154 26q28 12 41 35q14 17 14 70v465
h-67q-30 0 -42 12.5t-12 38.5v121q0 53 56 53h286q26 0 40 -15t14 -42v-746h77q28 0 40 -13t12 -42v-121q0 -29 -12 -39t-42 -10zM393 1196h-63q-47 0 -47 43q0 18 14 53q30 93 80 149t117 56q58 0 153 -53q70 -37 111 -37q24 0 37 10.5t30 46.5q16 43 62 43h59q47 0 47 -45
q0 -8 -20 -76q-28 -87 -76.5 -134.5t-112.5 -47.5q-72 0 -168 53q-70 37 -94 37t-39 -10.5t-30 -40.5q-12 -25 -24.5 -36t-35.5 -11z" />
    <glyph glyph-name="Umacron" unicode="&#x16a;" horiz-adv-x="1474" 
d="M1290 578q0 -165 -12.5 -255t-48.5 -153q-120 -199 -506 -199q-88 0 -159 9.5t-137.5 32.5t-116 66t-77.5 105q-30 62 -39.5 155.5t-9.5 233.5v646h-69q-56 0 -56 55v119q0 53 58 53h426q30 0 42.5 -12.5t12.5 -42.5v-123q0 -29 -12 -39t-41 -10h-74v-707q0 -83 8 -134
t33 -87q57 -82 227 -82q180 0 236 78q26 36 35.5 85.5t9.5 135.5v711h-80q-55 0 -55 55v119q0 53 57 53h418q29 0 42 -12.5t13 -42.5v-123q0 -29 -12.5 -39t-40.5 -10h-72v-641zM1001 1595h-524q-55 0 -55 52v94q0 51 55 51h522q56 0 56 -53v-97q0 -28 -13 -37.5t-41 -9.5z
" />
    <glyph glyph-name="umacron" unicode="&#x16b;" horiz-adv-x="1282" 
d="M1167 0h-284q-32 0 -45.5 10.5t-16.5 36.5l-4 45q-39 -55 -120 -86t-183 -31q-141 0 -209.5 33t-91.5 98q-25 74 -25 216v481h-65q-55 0 -55 51v121q0 53 59 53h285q51 0 51 -59v-598q0 -72 10 -101q12 -35 42.5 -49t92.5 -14q104 0 154 26q28 12 41 35q14 17 14 70v465
h-67q-30 0 -42 12.5t-12 38.5v121q0 53 56 53h286q26 0 40 -15t14 -42v-746h77q28 0 40 -13t12 -42v-121q0 -29 -12 -39t-42 -10zM877 1225h-492q-55 0 -55 51v98q0 51 55 51h489q56 0 56 -53v-100q0 -28 -12.5 -37.5t-40.5 -9.5z" />
    <glyph glyph-name="Ubreve" unicode="&#x16c;" horiz-adv-x="1474" 
d="M1290 578q0 -165 -12.5 -255t-48.5 -153q-120 -199 -506 -199q-88 0 -159 9.5t-137.5 32.5t-116 66t-77.5 105q-30 62 -39.5 155.5t-9.5 233.5v646h-69q-56 0 -56 55v119q0 53 58 53h426q30 0 42.5 -12.5t12.5 -42.5v-123q0 -29 -12 -39t-41 -10h-74v-707q0 -83 8 -134
t33 -87q57 -82 227 -82q180 0 236 78q26 36 35.5 85.5t9.5 135.5v711h-80q-55 0 -55 55v119q0 53 57 53h418q29 0 42 -12.5t13 -42.5v-123q0 -29 -12.5 -39t-40.5 -10h-72v-641zM1028 1874q49 0 49 -43q0 -39 -14 -90q-30 -94 -106.5 -145.5t-219.5 -51.5q-265 0 -321 197
q-10 30 -10 80q0 53 53 53h65q54 0 62 -43q10 -52 42 -77t111 -25q84 0 115.5 23t46.5 77q7 26 21 35.5t39 9.5h67z" />
    <glyph glyph-name="ubreve" unicode="&#x16d;" horiz-adv-x="1282" 
d="M1167 0h-284q-32 0 -45.5 10.5t-16.5 36.5l-4 45q-39 -55 -120 -86t-183 -31q-141 0 -209.5 33t-91.5 98q-25 74 -25 216v481h-65q-55 0 -55 51v121q0 53 59 53h285q51 0 51 -59v-598q0 -72 10 -101q12 -35 42.5 -49t92.5 -14q104 0 154 26q28 12 41 35q14 17 14 70v465
h-67q-30 0 -42 12.5t-12 38.5v121q0 53 56 53h286q26 0 40 -15t14 -42v-746h77q28 0 40 -13t12 -42v-121q0 -29 -12 -39t-42 -10zM889 1516q25 0 34 -12t9 -36q0 -48 -12 -92q-29 -99 -101.5 -153t-210.5 -54q-133 0 -209 58t-96 151q-6 30 -6 82q0 56 49 56h64
q26 0 40.5 -10.5t18.5 -37.5q10 -60 40 -90t103 -30q78 0 108 28.5t44 89.5q7 27 20.5 38.5t36.5 11.5h68z" />
    <glyph glyph-name="Uring" unicode="&#x16e;" horiz-adv-x="1474" 
d="M1290 578q0 -165 -12.5 -255t-48.5 -153q-120 -199 -506 -199q-88 0 -159 9.5t-137.5 32.5t-116 66t-77.5 105q-30 62 -39.5 155.5t-9.5 233.5v646h-69q-56 0 -56 55v119q0 53 58 53h426q30 0 42.5 -12.5t12.5 -42.5v-123q0 -29 -12 -39t-41 -10h-74v-707q0 -83 8 -134
t33 -87q57 -82 227 -82q180 0 236 78q26 36 35.5 85.5t9.5 135.5v711h-80q-55 0 -55 55v119q0 53 57 53h418q29 0 42 -12.5t13 -42.5v-123q0 -29 -12.5 -39t-40.5 -10h-72v-641zM952 1702q0 -95 -54.5 -146t-145.5 -51q-88 0 -140.5 51t-52.5 146q0 94 54.5 147.5
t144.5 53.5q91 0 142.5 -53t51.5 -148zM864 1706q0 58 -28.5 88.5t-81.5 30.5q-49 0 -80 -31.5t-31 -89.5q0 -56 30.5 -87.5t82.5 -31.5q51 0 79.5 31.5t28.5 89.5z" />
    <glyph glyph-name="uring" unicode="&#x16f;" horiz-adv-x="1282" 
d="M1167 0h-284q-32 0 -45.5 10.5t-16.5 36.5l-4 45q-39 -55 -120 -86t-183 -31q-141 0 -209.5 33t-91.5 98q-25 74 -25 216v481h-65q-55 0 -55 51v121q0 53 59 53h285q51 0 51 -59v-598q0 -72 10 -101q12 -35 42.5 -49t92.5 -14q104 0 154 26q28 12 41 35q14 17 14 70v465
h-67q-30 0 -42 12.5t-12 38.5v121q0 53 56 53h286q26 0 40 -15t14 -42v-746h77q28 0 40 -13t12 -42v-121q0 -29 -12 -39t-42 -10zM823 1372q0 -94 -57 -146t-150 -52q-90 0 -143 51.5t-53 146.5q0 96 55.5 150.5t147.5 54.5q93 0 146.5 -54.5t53.5 -150.5zM733 1376
q0 59 -30 90t-85 31q-51 0 -82.5 -31.5t-31.5 -91.5q0 -58 31 -89.5t86 -31.5q54 0 83 31.5t29 91.5z" />
    <glyph glyph-name="Uhungarumlaut" unicode="&#x170;" horiz-adv-x="1474" 
d="M1290 578q0 -165 -12.5 -255t-48.5 -153q-120 -199 -506 -199q-88 0 -159 9.5t-137.5 32.5t-116 66t-77.5 105q-30 62 -39.5 155.5t-9.5 233.5v646h-69q-56 0 -56 55v119q0 53 58 53h426q30 0 42.5 -12.5t12.5 -42.5v-123q0 -29 -12 -39t-41 -10h-74v-707q0 -83 8 -134
t33 -87q57 -82 227 -82q180 0 236 78q26 36 35.5 85.5t9.5 135.5v711h-80q-55 0 -55 55v119q0 53 57 53h418q29 0 42 -12.5t13 -42.5v-123q0 -29 -12.5 -39t-40.5 -10h-72v-641zM590 1581q-47 -27 -90 -27h-105q-19 0 -30 9.5t-11 21.5q0 24 27 51l221 201q43 37 94 37h146
q25 0 37 -10t12 -25q0 -27 -31 -51zM1024 1581q-46 -27 -90 -27h-105q-19 0 -30 9.5t-11 21.5q0 26 27 51l221 201q43 37 94 37h146q25 0 37 -10t12 -25q0 -27 -31 -51z" />
    <glyph glyph-name="uhungarumlaut" unicode="&#x171;" horiz-adv-x="1282" 
d="M1167 0h-284q-32 0 -45.5 10.5t-16.5 36.5l-4 45q-39 -55 -120 -86t-183 -31q-141 0 -209.5 33t-91.5 98q-25 74 -25 216v481h-65q-55 0 -55 51v121q0 53 59 53h285q51 0 51 -59v-598q0 -72 10 -101q12 -35 42.5 -49t92.5 -14q104 0 154 26q28 12 41 35q14 17 14 70v465
h-67q-30 0 -42 12.5t-12 38.5v121q0 53 56 53h286q26 0 40 -15t14 -42v-746h77q28 0 40 -13t12 -42v-121q0 -29 -12 -39t-42 -10zM524 1225q-32 -37 -84 -37h-78q-47 0 -47 39q0 21 17 45l170 239q29 45 78 45h120q52 0 52 -36q0 -24 -23 -54zM883 1225q-32 -37 -82 -37h-76
q-49 0 -49 39q0 18 18 47l170 237q31 45 78 45h119q49 0 49 -36q0 -24 -23 -54z" />
    <glyph glyph-name="Uogonek" unicode="&#x172;" horiz-adv-x="1474" 
d="M1290 578q0 -165 -12.5 -255t-48.5 -153q-102 -164 -379 -193q-90 -66 -128 -116t-38 -123q0 -50 21 -70t71 -20q20 0 54 5t38 5q19 0 27 -8t16 -33q13 -47 13 -74q0 -38 -47 -49q-55 -16 -138 -16q-136 0 -197 56.5t-61 168.5q0 97 44.5 159.5t125.5 110.5
q-327 14 -418 211q-30 62 -39.5 155.5t-9.5 233.5v646h-69q-56 0 -56 55v119q0 53 58 53h426q30 0 42.5 -12.5t12.5 -42.5v-123q0 -29 -12 -39t-41 -10h-74v-707q0 -83 8 -134t33 -87q57 -82 227 -82q180 0 236 78q26 36 35.5 85.5t9.5 135.5v711h-80q-55 0 -55 55v119
q0 53 57 53h418q29 0 42 -12.5t13 -42.5v-123q0 -29 -12.5 -39t-40.5 -10h-72v-641z" />
    <glyph glyph-name="uogonek" unicode="&#x173;" horiz-adv-x="1282" 
d="M1167 0h-143q-109 -74 -152 -124t-43 -124q0 -88 89 -88q20 0 53 4t37 4q16 0 26 -8t17 -31q8 -36 8 -69q0 -36 -45 -47q-55 -17 -135 -17q-129 0 -187.5 55t-58.5 162q0 58 16 103.5t48 79.5t67 57t86 47q-26 9 -29 43l-4 45q-39 -55 -120 -86t-183 -31
q-141 0 -209.5 33t-91.5 98q-25 74 -25 216v481h-65q-55 0 -55 51v121q0 53 59 53h285q51 0 51 -59v-598q0 -72 10 -101q12 -35 42.5 -49t92.5 -14q104 0 154 26q28 12 41 35q14 17 14 70v465h-67q-30 0 -42 12.5t-12 38.5v121q0 53 56 53h286q26 0 40 -15t14 -42v-746h77
q28 0 40 -13t12 -42v-121q0 -29 -12 -39t-42 -10z" />
    <glyph glyph-name="Wcircumflex" unicode="&#x174;" horiz-adv-x="2025" 
d="M692 -2h-168q-29 0 -49 17.5t-26 45.5l-289 1158h-66q-55 0 -55 55v119q0 53 57 53h436q30 0 44 -12.5t14 -42.5v-123q0 -29 -12.5 -39t-42.5 -10h-74q42 -171 75.5 -317t48.5 -216t34 -163.5t24 -116.5q46 218 236 931q10 37 25 54.5t48 17.5h152q54 0 72 -66
q183 -635 241 -937q67 358 174 813h-75q-54 0 -54 55v119q0 26 13 39.5t45 13.5h409q30 0 43 -12.5t13 -42.5v-123q0 -29 -12 -39t-42 -10h-63l-291 -1162q-13 -59 -74 -59h-166q-60 0 -75 61q-94 359 -164.5 640t-73.5 294q-70 -287 -256 -936q-16 -59 -76 -59zM793 1554
h-95q-26 0 -39.5 11.5t-13.5 27.5q0 24 19 43l204 205q51 55 99 55h116q44 0 91 -47l206 -213q19 -19 19 -43q0 -39 -58 -39h-94q-46 0 -88 39l-139 121l-141 -123q-24 -21 -41.5 -29t-44.5 -8z" />
    <glyph glyph-name="wcircumflex" unicode="&#x175;" horiz-adv-x="1654" 
d="M1567 803h-45l-213 -754q-12 -51 -70 -51h-154q-52 0 -69 53q-57 174 -97 300t-62.5 198.5t-27.5 89.5q-56 -191 -190 -590q-16 -51 -74 -51h-147q-58 0 -72 53l-213 752h-45q-55 0 -55 51v121q0 53 57 53h363q57 0 57 -55v-121q0 -29 -13 -39t-42 -10h-39
q43 -161 112 -475q45 173 179 598q22 69 75 69h113q50 0 70 -65q161 -485 194 -602q12 74 103 475h-50q-53 0 -53 51v121q0 26 12 39.5t43 13.5h353q29 0 42 -13t13 -42v-121q0 -29 -12.5 -39t-42.5 -10zM633 1182h-90q-49 0 -49 39q0 22 18 43l174 239q21 26 38.5 39.5
t41.5 13.5h135q40 0 78 -51l174 -241q18 -25 18 -43q0 -39 -49 -39h-92q-45 0 -74 39l-127 149l-122 -149q-28 -39 -74 -39z" />
    <glyph glyph-name="Ycircumflex" unicode="&#x176;" horiz-adv-x="1333" 
d="M1272 1219h-90l-371 -611v-381h72q29 0 42 -13t13 -42v-123q0 -29 -12 -39t-41 -10h-436q-56 0 -56 55v119q0 53 58 53h75v373l-374 619h-91q-53 0 -53 55v119q0 53 58 53h448q30 0 43.5 -12.5t13.5 -42.5v-123q0 -29 -12.5 -39t-42.5 -10h-22q97 -165 184 -332
q59 115 186 332h-28q-56 0 -56 55v119q0 53 58 53h432q30 0 42.5 -12.5t12.5 -42.5v-123q0 -29 -12 -39t-41 -10zM451 1554h-95q-26 0 -39.5 11.5t-13.5 27.5q0 24 19 43l204 205q51 55 99 55h116q43 0 90 -47l207 -213q19 -19 19 -43q0 -39 -58 -39h-94q-46 0 -88 39
l-139 121l-141 -123q-24 -21 -41.5 -29t-44.5 -8z" />
    <glyph glyph-name="ycircumflex" unicode="&#x177;" horiz-adv-x="1142" 
d="M1079 803h-43l-377 -928q-46 -113 -65 -151q-46 -99 -111 -160q-88 -76 -256 -76q-130 0 -176 16q-39 12 -39 52q0 21 9.5 72t15.5 67q15 29 43 29q5 0 42 -4.5t64 -4.5q72 0 103 21q25 14 41.5 35.5t36.5 62.5q42 91 55 129l16 43l-325 797h-52q-53 0 -53 51v121
q0 26 13 39.5t45 13.5h374q58 0 58 -55v-121q0 -29 -14 -39t-44 -10h-37q119 -311 177 -490q47 145 172 490h-39q-56 0 -56 51v121q0 53 58 53h362q58 0 58 -55v-121q0 -29 -13.5 -39t-42.5 -10zM379 1182h-90q-49 0 -49 39q0 22 18 43l174 239q21 26 38.5 39.5t41.5 13.5
h135q40 0 78 -51l174 -241q19 -27 19 -43q0 -39 -50 -39h-92q-45 0 -74 39l-127 149l-122 -149q-28 -39 -74 -39z" />
    <glyph glyph-name="Ydieresis" unicode="&#x178;" horiz-adv-x="1333" 
d="M1272 1219h-90l-371 -611v-381h72q29 0 42 -13t13 -42v-123q0 -29 -12 -39t-41 -10h-436q-56 0 -56 55v119q0 53 58 53h75v373l-374 619h-91q-53 0 -53 55v119q0 53 58 53h448q30 0 43.5 -12.5t13.5 -42.5v-123q0 -29 -12.5 -39t-42.5 -10h-22q97 -165 184 -332
q59 115 186 332h-28q-56 0 -56 55v119q0 53 58 53h432q30 0 42.5 -12.5t12.5 -42.5v-123q0 -29 -12 -39t-41 -10zM604 1698q0 -71 -32.5 -103t-96.5 -32q-127 0 -127 133q0 137 127 137q63 0 96 -30.5t33 -104.5zM1012 1698q0 -72 -32 -103.5t-97 -31.5q-127 0 -127 133
q0 137 127 137q63 0 96 -30.5t33 -104.5z" />
    <glyph glyph-name="Zacute" unicode="&#x179;" horiz-adv-x="1284" 
d="M1178 0h-1055q-42 0 -56 16t-14 52v57q0 39 8 60.5t33 54.5q718 953 737 977h-499l-6 -113q-4 -51 -54 -51h-110q-27 0 -40 10t-13 37v286q0 27 16 43.5t41 16.5h950q37 0 52.5 -12.5t15.5 -51.5v-73q0 -50 -10.5 -78.5t-49.5 -81.5q-145 -193 -279.5 -372.5t-195 -260
t-117.5 -155.5t-102 -134h582l6 123q3 51 55 51h109q27 0 39 -10t12 -39v-299q0 -53 -55 -53zM721 1581q-46 -27 -88 -27h-119q-20 0 -31.5 9.5t-11.5 21.5q0 24 29 51l239 201q43 37 92 37h181q23 0 36 -10t13 -23q0 -33 -33 -53z" />
    <glyph glyph-name="zacute" unicode="&#x17a;" horiz-adv-x="1026" 
d="M928 0h-819q-60 0 -60 61v64q0 30 8 48t31 46q471 564 487 582h-292l-4 -80q-1 -28 -14.5 -38.5t-39.5 -10.5h-92q-55 0 -55 49v254q0 53 49 53h762q29 0 42 -12t13 -43v-74q0 -35 -10.5 -57t-44.5 -64q-425 -504 -467 -551h350l8 82q3 29 15.5 39t40.5 10h92
q53 0 53 -49q0 -170 -4 -262q0 -47 -49 -47zM602 1225q-37 -37 -84 -37h-100q-49 0 -49 37q0 23 18 47l186 239q19 24 36.5 34.5t43.5 10.5h158q51 0 51 -38q0 -23 -22 -48z" />
    <glyph glyph-name="Zdotaccent" unicode="&#x17b;" horiz-adv-x="1284" 
d="M1178 0h-1055q-42 0 -56 16t-14 52v57q0 39 8 60.5t33 54.5q718 953 737 977h-499l-6 -113q-4 -51 -54 -51h-110q-27 0 -40 10t-13 37v286q0 27 16 43.5t41 16.5h950q37 0 52.5 -12.5t15.5 -51.5v-73q0 -50 -10.5 -78.5t-49.5 -81.5q-145 -193 -279.5 -372.5t-195 -260
t-117.5 -155.5t-102 -134h582l6 123q3 51 55 51h109q27 0 39 -10t12 -39v-299q0 -53 -55 -53zM784 1698q0 -72 -32 -103.5t-97 -31.5q-127 0 -127 133q0 137 127 137q63 0 96 -30.5t33 -104.5z" />
    <glyph glyph-name="zdotaccent" unicode="&#x17c;" horiz-adv-x="1026" 
d="M928 0h-819q-60 0 -60 61v64q0 30 8 48t31 46q471 564 487 582h-292l-4 -80q-1 -28 -14.5 -38.5t-39.5 -10.5h-92q-55 0 -55 49v254q0 53 49 53h762q29 0 42 -12t13 -43v-74q0 -35 -10.5 -57t-44.5 -64q-425 -504 -467 -551h350l8 82q3 29 15.5 39t40.5 10h92
q53 0 53 -49q0 -170 -4 -262q0 -47 -49 -47zM664 1348q0 -73 -33 -104.5t-99 -31.5q-59 0 -91.5 30.5t-32.5 103.5q0 135 124 135q64 0 98 -30t34 -103z" />
    <glyph glyph-name="Zcaron" unicode="&#x17d;" horiz-adv-x="1284" 
d="M1178 0h-1055q-42 0 -56 16t-14 52v57q0 39 8 60.5t33 54.5q718 953 737 977h-499l-6 -113q-4 -51 -54 -51h-110q-27 0 -40 10t-13 37v286q0 27 16 43.5t41 16.5h950q37 0 52.5 -12.5t15.5 -51.5v-73q0 -50 -10.5 -78.5t-49.5 -81.5q-145 -193 -279.5 -372.5t-195 -260
t-117.5 -155.5t-102 -134h582l6 123q3 51 55 51h109q27 0 39 -10t12 -39v-299q0 -53 -55 -53zM879 1896h92q27 0 41 -11.5t14 -29.5q0 -23 -20 -43l-203 -204q-54 -54 -98 -54h-119q-46 0 -90 48l-205 213q-19 19 -19 40q0 41 56 41h96q27 0 45.5 -8.5t42.5 -29.5l139 -121
l140 121q23 21 41.5 29.5t46.5 8.5z" />
    <glyph glyph-name="zcaron" unicode="&#x17e;" horiz-adv-x="1026" 
d="M928 0h-819q-60 0 -60 61v64q0 30 8 48t31 46q471 564 487 582h-292l-4 -80q-1 -28 -14.5 -38.5t-39.5 -10.5h-92q-55 0 -55 49v254q0 53 49 53h762q29 0 42 -12t13 -43v-74q0 -35 -10.5 -57t-44.5 -64q-425 -504 -467 -551h350l8 82q3 29 15.5 39t40.5 10h92
q53 0 53 -49q0 -170 -4 -262q0 -47 -49 -47zM709 1563h90q49 0 49 -39q0 -18 -21 -43l-174 -240q-37 -53 -80 -53h-135q-42 0 -76 51l-176 242q-16 22 -16 43q0 39 47 39h94q43 0 74 -39l125 -150l123 150q31 39 76 39z" />
    <glyph glyph-name="longs" unicode="&#x17f;" horiz-adv-x="671" 
d="M569 0h-450q-56 0 -56 53v121q0 51 58 51h65v959q0 203 93 286q51 44 115.5 63t178.5 19q111 0 150 -16q35 -14 35 -55q0 -40 -15 -121q-6 -39 -47 -39q-6 0 -40 4t-56 4q-85 0 -111 -41q-30 -38 -30 -143v-920h108q58 0 58 -55v-121q0 -29 -13 -39t-43 -10z" />
    <glyph glyph-name="florin" unicode="&#x192;" horiz-adv-x="1140" 
d="M602 131q-19 -220 -110 -295q-53 -44 -121 -64t-185 -20q-94 0 -147 17q-35 14 -35 55q0 51 14 123q9 39 52 39q7 0 42 -3t56 -3q89 0 115 38q35 47 43 150l49 543h-156q-47 0 -47 39v86q0 43 47 43h170l14 163q19 207 113 289q51 42 121.5 62t183.5 20q61 0 136.5 -7.5
t103.5 -16.5q35 -14 35 -58v-250q0 -47 -54 -47h-94q-48 0 -51 49l-8 111q-32 4 -55 4q-81 0 -113 -43q-32 -37 -41 -145l-12 -131h202q52 0 52 -43v-86q0 -39 -52 -39h-217z" />
    <glyph glyph-name="Aringacute" unicode="&#x1fa;" horiz-adv-x="1386" 
d="M870 1550q0 -71 -36 -116q17 -13 26 -41l416 -1166h47q57 0 57 -55v-123q0 -28 -12.5 -38.5t-40.5 -10.5h-428q-53 0 -53 55v119q0 53 55 53h86l-74 205h-440l-72 -205h91q57 0 57 -55v-123q0 -29 -12.5 -39t-42.5 -10h-433q-55 0 -55 55v119q0 53 60 53h45l417 1166
q9 28 29 41q-35 44 -35 116q0 85 48 132t128 47t126 -47t46 -132zM545 653h303q-112 325 -152 467q-42 -149 -151 -467zM750 1792q-38 -25 -76 -25h-76q-18 0 -28.5 10t-10.5 23q0 24 21 41l188 158q36 31 80 31h133q43 0 43 -33q0 -31 -29 -47zM791 1554q0 50 -26 75.5
t-71 25.5q-42 0 -68 -26.5t-26 -76.5q0 -49 26.5 -76.5t69.5 -27.5q45 0 70 27.5t25 78.5z" />
    <glyph glyph-name="aringacute" unicode="&#x1fb;" horiz-adv-x="1159" 
d="M1044 0h-280q-25 0 -39 12.5t-16 34.5l-2 41q-89 -108 -273 -108q-352 0 -352 333q0 91 29 151.5t92 100.5q97 66 313 66q109 0 180 -8v51q0 58 -12 88q-11 30 -50 44.5t-124 14.5q-95 0 -201 -16q-57 -10 -73 -10q-37 0 -48 41q-14 68 -14 118t45 62q144 41 334 41
q146 0 224 -19t120 -63q39 -40 54.5 -100.5t15.5 -155.5v-494h75q29 0 42.5 -13t13.5 -42v-121q0 -29 -12 -39t-42 -10zM696 444q-72 7 -143 7q-120 0 -172 -37q-39 -27 -39 -95q0 -64 36 -98.5t126 -34.5q104 0 158 43q19 11 26 33q8 21 8 68v114zM778 1372
q0 -95 -56 -146.5t-149 -51.5q-91 0 -144.5 51.5t-53.5 146.5q0 96 56 150.5t149 54.5t145.5 -54.5t52.5 -150.5zM690 1376q0 61 -30 92t-85 31q-53 0 -84.5 -32t-31.5 -93q0 -59 31.5 -91t87.5 -32q54 0 83 32t29 93zM651 1675q-37 -37 -84 -37h-73q-50 0 -50 37
q0 27 17 47l176 228q30 43 80 43h131q24 0 36.5 -10.5t12.5 -26.5q0 -23 -23 -49z" />
    <glyph glyph-name="AEacute" unicode="&#x1fc;" horiz-adv-x="2052" 
d="M530 0h-475q-51 0 -51 53v121q0 53 57 53h82l625 992h-90q-53 0 -53 55v115q0 57 59 57h1217q51 0 51 -53v-293q0 -28 -12 -37.5t-39 -9.5h-113q-51 0 -55 51l-7 113h-380v-353h411q30 0 42.5 -11.5t12.5 -41.5v-131q0 -47 -55 -47h-414v-406h418l13 121q3 51 55 51h110
q27 0 40.5 -10t13.5 -37q0 -211 -4 -305q0 -47 -54 -47h-948q-53 0 -53 55v119q0 26 12 39.5t43 13.5h72v209h-459l-135 -209h61q58 0 58 -55v-123q0 -29 -13 -39t-43 -10zM731 659h330v541q-87 -157 -330 -541zM1343 1581q-47 -27 -88 -27h-118q-20 0 -31.5 9.5t-11.5 21.5
q0 25 28 51l240 201q43 37 92 37h180q23 0 36 -10t13 -23q0 -34 -32 -53z" />
    <glyph glyph-name="aeacute" unicode="&#x1fd;" horiz-adv-x="1699" 
d="M973 449q3 -141 63 -194.5t181 -53.5q151 0 268 37q23 10 53 10q31 0 41 -33q27 -83 27 -121q0 -36 -35 -53q-63 -33 -171 -50.5t-210 -17.5q-141 0 -228 31t-141 96q-130 -120 -375 -120q-84 0 -148 17.5t-104 47.5t-64.5 74t-34 91t-9.5 105q0 180 117 252
q112 64 329 64q124 0 179 -4v51q0 43 -13 84q-11 30 -50 44.5t-124 14.5q-112 0 -221 -16q-58 -10 -74 -10q-34 0 -45 41q-14 51 -14 120q0 48 45 60q135 41 344 41q133 0 213 -28t109 -99q41 59 129 93t180 34q82 0 146 -13t109.5 -35t77.5 -60t51.5 -78.5t30 -100t14 -116
t3.5 -134.5q0 -46 -23 -61q-13 -10 -47 -10h-579zM711 444q-75 7 -142 7q-136 0 -186 -35q-37 -29 -37 -92q0 -67 37.5 -102.5t128.5 -35.5q65 0 132 16t95 44q-28 73 -28 198zM977 629h395q2 12 2 35q0 100 -39 150t-145 50q-113 0 -162 -57.5t-51 -177.5zM963 1225
q-37 -37 -84 -37h-101q-49 0 -49 37q0 22 19 47l186 239q19 24 36.5 34.5t43.5 10.5h157q52 0 52 -38q0 -22 -23 -48z" />
    <glyph glyph-name="Oslashacute" unicode="&#x1fe;" horiz-adv-x="1439" 
d="M219 -41q-13 -20 -31 -20q-16 0 -67 38q-15 12 -15 25t15 33l94 131q-119 174 -119 565q0 179 31.5 311.5t85.5 214t136.5 131t172 67.5t205.5 18q258 0 385 -74l84 114q13 19 31 19q13 0 26 -10q54 -37 54 -54q0 -12 -13 -28l-88 -123q133 -165 133 -584
q0 -180 -25 -310t-72.5 -217t-125.5 -138.5t-175.5 -73t-231.5 -21.5q-272 0 -406 101zM1047 729q0 215 -33 324l-547 -752q39 -55 99 -76.5t149 -21.5q68 0 115.5 11.5t91 44t69.5 90.5t41 152.5t15 227.5zM387 731q0 -179 25 -295l536 740q-67 67 -229 67
q-85 0 -142.5 -21.5t-102.5 -77t-66 -157.5t-21 -256zM791 1581q-47 -27 -89 -27h-118q-20 0 -31.5 9.5t-11.5 21.5q0 25 28 51l240 201q43 37 92 37h180q23 0 36 -10t13 -23q0 -34 -32 -53z" />
    <glyph glyph-name="oslashacute" unicode="&#x1ff;" horiz-adv-x="1153" 
d="M662 1225q-37 -37 -84 -37h-101q-49 0 -49 37q0 23 18 47l187 239q19 24 36.5 34.5t43.5 10.5h157q52 0 52 -38q0 -22 -23 -48zM217 -66q-16 -16 -29 -16q-15 0 -59 33q-14 11 -14 22q0 12 14 31l66 90q-111 123 -111 422q0 111 16.5 196.5t49.5 144.5t75.5 98.5
t101.5 61.5t120.5 31t138.5 9q180 0 276 -43l80 110q14 17 27 17q11 0 26 -11q45 -30 45 -47q0 -15 -8 -26l-78 -107q117 -120 117 -428q0 -162 -30 -269.5t-95 -169t-154 -86t-221 -24.5q-181 0 -288 52zM797 512q0 123 -19 197l-346 -478q43 -36 143 -36q60 0 98.5 12
t68 46t42.5 97t13 162zM360 518q0 -106 15 -174l336 463q-47 24 -129 24q-60 0 -99.5 -14t-68 -49t-41.5 -96t-13 -154z" />
    <glyph glyph-name="uni0218" unicode="&#x218;" horiz-adv-x="1200" 
d="M754 834q200 -50 275 -136t75 -272q0 -107 -27 -187t-88.5 -141.5t-168.5 -93t-259 -31.5q-263 0 -426 62q-25 9 -37.5 24.5t-13.5 42.5q-8 215 -8 267q0 55 53 55h113q28 0 40 -12.5t15 -40.5l14 -133q103 -29 258 -29q77 0 128 15t74.5 43t31.5 56t8 66t-6 63t-26 50
t-59.5 43t-103.5 33l-176 40q-169 41 -249 137.5t-80 276.5q0 103 27.5 181t87.5 138t163.5 91t247.5 31q227 0 369 -46q47 -14 47 -67v-273q0 -28 -13 -38.5t-39 -10.5h-112q-55 0 -58 54l-8 127q-107 16 -207 16q-122 0 -168.5 -45.5t-46.5 -130.5q0 -67 35 -111t142 -71z
M627 -131q33 0 46 -16.5t13 -51.5q0 -92 -30 -192t-97 -176q-31 -39 -63 -39t-72 22q-31 17 -31 45q0 16 17 56q29 58 42 119t13 151q0 82 70 82h92z" />
    <glyph glyph-name="uni0219" unicode="&#x219;" horiz-adv-x="966" 
d="M862 745q0 -28 -13 -38.5t-40 -10.5h-102q-30 0 -42 11.5t-14 37.5l-6 86q-67 9 -127 9q-84 0 -116.5 -25t-32.5 -72q0 -41 22.5 -63t100.5 -41l139 -35q101 -25 156.5 -59.5t82.5 -93.5t27 -154q0 -324 -424 -324q-235 0 -356 50q-19 8 -28.5 21.5t-10.5 39.5
q-2 41 -2 213q0 53 53 53h98q32 0 43.5 -12.5t14.5 -42.5l8 -80q85 -25 182 -25q88 0 120 27t32 72q0 37 -24 62t-97 42l-141 33q-89 20 -144.5 52t-88 94.5t-32.5 158.5q0 152 101.5 238t318.5 86q197 0 299 -31q43 -12 43 -59v-220zM528 -131q33 0 46.5 -16.5t13.5 -51.5
q0 -92 -30 -192t-97 -176q-31 -39 -64 -39q-31 0 -71 22q-31 17 -31 45q0 19 16 56q29 59 42.5 119.5t13.5 150.5q0 82 69 82h92z" />
    <glyph glyph-name="uni021A" unicode="&#x21a;" horiz-adv-x="1267" 
d="M844 0h-447q-55 0 -55 55v119q0 53 57 53h78v990h-207l-6 -113q-4 -51 -55 -51h-107q-28 0 -40.5 9.5t-12.5 37.5v291q0 55 55 55h1033q29 0 43 -12.5t14 -42.5v-291q0 -27 -13 -37t-40 -10h-111q-27 0 -38 13.5t-13 37.5l-8 113h-207v-990h78q57 0 57 -55v-123
q0 -29 -12.5 -39t-42.5 -10zM676 -131q33 0 46 -16.5t13 -51.5q0 -92 -30 -192t-97 -176q-31 -39 -63 -39t-72 22q-31 17 -31 45q0 16 17 56q29 58 42 119t13 151q0 82 70 82h92z" />
    <glyph glyph-name="uni021B" unicode="&#x21b;" horiz-adv-x="712" 
d="M449 801v-418q0 -108 18 -145t78 -37q20 0 57 3t41 3q36 0 45 -41q8 -52 8 -111q0 -47 -49 -57q-82 -16 -180 -16q-172 0 -238 86q-57 71 -57 243v490h-94q-47 0 -47 49v121q0 24 15 40.5t42 16.5h90q2 76 8 213q3 64 56 64h157q47 0 47 -66v-211h170q30 0 43 -10.5
t13 -34.5v-135q0 -47 -51 -47h-172zM449 -131q33 0 46 -16.5t13 -51.5q0 -92 -30 -192t-97 -176q-31 -39 -64 -39q-31 0 -71 22q-31 17 -31 45q0 19 16 56q29 59 42.5 119.5t13.5 150.5q0 82 69 82h93z" />
    <glyph glyph-name="circumflex" unicode="&#x2c6;" horiz-adv-x="403" 
d="M4 1182h-90q-49 0 -49 39q0 22 18 43l174 239q21 26 38.5 39.5t41.5 13.5h135q40 0 78 -51l174 -241q19 -27 19 -43q0 -39 -49 -39h-93q-44 0 -73 39l-127 149l-123 -149q-28 -39 -74 -39z" />
    <glyph glyph-name="caron" unicode="&#x2c7;" horiz-adv-x="403" 
d="M403 1563h91q49 0 49 -39q0 -18 -21 -43l-174 -240q-37 -53 -80 -53h-135q-42 0 -76 51l-176 242q-16 22 -16 43q0 39 47 39h94q43 0 74 -39l125 -150l123 150q31 39 75 39z" />
    <glyph glyph-name="breve" unicode="&#x2d8;" horiz-adv-x="403" 
d="M479 1516q25 0 34 -12t9 -36q0 -48 -12 -92q-29 -99 -101 -153t-210 -54q-133 0 -209 58t-96 151q-7 35 -7 82q0 56 50 56h63q26 0 40.5 -10.5t18.5 -37.5q10 -60 40.5 -90t103.5 -30q78 0 107.5 28.5t43.5 89.5q7 27 20.5 38.5t37.5 11.5h67z" />
    <glyph glyph-name="dotaccent" unicode="&#x2d9;" horiz-adv-x="403" 
d="M330 1348q0 -73 -33 -104.5t-98 -31.5q-59 0 -92 30.5t-33 103.5q0 135 125 135q64 0 97.5 -30t33.5 -103z" />
    <glyph glyph-name="ring" unicode="&#x2da;" horiz-adv-x="403" 
d="M403 1372q0 -95 -56.5 -146.5t-149.5 -51.5q-90 0 -143.5 51.5t-53.5 146.5q0 96 55.5 150.5t147.5 54.5q93 0 146.5 -54.5t53.5 -150.5zM313 1376q0 59 -29.5 90t-84.5 31q-51 0 -83 -31.5t-32 -91.5q0 -58 31 -89.5t86 -31.5q54 0 83 31.5t29 91.5z" />
    <glyph glyph-name="ogonek" unicode="&#x2db;" horiz-adv-x="403" 
d="M406 16q-40 -28 -51.5 -36t-42 -30.5t-39.5 -31.5t-29.5 -28.5t-26.5 -31.5t-16 -30.5t-12.5 -36.5t-2.5 -39q0 -88 88 -88q20 0 53.5 4t37.5 4q16 0 26 -8t17 -31q8 -36 8 -69q0 -36 -45 -47q-55 -17 -135 -17q-129 0 -187.5 55t-58.5 162q0 61 18 108.5t55.5 82.5
t75 58t94.5 50h173z" />
    <glyph glyph-name="tilde" unicode="&#x2dc;" horiz-adv-x="403" 
d="M-39 1196h-63q-48 0 -48 43q0 15 15 53q30 94 79.5 149.5t116.5 55.5q59 0 154 -53q70 -37 111 -37q24 0 37 10.5t30 46.5q16 43 62 43h59q47 0 47 -45q0 -8 -20 -76q-28 -87 -76.5 -134.5t-112.5 -47.5q-72 0 -168 53q-70 37 -94 37t-40 -10.5t-30 -40.5
q-12 -25 -24 -36t-35 -11z" />
    <glyph glyph-name="hungarumlaut" unicode="&#x2dd;" horiz-adv-x="403" 
d="M12 1225q-32 -37 -84 -37h-78q-47 0 -47 39q0 21 17 45l170 239q29 45 78 45h120q52 0 52 -36q0 -24 -23 -54zM371 1225q-32 -37 -82 -37h-76q-49 0 -49 39q0 18 18 47l170 237q31 45 78 45h119q49 0 49 -36q0 -24 -23 -54z" />
    <glyph glyph-name="uni0394" unicode="&#x394;" horiz-adv-x="1464" 
d="M1419 94q8 -21 8 -41q0 -53 -63 -53h-1266q-61 0 -61 51q0 11 8 39l506 1233q14 34 31 47.5t49 13.5h217q33 0 49 -13.5t29 -47.5zM737 1096q-10 -31 -22.5 -64.5t-26 -68t-42 -105.5t-55.5 -137t-84 -206t-110 -271h664q-63 163 -123 317t-87.5 224.5t-53 137.5t-38 102
t-22.5 71z" />
    <glyph glyph-name="uni03A9" unicode="&#x3a9;" horiz-adv-x="1529" 
d="M698 63q0 -37 -17.5 -50t-57.5 -13h-426q-37 0 -50.5 11t-13.5 44v119q0 37 14.5 51.5t47.5 14.5h305q-89 34 -151.5 76t-111.5 105.5t-72.5 154.5t-23.5 212q0 315 152.5 469t480.5 154q173 0 291.5 -39t188 -119.5t99 -190.5t29.5 -265q0 -224 -86.5 -354t-265.5 -203
h299q37 0 51.5 -14t14.5 -52v-111q0 -38 -11.5 -50.5t-48.5 -12.5h-428q-39 0 -57.5 13.5t-18.5 49.5v193q0 33 16 59t40 37q99 48 149.5 145t50.5 263q0 121 -18 200.5t-58.5 125.5t-97.5 64.5t-143 18.5q-175 0 -252.5 -94.5t-77.5 -322.5q0 -158 48.5 -254.5
t154.5 -147.5q24 -11 39.5 -37t15.5 -59v-191z" />
    <glyph glyph-name="uni03BC" unicode="&#x3bc;" horiz-adv-x="1243" 
d="M436 25v-385q0 -58 -53 -58h-170q-51 0 -51 58v1333q0 57 51 57h172q51 0 51 -57v-602q0 -60 13 -101q11 -34 43 -48.5t96 -14.5q99 0 166 26q32 9 45 27q12 15 12 59v654q0 26 14 41.5t41 15.5h168q51 0 51 -57v-907q0 -68 -61 -68h-150q-31 0 -43 10.5t-14 36.5l-4 29
q-68 -78 -246 -78q-93 0 -131 29z" />
    <glyph glyph-name="pi" unicode="&#x3c0;" horiz-adv-x="1292" 
d="M498 66q0 -38 -13.5 -52t-48.5 -14h-145q-37 0 -50.5 16t-13.5 50v731h-61q-36 0 -50 13t-14 46v107q0 34 16 49.5t52 15.5h977q38 0 55 -15.5t17 -49.5v-105q0 -33 -15.5 -47t-48.5 -14h-59v-412q0 -140 12 -219q10 -67 10 -105q0 -33 -14 -47t-47 -14h-144
q-32 0 -45 13.5t-18 43.5q-23 121 -23 324v416h-329v-731z" />
    <glyph glyph-name="Wgrave" unicode="&#x1e80;" horiz-adv-x="2025" 
d="M692 -2h-168q-29 0 -49 17.5t-26 45.5l-289 1158h-66q-55 0 -55 55v119q0 53 57 53h436q30 0 44 -12.5t14 -42.5v-123q0 -29 -12.5 -39t-42.5 -10h-74q42 -171 75.5 -317t48.5 -216t34 -163.5t24 -116.5q46 218 236 931q10 37 25 54.5t48 17.5h152q54 0 72 -66
q183 -635 241 -937q67 358 174 813h-75q-54 0 -54 55v119q0 26 13 39.5t45 13.5h409q30 0 43 -12.5t13 -42.5v-123q0 -29 -12 -39t-42 -10h-63l-291 -1162q-13 -59 -74 -59h-166q-60 0 -75 61q-94 359 -164.5 640t-73.5 294q-70 -287 -256 -936q-16 -59 -76 -59zM920 1581
l-306 207q-32 19 -32 53q0 13 13 23t36 10h180q49 0 92 -37l240 -201q28 -26 28 -51q0 -12 -11.5 -21.5t-31.5 -9.5h-118q-40 0 -90 27z" />
    <glyph glyph-name="wgrave" unicode="&#x1e81;" horiz-adv-x="1654" 
d="M1567 803h-45l-213 -754q-12 -51 -70 -51h-154q-52 0 -69 53q-57 174 -97 300t-62.5 198.5t-27.5 89.5q-56 -191 -190 -590q-16 -51 -74 -51h-147q-58 0 -72 53l-213 752h-45q-55 0 -55 51v121q0 53 57 53h363q57 0 57 -55v-121q0 -29 -13 -39t-42 -10h-39
q43 -161 112 -475q45 173 179 598q22 69 75 69h113q50 0 70 -65q161 -485 194 -602q12 74 103 475h-50q-53 0 -53 51v121q0 26 12 39.5t43 13.5h353q29 0 42 -13t13 -42v-121q0 -29 -12.5 -39t-42.5 -10zM748 1225l-238 245q-25 25 -25 48q0 17 14 27.5t38 10.5h159
q47 0 80 -45l187 -239q18 -24 18 -47q0 -37 -49 -37h-94q-53 0 -90 37z" />
    <glyph glyph-name="Wacute" unicode="&#x1e82;" horiz-adv-x="2025" 
d="M692 -2h-168q-29 0 -49 17.5t-26 45.5l-289 1158h-66q-55 0 -55 55v119q0 53 57 53h436q30 0 44 -12.5t14 -42.5v-123q0 -29 -12.5 -39t-42.5 -10h-74q42 -171 75.5 -317t48.5 -216t34 -163.5t24 -116.5q46 218 236 931q10 37 25 54.5t48 17.5h152q54 0 72 -66
q183 -635 241 -937q67 358 174 813h-75q-54 0 -54 55v119q0 26 13 39.5t45 13.5h409q30 0 43 -12.5t13 -42.5v-123q0 -29 -12 -39t-42 -10h-63l-291 -1162q-13 -59 -74 -59h-166q-60 0 -75 61q-94 359 -164.5 640t-73.5 294q-70 -287 -256 -936q-16 -59 -76 -59zM1077 1581
q-47 -27 -88 -27h-119q-20 0 -31.5 9.5t-11.5 21.5q0 24 29 51l240 201q43 37 92 37h180q23 0 36 -10t13 -23q0 -33 -33 -53z" />
    <glyph glyph-name="wacute" unicode="&#x1e83;" horiz-adv-x="1654" 
d="M918 1225q-37 -37 -84 -37h-101q-49 0 -49 37q0 23 18 47l187 239q19 24 36.5 34.5t43.5 10.5h157q52 0 52 -38q0 -22 -23 -48zM1567 803h-45l-213 -754q-12 -51 -70 -51h-154q-52 0 -69 53q-57 174 -97 300t-62.5 198.5t-27.5 89.5q-56 -191 -190 -590q-16 -51 -74 -51
h-147q-58 0 -72 53l-213 752h-45q-55 0 -55 51v121q0 53 57 53h363q57 0 57 -55v-121q0 -29 -13 -39t-42 -10h-39q43 -161 112 -475q45 173 179 598q22 69 75 69h113q50 0 70 -65q161 -485 194 -602q12 74 103 475h-50q-53 0 -53 51v121q0 26 12 39.5t43 13.5h353
q29 0 42 -13t13 -42v-121q0 -29 -12.5 -39t-42.5 -10z" />
    <glyph glyph-name="Wdieresis" unicode="&#x1e84;" horiz-adv-x="2025" 
d="M692 -2h-168q-29 0 -49 17.5t-26 45.5l-289 1158h-66q-55 0 -55 55v119q0 53 57 53h436q30 0 44 -12.5t14 -42.5v-123q0 -29 -12.5 -39t-42.5 -10h-74q42 -171 75.5 -317t48.5 -216t34 -163.5t24 -116.5q46 218 236 931q10 37 25 54.5t48 17.5h152q54 0 72 -66
q183 -635 241 -937q67 358 174 813h-75q-54 0 -54 55v119q0 26 13 39.5t45 13.5h409q30 0 43 -12.5t13 -42.5v-123q0 -29 -12 -39t-42 -10h-63l-291 -1162q-13 -59 -74 -59h-166q-60 0 -75 61q-94 359 -164.5 640t-73.5 294q-70 -287 -256 -936q-16 -59 -76 -59zM948 1698
q0 -71 -32.5 -103t-96.5 -32q-127 0 -127 133q0 137 127 137q63 0 96 -30.5t33 -104.5zM1356 1698q0 -72 -32 -103.5t-97 -31.5q-127 0 -127 133q0 137 127 137q63 0 96 -30.5t33 -104.5z" />
    <glyph glyph-name="wdieresis" unicode="&#x1e85;" horiz-adv-x="1654" 
d="M1567 803h-45l-213 -754q-12 -51 -70 -51h-154q-52 0 -69 53q-57 174 -97 300t-62.5 198.5t-27.5 89.5q-56 -191 -190 -590q-16 -51 -74 -51h-147q-58 0 -72 53l-213 752h-45q-55 0 -55 51v121q0 53 57 53h363q57 0 57 -55v-121q0 -29 -13 -39t-42 -10h-39
q43 -161 112 -475q45 173 179 598q22 69 75 69h113q50 0 70 -65q161 -485 194 -602q12 74 103 475h-50q-53 0 -53 51v121q0 26 12 39.5t43 13.5h353q29 0 42 -13t13 -42v-121q0 -29 -12.5 -39t-42.5 -10zM768 1348q0 -73 -32.5 -104.5t-96.5 -31.5q-61 0 -94 30.5t-33 103.5
q0 135 127 135q63 0 96 -30t33 -103zM1149 1348q0 -73 -32.5 -104.5t-96.5 -31.5q-61 0 -94 30.5t-33 103.5q0 135 127 135q63 0 96 -30t33 -103z" />
    </font>
</defs>
</svg>
