<?xml version="1.0" standalone="no"?>
<!DOCTYPE svg PUBLIC "-//W3C//DTD SVG 1.1//EN" "http://www.w3.org/Graphics/SVG/1.1/DTD/svg11.dtd" >
<svg xmlns="http://www.w3.org/2000/svg" xmlns:xlink="http://www.w3.org/1999/xlink" version="1.1">
<metadata>
Created by FontForge 20170731 at Thu Jun 23 20:53:34 2022
 By Aleksey,,,
Copyright (c) 2014 by Dieter Hofrichter. All rights reserved.
</metadata>
<defs>
<font id="OrgonSlab-ExtraLightIt" horiz-adv-x="776" >
  <font-face 
    font-family="Orgon Slab ExtraLight"
    font-weight="200"
    font-style="italic"
    font-stretch="normal"
    units-per-em="2048"
    panose-1="2 0 5 3 0 0 0 9 0 3"
    ascent="1536"
    descent="-512"
    x-height="1006"
    cap-height="1446"
    bbox="-377 -547 2443 2007"
    underline-thickness="102"
    underline-position="-307"
    unicode-range="U+0020-FB04"
  />
<missing-glyph horiz-adv-x="1026" 
d="M0 0v1448h1026v-1448h-1026zM514 817l348 526h-698zM573 725l353 -526v1052zM164 102h698l-348 529zM102 1251v-1052l351 526z" />
    <glyph glyph-name="f_f" unicode="ff" horiz-adv-x="1304" 
d="M434 0h-387q-33 0 -33 23q0 3 1.5 9t4.5 18.5t5 23.5q4 17 14 22.5t31 5.5h102l172 801h-113q-28 0 -28 23q0 19 10 49q5 18 13 24.5t28 6.5h113l28 141q25 117 55.5 182.5t79.5 104.5q86 73 242 73q84 0 125 -12q16 -5 16 -27q0 -24 -10 -51q-8 -22 -33 -22
q-2 0 -42.5 4t-71.5 4q-118 0 -168 -62q-25 -28 -42 -72.5t-36 -129.5l-29 -133h535l39 182q25 116 55.5 181t79.5 106q89 73 242 73q84 0 124 -12q17 -6 17 -27q0 -11 -10 -51q-8 -22 -33 -22q-3 0 -43.5 4t-71.5 4q-117 0 -170 -62q-45 -54 -78 -206l-34 -170h194
q29 0 29 -27q0 -10 -13 -51q-9 -25 -38 -25h-195l-172 -801h166q33 0 33 -22q0 -17 -11 -51q-4 -18 -13 -23.5t-30 -5.5h-387q-30 0 -30 23q0 15 10 51q4 17 13 22.5t30 5.5h104l170 801h-534l-172 -801h166q32 0 32 -22q0 -18 -8 -51q-6 -18 -14.5 -23.5t-28.5 -5.5z" />
    <glyph glyph-name="fi" unicode="fi" horiz-adv-x="1261" 
d="M434 0h-387q-33 0 -33 23q0 3 1.5 9t4.5 18.5t5 23.5q4 17 14 22.5t31 5.5h102l172 801h-113q-28 0 -28 23q0 19 10 49q5 18 13 24.5t28 6.5h111l38 182q24 113 57 179t83 108q89 73 252 73q91 0 145 -16q16 -10 16 -27q0 -19 -12 -51q-6 -22 -33 -22q-7 0 -52.5 6
t-80.5 6q-128 0 -178 -62q-51 -57 -84 -208l-35 -168h613q32 0 32 -27q0 -13 -6 -43l-180 -834h125q33 0 33 -22q0 -5 -11 -51q-4 -18 -13 -23.5t-30 -5.5h-346q-30 0 -30 23q0 10 8 51q4 17 14 22.5t31 5.5h102l172 801h-536l-172 -801h166q32 0 32 -22q0 -18 -8 -51
q-6 -18 -14.5 -23.5t-28.5 -5.5zM1212 1382q0 -61 -32 -90q-20 -20 -62 -20q-74 0 -74 61t31 90q26 23 66 23q71 0 71 -64z" />
    <glyph glyph-name="fl" unicode="fl" horiz-adv-x="1232" 
d="M434 0h-387q-33 0 -33 23q0 3 1.5 9t4.5 18.5t5 23.5q4 17 14 22.5t31 5.5h102l172 801h-113q-28 0 -28 23q0 19 10 49q5 18 13 24.5t28 6.5h113l36 180q24 113 56.5 178t83.5 106q92 78 291 78q266 0 374 -24q27 -4 27 -33q0 -5 -10 -55l-287 -1334h125q33 0 33 -22
q0 -14 -9 -51q-6 -18 -14 -23.5t-29 -5.5h-346q-32 0 -32 23q0 4 1 9t4 17.5t5 24.5q4 17 14 22.5t31 5.5h100l289 1330q-98 14 -293 14q-159 0 -217 -68q-50 -56 -82 -202l-37 -170h199q29 0 29 -27q0 -14 -11 -51q-9 -25 -39 -25h-200l-172 -801h166q32 0 32 -22
q0 -18 -8 -51q-6 -18 -14.5 -23.5t-28.5 -5.5z" />
    <glyph glyph-name="f_f_i" unicode="ffi" horiz-adv-x="1912" 
d="M434 0h-387q-33 0 -33 23q0 3 1.5 9t4.5 18.5t5 23.5q4 17 14 22.5t31 5.5h102l172 801h-113q-28 0 -28 23q0 19 10 49q5 18 13 24.5t28 6.5h113l28 141q25 117 55.5 182.5t79.5 104.5q86 73 242 73q84 0 125 -12q16 -8 16 -27q0 -24 -10 -51q-8 -22 -33 -22
q-2 0 -42.5 4t-71.5 4q-118 0 -168 -62q-44 -49 -78 -206l-29 -129h535l39 182q24 114 56.5 179.5t82.5 107.5q89 73 252 73q80 0 127 -14q16 -8 16 -27q0 -24 -10 -51q-9 -24 -33 -24q-2 0 -45 6t-74 6q-125 0 -178 -62q-50 -60 -82 -206l-34 -170h610q35 0 35 -29
q0 -3 -6 -33l-181 -842h125q33 0 33 -22q0 -9 -10 -51q-4 -18 -13 -23.5t-30 -5.5h-346q-33 0 -33 23q0 4 1 9t4 17.5t5 24.5q4 17 14 22.5t31 5.5h103l172 801h-537l-172 -801h166q33 0 33 -22q0 -17 -11 -51q-4 -18 -13 -23.5t-30 -5.5h-387q-30 0 -30 23q0 15 10 51
q4 17 13 22.5t30 5.5h104l170 801h-534l-172 -801h166q32 0 32 -22q0 -18 -8 -51q-6 -18 -14.5 -23.5t-28.5 -5.5zM1864 1382q0 -58 -35 -90q-20 -20 -62 -20q-71 0 -71 61q0 60 30 90q26 23 66 23q72 0 72 -64z" />
    <glyph glyph-name="f_f_l" unicode="ffl" horiz-adv-x="1882" 
d="M434 0h-387q-33 0 -33 23q0 3 1.5 9t4.5 18.5t5 23.5q4 17 14 22.5t31 5.5h102l172 801h-113q-28 0 -28 23q0 19 10 49q5 18 13 24.5t28 6.5h113l28 141q25 117 55.5 182.5t79.5 104.5q86 73 242 73q84 0 125 -12q16 -8 16 -27q0 -24 -10 -51q-8 -22 -33 -22
q-2 0 -42.5 4t-71.5 4q-118 0 -168 -62q-44 -49 -78 -206l-27 -129h533l39 180q24 114 56.5 179t82.5 105q92 78 291 78q281 0 375 -24q24 -3 24 -33q0 -19 -8 -55l-287 -1334h125q33 0 33 -22q0 -20 -10 -51q-4 -18 -12.5 -23.5t-28.5 -5.5h-346q-33 0 -33 23q0 12 10 51
q4 17 14 22.5t31 5.5h101l286 1330q-95 14 -293 14q-157 0 -215 -68q-54 -65 -84 -202l-34 -170h196q29 0 29 -27q0 -24 -8 -51q-6 -25 -41 -25h-199l-172 -801h166q33 0 33 -22q0 -17 -11 -51q-4 -18 -13 -23.5t-30 -5.5h-387q-30 0 -30 23q0 15 10 51q4 17 13 22.5t30 5.5
h104l170 801h-534l-172 -801h166q32 0 32 -22q0 -18 -8 -51q-6 -18 -14.5 -23.5t-28.5 -5.5z" />
    <glyph glyph-name="T_h" unicode="Th" horiz-adv-x="2299" 
d="M674 0h-367q-33 0 -33 23q0 4 1.5 10t4.5 19t5 24q4 17 14 22.5t31 5.5h108l264 1233h-350l-35 -149q-7 -33 -34 -33h-45q-17 0 -23 6.5t-6 20.5t39 217q5 28 14 37.5t37 9.5h1212l9 37q6 28 15 38.5t26 10.5h47q34 0 34 -27q0 -11 -6 -41l-120 -563q28 48 96.5 79
t134 40.5t133.5 9.5q254 0 254 -170q0 -57 -23 -172l-126 -586h116q33 0 33 -20q0 -28 -8 -55q-4 -18 -12.5 -22.5t-30.5 -4.5h-193q-35 0 -35 27q0 8 7 43l133 620q16 68 16 125q0 61 -43 85t-131 24q-77 0 -139.5 -12.5t-88 -24.5t-57.5 -31q-27 -14 -47 -45
q-10 -17 -18 -55l-141 -654h124q31 0 31 -22q0 -18 -8 -51q-4 -18 -13 -23.5t-30 -5.5h-346q-33 0 -33 23q0 12 10 51q4 17 14 22.5t31 5.5h103l260 1235h-664l-262 -1233h131q31 0 31 -22q0 -20 -8 -53q-4 -18 -13 -23.5t-30 -5.5z" />
    <glyph glyph-name="Tcaron_h" unicode="&#x164;h" horiz-adv-x="2299" 
d="M674 0h-367q-33 0 -33 23q0 4 1.5 10t4.5 19t5 24q4 17 14 22.5t31 5.5h108l264 1233h-350l-35 -149q-7 -33 -34 -33h-45q-17 0 -23 6.5t-6 20.5t39 217q5 28 14 37.5t37 9.5h1212l9 37q6 28 15 38.5t26 10.5h47q34 0 34 -27q0 -11 -6 -41l-120 -563q28 48 96.5 79
t134 40.5t133.5 9.5q254 0 254 -170q0 -57 -23 -172l-126 -586h116q33 0 33 -20q0 -28 -8 -55q-4 -18 -12.5 -22.5t-30.5 -4.5h-193q-35 0 -35 27q0 8 7 43l133 620q16 68 16 125q0 61 -43 85t-131 24q-77 0 -139.5 -12.5t-88 -24.5t-57.5 -31q-27 -14 -47 -45
q-10 -17 -18 -55l-141 -654h124q31 0 31 -22q0 -18 -8 -51q-4 -18 -13 -23.5t-30 -5.5h-346q-33 0 -33 23q0 12 10 51q4 17 14 22.5t31 5.5h103l260 1235h-664l-262 -1233h131q31 0 31 -22q0 -20 -8 -53q-4 -18 -13 -23.5t-30 -5.5zM1063 1851h53q23 0 23 -20q0 -12 -19 -31
l-252 -209q-37 -30 -63 -30h-49q-25 0 -47 26l-181 213q-10 13 -10 27q0 24 33 24h37q24 0 51 -24l158 -148l209 148q36 24 57 24z" />
    <glyph glyph-name="f_b" unicode="fb" horiz-adv-x="1847" 
d="M434 0h-387q-33 0 -33 23q0 3 1.5 9t4.5 18.5t5 23.5q4 17 14 22.5t31 5.5h102l172 801h-113q-28 0 -28 23q0 19 10 49q5 18 13 24.5t28 6.5h111l41 180q25 115 56 179.5t81 104.5q92 78 291 78q264 0 370 -24q29 -8 29 -33q0 -4 -1 -11t-2.5 -16t-2.5 -14l-115 -543
q49 63 141 93t201 30q313 0 313 -305q0 -144 -45 -313.5t-129 -268.5q-73 -86 -173 -119.5t-249 -33.5q-64 0 -140 20t-107 49l-13 -39q-6 -15 -14.5 -20.5t-26.5 -5.5h-34q-27 0 -27 26q0 14 6 35l293 1377q-98 14 -291 14q-159 0 -217 -68q-50 -56 -82 -202l-37 -170h199
q29 0 29 -27q0 -14 -11 -51q-9 -25 -39 -25h-200l-172 -801h166q32 0 32 -22q0 -18 -8 -51q-6 -18 -14.5 -23.5t-28.5 -5.5zM950 154q24 -22 96 -42t132 -20q121 0 197.5 27.5t129.5 87.5q64 75 102 225.5t38 267.5q0 110 -57 167t-185 57q-148 0 -266 -72q-24 -13 -41 -47
q-11 -22 -17 -49z" />
    <glyph glyph-name="f_f_b" unicode="ffb" horiz-adv-x="2496" 
d="M434 0h-387q-33 0 -33 23q0 3 1.5 9t4.5 18.5t5 23.5q4 17 14 22.5t31 5.5h102l172 801h-113q-28 0 -28 23q0 19 10 49q5 18 13 24.5t28 6.5h111l32 143q25 117 54.5 181.5t78.5 103.5q86 73 242 73q84 0 125 -12q16 -8 16 -27q0 -24 -10 -51q-8 -22 -33 -22
q-2 0 -42.5 4t-71.5 4q-118 0 -168 -62q-44 -49 -78 -206l-29 -129h535l39 180q24 114 56.5 179t82.5 105q92 78 291 78q276 0 370 -24q27 -4 27 -33q0 -15 -4 -43l-115 -541q49 64 140.5 93.5t201.5 29.5q314 0 314 -305q0 -144 -45 -313.5t-129 -268.5
q-73 -86 -173 -119.5t-249 -33.5q-64 0 -140.5 20t-107.5 49l-14 -39q-4 -15 -13 -20.5t-26 -5.5h-35q-27 0 -27 26q0 14 6 35l293 1377q-98 14 -293 14q-157 0 -215 -68q-54 -65 -84 -202l-34 -170h194q29 0 29 -27q0 -10 -13 -51q-9 -25 -38 -25h-195l-172 -801h166
q33 0 33 -22q0 -17 -11 -51q-4 -18 -13 -23.5t-30 -5.5h-387q-30 0 -30 23q0 15 10 51q4 17 13 22.5t30 5.5h104l170 801h-534l-172 -801h166q32 0 32 -22q0 -18 -8 -51q-6 -18 -14.5 -23.5t-28.5 -5.5zM1602 154q24 -22 94.5 -42t132.5 -20q121 0 198 27.5t130 87.5
q64 75 101.5 225t37.5 268q0 110 -57 167t-185 57q-148 0 -266 -72q-24 -13 -41 -47q-9 -18 -16 -49z" />
    <glyph glyph-name="f_f_h" unicode="ffh" horiz-adv-x="2547" 
d="M434 0h-387q-33 0 -33 23q0 3 1.5 9t4.5 18.5t5 23.5q4 17 14 22.5t31 5.5h102l172 801h-113q-28 0 -28 23q0 19 10 49q5 18 13 24.5t28 6.5h113l28 141q25 117 55.5 182.5t79.5 104.5q86 73 242 73q84 0 125 -12q16 -8 16 -27q0 -24 -10 -51q-8 -22 -33 -22
q-2 0 -42.5 4t-71.5 4q-118 0 -168 -62q-44 -49 -78 -206l-29 -129h535l39 180q24 114 56.5 179t82.5 105q92 78 291 78q279 0 373 -24q26 -7 26 -33q0 -19 -8 -55l-113 -535q28 48 96.5 79t134.5 40.5t134 9.5q252 0 252 -170q0 -57 -23 -172l-125 -586h117q33 0 33 -20
q0 -28 -8 -55q-4 -18 -12.5 -22.5t-30.5 -4.5h-193q-35 0 -35 27q0 13 6 43l134 620q14 71 14 125q0 61 -42.5 85t-131.5 24q-76 0 -138 -12.5t-87.5 -24.5t-57.5 -31q-27 -14 -47 -45q-10 -16 -18 -53l-144 -656h125q33 0 33 -22q0 -20 -10 -51q-4 -18 -12.5 -23.5
t-28.5 -5.5h-346q-33 0 -33 23q0 12 10 51q4 17 14 22.5t31 5.5h103l282 1330q-95 14 -293 14q-157 0 -215 -68q-54 -65 -84 -202l-34 -170h194q29 0 29 -27q0 -10 -13 -51q-9 -25 -38 -25h-195l-172 -801h166q33 0 33 -22q0 -17 -11 -51q-4 -18 -13 -23.5t-30 -5.5h-387
q-30 0 -30 23q0 15 10 51q4 17 13 22.5t30 5.5h104l170 801h-534l-172 -801h166q32 0 32 -22q0 -18 -8 -51q-6 -18 -14.5 -23.5t-28.5 -5.5z" />
    <glyph glyph-name="f_f_j" unicode="ffj" horiz-adv-x="1878" 
d="M434 0h-387q-33 0 -33 25q0 3 1.5 9t4.5 17t5 23q4 17 14 22.5t31 5.5h102l172 801h-113q-28 0 -28 23q0 19 10 49q5 18 13 24.5t28 6.5h111l30 139q25 117 55.5 183.5t79.5 105.5q86 73 242 73q93 0 125 -12q16 -5 16 -27q0 -24 -10 -51q-8 -22 -33 -22q-2 0 -42.5 4
t-71.5 4q-118 0 -168 -62q-25 -28 -42 -72.5t-36 -129.5l-29 -133h535l39 182q24 114 56.5 179.5t82.5 107.5q89 73 252 73q80 0 127 -14q16 -6 16 -27q0 -19 -12 -51q-6 -22 -33 -22q-2 0 -44 5t-73 5q-125 0 -178 -62q-50 -60 -82 -206l-34 -170h596q32 0 32 -27
q0 -19 -4 -35l-241 -1122q-23 -104 -50.5 -161.5t-70.5 -92.5q-100 -80 -289 -80q-43 0 -43 31q0 15 8 51q4 15 14 19.5t33 4.5q132 0 191 46q33 25 53 64.5t37 115.5l231 1083h-520l-172 -801h166q33 0 33 -22q0 -15 -11 -49q-4 -18 -13 -24.5t-30 -6.5h-387q-30 0 -30 25
q0 13 10 49q4 17 13 22.5t30 5.5h104l170 801h-534l-172 -801h166q32 0 32 -22q0 -16 -8 -49q-6 -18 -15 -24.5t-28 -6.5zM1849 1382q0 -61 -34 -90q-20 -20 -60 -20q-74 0 -74 61q0 59 31 90q26 23 66 23q71 0 71 -64z" />
    <glyph glyph-name="f_f_k" unicode="ffk" horiz-adv-x="2390" 
d="M2376 903h-92q-116 -123 -210.5 -221.5t-111.5 -116.5q13 -25 74.5 -152t130.5 -266q13 -28 30 -36.5t56 -8.5h61q33 0 33 -22q0 -19 -10 -53q-5 -27 -43 -27h-107q-52 0 -80.5 22t-48.5 64l-182 393q-10 22 -26 28.5t-46 6.5h-123l-90 -412h125q33 0 33 -22
q0 -20 -10 -51q-4 -18 -12.5 -23.5t-28.5 -5.5h-348q-31 0 -31 23q0 12 10 51q4 17 13 22.5t30 5.5h105l282 1332q-102 12 -293 12q-157 0 -215 -68q-54 -65 -84 -202l-34 -170h194q29 0 29 -27q0 -10 -13 -51q-9 -25 -38 -25h-195l-172 -801h166q33 0 33 -22q0 -17 -11 -51
q-4 -18 -13 -23.5t-30 -5.5h-387q-30 0 -30 23q0 15 10 51q4 17 13 22.5t30 5.5h104l170 801h-534l-172 -801h166q32 0 32 -22q0 -18 -8 -51q-6 -18 -14.5 -23.5t-28.5 -5.5h-387q-33 0 -33 23q0 3 1.5 9t4.5 18.5t5 23.5q4 17 14 22.5t31 5.5h102l172 801h-113
q-28 0 -28 23q0 19 10 49q5 18 13 24.5t28 6.5h113l28 141q25 117 55.5 182.5t79.5 104.5q86 73 242 73q84 0 125 -12q16 -8 16 -27q0 -24 -10 -51q-8 -22 -33 -22q-2 0 -42.5 4t-71.5 4q-118 0 -168 -62q-44 -49 -78 -206l-29 -129h535l39 180q24 114 56.5 179t82.5 105
q92 78 291 78q277 0 375 -24q24 -7 24 -33q0 -19 -8 -55l-174 -820h98q67 0 98 33l234 254h-80q-33 0 -33 23q0 4 1.5 9.5l4.5 16.5t5 23q8 31 45 31h319q19 0 26 -5.5t7 -19.5q0 -22 -8 -49q-4 -17 -13.5 -23t-29.5 -6z" />
    <glyph glyph-name="f_h" unicode="fh" horiz-adv-x="1896" 
d="M434 0h-387q-33 0 -33 23q0 3 1.5 9t4.5 18.5t5 23.5q4 17 14 22.5t31 5.5h102l172 801h-113q-28 0 -28 23q0 19 10 49q5 18 13 24.5t28 6.5h113l36 180q24 113 56.5 178t83.5 106q92 78 291 78q261 0 374 -24q27 -4 27 -33q0 -12 -10 -57l-113 -533q28 48 97 79
t134.5 40.5t133.5 9.5q252 0 252 -170q0 -57 -23 -172l-125 -586h117q33 0 33 -20q0 -14 -9 -55q-4 -18 -12.5 -22.5t-30.5 -4.5h-192q-35 0 -35 27q0 13 6 43l133 620q17 72 17 125q0 61 -43.5 85t-132.5 24q-76 0 -138 -12.5t-87.5 -24.5t-57.5 -31q-27 -14 -47 -45
q-11 -19 -19 -53l-141 -656h123q33 0 33 -22q0 -18 -8 -51q-6 -18 -14 -23.5t-29 -5.5h-347q-32 0 -32 23q0 4 1 9t4 17.5t5 24.5q4 17 14 22.5t31 5.5h102l285 1330q-98 14 -293 14q-159 0 -217 -68q-50 -56 -82 -202l-37 -170h199q29 0 29 -27q0 -14 -11 -51
q-9 -25 -39 -25h-200l-172 -801h166q32 0 32 -22q0 -18 -8 -51q-6 -18 -14.5 -23.5t-28.5 -5.5z" />
    <glyph glyph-name="f_j" unicode="fj" horiz-adv-x="1226" 
d="M434 0h-387q-33 0 -33 25q0 3 1.5 9t4.5 17t5 23q4 17 14 22.5t31 5.5h102l172 801h-113q-28 0 -28 23q0 19 10 49q5 18 13 24.5t28 6.5h113l36 182q24 113 57 179t83 108q89 73 252 73q80 0 127 -14q16 -6 16 -27q0 -27 -12 -51q-6 -22 -33 -22q-2 0 -44 5t-73 5
q-126 0 -176 -62q-49 -55 -82 -206l-37 -170h596q33 0 33 -27q0 -23 -4 -39l-242 -1118q-23 -104 -50.5 -161.5t-70.5 -92.5q-97 -80 -288 -80q-43 0 -43 31q0 15 8 51q4 14 15 19t34 5q128 0 190 46q32 26 52 65.5t37 114.5l233 1083h-522l-172 -801h166q32 0 32 -22
q0 -16 -8 -49q-6 -18 -15 -24.5t-28 -6.5zM1198 1382q0 -60 -33 -90q-23 -20 -61 -20q-74 0 -74 61q0 59 31 90q26 23 65 23q72 0 72 -64z" />
    <glyph glyph-name="f_k" unicode="fk" horiz-adv-x="1738" 
d="M1724 903h-92q-116 -123 -210 -221.5t-111 -116.5q4 -9 68 -141t137 -277q13 -28 30 -36.5t56 -8.5h61q33 0 33 -22q0 -8 -10 -53q-5 -27 -44 -27h-106q-52 0 -80.5 22t-48.5 64l-182 393q-10 22 -25.5 28.5t-46.5 6.5h-123l-88 -412h123q33 0 33 -22q0 -18 -8 -51
q-6 -18 -14 -23.5t-29 -5.5h-347q-32 0 -32 23q0 15 10 51q4 17 14 22.5t31 5.5h102l285 1332q-105 12 -293 12q-159 0 -217 -68q-50 -56 -82 -202l-37 -170h199q29 0 29 -27q0 -14 -11 -51q-9 -25 -39 -25h-200l-172 -801h166q32 0 32 -22q0 -18 -8 -51q-6 -18 -14.5 -23.5
t-28.5 -5.5h-387q-33 0 -33 23q0 3 1.5 9t4.5 18.5t5 23.5q4 17 14 22.5t31 5.5h102l172 801h-113q-28 0 -28 23q0 19 10 49q5 18 13 24.5t28 6.5h113l36 180q24 113 56.5 178t83.5 106q92 78 291 78q261 0 374 -24q27 -4 27 -33q0 -12 -10 -57l-174 -818h98q67 0 98 33
l238 254h-82q-31 0 -31 23q0 13 8 49q8 31 45 31h320q33 0 33 -25q0 -3 -1.5 -8.5t-4.5 -18t-5 -22.5q-4 -17 -13.5 -23t-29.5 -6z" />
    <glyph glyph-name="uni0162_h" unicode="&#x162;h" horiz-adv-x="2299" 
d="M489 -135q179 -2 179 -152q0 -116 -67.5 -165.5t-201.5 -49.5q-63 0 -102 13q-21 5 -21 26q0 16 9 43q6 25 32 25q11 0 29 -6q45 -9 70 -9q68 0 101.5 23t33.5 84q0 78 -94 78q-8 0 -25 -1t-20 -1q-33 0 -33 34q0 8 16 58l45 135h-133q-33 0 -33 23q0 4 1.5 10t4.5 19
t5 24q4 17 14 22.5t31 5.5h108l264 1233h-350l-35 -149q-7 -33 -34 -33h-45q-17 0 -23 6.5t-6 20.5t39 217q5 28 14 37.5t37 9.5h1212l9 37q6 28 15 38.5t26 10.5h47q34 0 34 -27q0 -11 -6 -41l-120 -563q28 48 96.5 79t134 40.5t133.5 9.5q254 0 254 -170q0 -57 -23 -172
l-126 -586h116q33 0 33 -20q0 -28 -8 -55q-4 -18 -12.5 -22.5t-30.5 -4.5h-193q-35 0 -35 27q0 8 7 43l133 620q16 68 16 125q0 61 -43 85t-131 24q-77 0 -139.5 -12.5t-88 -24.5t-57.5 -31q-27 -14 -47 -45q-10 -17 -18 -55l-141 -654h124q31 0 31 -22q0 -18 -8 -51
q-4 -18 -13 -23.5t-30 -5.5h-346q-33 0 -33 23q0 12 10 51q4 17 14 22.5t31 5.5h103l260 1235h-664l-262 -1233h131q31 0 31 -22q0 -20 -8 -53q-4 -18 -13 -23.5t-30 -5.5h-142z" />
    <glyph glyph-name="uni021A_h" unicode="&#x21a;h" horiz-adv-x="2299" 
d="M674 0h-367q-33 0 -33 23q0 4 1.5 10t4.5 19t5 24q4 17 14 22.5t31 5.5h108l264 1233h-350l-35 -149q-7 -33 -34 -33h-45q-17 0 -23 6.5t-6 20.5t39 217q5 28 14 37.5t37 9.5h1212l9 37q6 28 15 38.5t26 10.5h47q34 0 34 -27q0 -11 -6 -41l-120 -563q28 48 96.5 79
t134 40.5t133.5 9.5q254 0 254 -170q0 -57 -23 -172l-126 -586h116q33 0 33 -20q0 -28 -8 -55q-4 -18 -12.5 -22.5t-30.5 -4.5h-193q-35 0 -35 27q0 8 7 43l133 620q16 68 16 125q0 61 -43 85t-131 24q-77 0 -139.5 -12.5t-88 -24.5t-57.5 -31q-27 -14 -47 -45
q-10 -17 -18 -55l-141 -654h124q31 0 31 -22q0 -18 -8 -51q-4 -18 -13 -23.5t-30 -5.5h-346q-33 0 -33 23q0 12 10 51q4 17 14 22.5t31 5.5h103l260 1235h-664l-262 -1233h131q31 0 31 -22q0 -20 -8 -53q-4 -18 -13 -23.5t-30 -5.5zM500 -145q35 0 35 -35q0 -25 -23 -96
q-55 -160 -160 -250q-25 -21 -43 -21q-13 0 -39 17q-14 14 -14 26q0 17 20 33q105 112 127 274q7 52 48 52h49z" />
    <glyph glyph-name=".notdef" horiz-adv-x="1026" 
d="M0 0v1448h1026v-1448h-1026zM514 817l348 526h-698zM573 725l353 -526v1052zM164 102h698l-348 529zM102 1251v-1052l351 526z" />
    <glyph glyph-name=".null" horiz-adv-x="0" 
 />
    <glyph glyph-name="nonmarkingreturn" horiz-adv-x="682" 
 />
    <glyph glyph-name="space" unicode=" " horiz-adv-x="458" 
 />
    <glyph glyph-name="exclam" unicode="!" horiz-adv-x="575" 
d="M393 469q-3 -19 -13.5 -29t-23.5 -10h-41q-28 0 -28 27q0 13 4 37q27 135 50 252.5t39.5 200.5t30 152.5t22.5 113.5t16 78.5t10.5 52.5t6 30.5l3.5 17.5t2 9q9 45 49 45h51q20 0 27.5 -8t7.5 -27q0 -26 -213 -942zM352 100q0 -64 -37 -96q-20 -20 -63 -20q-76 0 -76 65
q0 57 35 92q26 23 65 23q76 0 76 -64z" />
    <glyph glyph-name="quotedbl" unicode="&#x22;" horiz-adv-x="688" 
d="M356 981q-7 -33 -37 -33h-28q-25 0 -25 25q0 1 4 33q16 91 33.5 191t26.5 150.5t14 77.5q9 41 45 41h49q29 0 29 -26q0 -19 -6 -43q-3 -20 -105 -416zM668 981q-7 -33 -37 -33h-29q-27 0 -27 25q0 3 2 14t3 19q24 144 47.5 275t25.5 144q9 41 47 41h50q28 0 28 -26
q0 -19 -6 -43q-1 -3 -11 -45t-35.5 -143.5t-57.5 -227.5z" />
    <glyph glyph-name="numbersign" unicode="#" horiz-adv-x="1222" 
d="M438 457l-116 -453q-6 -21 -15.5 -29t-27.5 -8h-23q-29 0 -29 27q0 11 9 43l106 420h-184q-33 0 -33 26q0 8 4 54q6 34 41 34h201l67 263h-198q-33 0 -33 24q0 20 6 55q2 18 10.5 25.5t28.5 7.5h215l108 422q6 25 16.5 36t31.5 11h20q31 0 31 -24q0 -13 -8 -45l-103 -400
h330l108 422q6 25 16.5 36t31.5 11h22q31 0 31 -29q0 -4 -8 -40l-103 -400h187q32 0 32 -26q0 -23 -6 -58q-3 -17 -10 -22.5t-25 -5.5h-208l-68 -263h203q32 0 32 -26q0 -23 -6 -60q-3 -15 -10.5 -21.5t-24.5 -6.5h-223l-114 -453q-4 -21 -14 -29t-29 -8h-25q-29 0 -29 27
q0 5 9 41l108 422h-332zM465 571h334l65 263h-329z" />
    <glyph glyph-name="dollar" unicode="$" horiz-adv-x="1114" 
d="M498 -156q-7 -37 -39 -37h-27q-26 0 -26 25q0 7 4 27l26 129q-188 6 -311 61q-27 12 -27 39v215q0 33 29 33h45q28 0 31 -31l12 -164q97 -44 244 -47l116 547l-102 43q-197 81 -197 289q0 198 120 297t337 112l31 142q7 37 37 37h28q27 0 27 -23q0 -9 -6 -33l-27 -121
q149 -3 252 -38q31 -10 31 -39q0 -5 -2.5 -23t-10.5 -71t-16 -117q-3 -29 -33 -29h-43q-28 0 -28 29q0 3 0.5 13t3.5 49.5t6 92.5q-102 24 -182 27l-117 -553l51 -20q125 -53 188.5 -121t63.5 -162q0 -207 -119.5 -313.5t-339.5 -118.5zM399 989q0 -77 41.5 -127.5
t149.5 -95.5l12 -6l109 518q-152 -6 -232 -72t-80 -217zM860 393q0 69 -41 115t-162 98l-106 -510q148 11 228.5 80.5t80.5 216.5z" />
    <glyph glyph-name="percent" unicode="%" horiz-adv-x="1724" 
d="M823 1171q0 -113 -38.5 -279.5t-102.5 -252.5q-46 -63 -109.5 -90t-152.5 -27q-137 0 -202.5 54t-65.5 188q0 112 36 258.5t99 239.5q50 72 117 101.5t157 29.5q137 0 199.5 -46.5t62.5 -175.5zM717 1157q0 79 -35 113.5t-135 34.5q-58 0 -100 -21.5t-76 -73.5
q-49 -76 -81 -210t-32 -226q0 -90 38 -126t134 -36q61 0 101 18t71 66q47 73 81 224t34 237zM504 -33q-14 -20 -23.5 -26.5t-27.5 -6.5h-31q-21 0 -21 21q0 11 19 41l919 1415q27 45 60 45h31q24 0 24 -20q0 -15 -29 -56zM1690 631q0 -113 -39 -279.5t-103 -253.5
q-46 -63 -109.5 -89.5t-154.5 -26.5q-136 0 -202 53.5t-66 187.5q0 113 36.5 259.5t100.5 238.5q51 72 117.5 101.5t154.5 29.5q139 0 202 -46t63 -175zM1583 616q0 79 -35 113.5t-135 34.5q-59 0 -101.5 -21t-76.5 -73q-49 -74 -80 -208.5t-31 -228.5q0 -90 37.5 -125.5
t134.5 -35.5q61 0 101 18t71 66q48 73 81.5 223t33.5 237z" />
    <glyph glyph-name="ampersand" unicode="&#x26;" horiz-adv-x="1464" 
d="M1040 150q-79 -90 -194 -133.5t-305 -43.5q-216 0 -325.5 101.5t-109.5 269.5q0 66 13.5 121t41 99t61 78t83.5 65t96.5 53.5t110.5 48.5q-56 78 -83.5 152t-27.5 165q0 154 109 244t285 90q149 0 228 -65t79 -185q0 -64 -25 -122t-63.5 -101.5t-96 -83.5t-112 -67.5
t-123.5 -55.5q173 -246 367 -458q86 128 122 346h-147q-27 0 -27 26q0 19 9 49q5 18 12.5 24.5t25.5 6.5h383q31 0 31 -24q0 -18 -8 -54q-6 -28 -37 -28h-125q-44 -262 -170 -426q87 -91 120 -114.5t69 -23.5h43q24 0 32.5 -4.5t8.5 -23.5q0 -25 -9 -53q-7 -23 -36 -23h-76
q-65 0 -94 20q-27 17 -53 42.5t-83 87.5zM967 233q-220 246 -396 494q-48 -21 -75.5 -34t-65 -32.5t-59 -35t-47.5 -37.5t-40 -45t-27 -52t-18.5 -63.5t-5.5 -75.5q0 -121 83 -194.5t253 -73.5q280 0 398 149zM627 856q41 18 65.5 29.5t67 33.5t68.5 40t59 46t51.5 55
t31.5 62.5t13 73.5q0 72 -51.5 116t-153.5 44q-111 0 -185.5 -56t-74.5 -165q0 -53 16.5 -104t34.5 -82.5t58 -92.5z" />
    <glyph glyph-name="quotesingle" unicode="'" horiz-adv-x="378" 
d="M356 981q-7 -33 -37 -33h-28q-25 0 -25 25q0 1 4 33q65 374 74 419q9 41 45 41h49q29 0 29 -26q0 -19 -6 -43q-3 -20 -105 -416z" />
    <glyph glyph-name="parenleft" unicode="(" horiz-adv-x="630" 
d="M795 1462q-275 -163 -426.5 -464.5t-151.5 -688.5q0 -107 18 -197.5t52 -159t65.5 -114t75.5 -94.5q6 -9 6 -20q0 -15 -16 -27q-15 -12 -25 -12q-17 0 -41 16q-46 35 -87.5 86t-80.5 125.5t-62.5 178.5t-23.5 222q0 141 23 281.5t73.5 280t123.5 259.5t179.5 220.5
t235.5 161.5q28 16 43 16t25 -16q12 -15 12 -29q0 -11 -18 -25z" />
    <glyph glyph-name="parenright" unicode=")" horiz-adv-x="628" 
d="M-104 -246q275 161 426 463.5t151 689.5q0 107 -18 197.5t-52.5 160t-65.5 114t-75 94.5q-6 9 -6 22q0 8 14 27q8 10 27 10q15 0 39 -16q45 -34 87 -85t81 -125.5t62.5 -179t23.5 -223.5q0 -141 -23 -281t-72.5 -279t-122.5 -258.5t-179.5 -220t-235.5 -163.5
q-32 -16 -43 -16q-17 0 -27 16q-10 17 -10 29q0 14 19 24z" />
    <glyph glyph-name="asterisk" unicode="*" horiz-adv-x="829" 
d="M541 965q-19 -19 -85 -88.5t-104 -104.5q-16 -16 -30 -16q-20 0 -50 30q-12 15 -12 33q0 15 16 31q105 99 205 182q-31 16 -115 52t-126 59q-27 13 -27 39q0 15 18 47q12 22 37 22q15 0 39 -12q53 -29 215 -125q11 114 33 260q3 24 11.5 34.5t29.5 10.5q25 0 39 -4
q31 -7 31 -37q0 -15 -4 -35q-9 -47 -28 -125.5t-26 -115.5q31 6 111.5 22.5t118.5 22.5q3 0 23 3t28 3q26 0 31 -31q6 -34 6 -51q0 -27 -35 -33q-81 -14 -275 -28q122 -208 138 -238q6 -15 6 -27q0 -20 -25 -34q-33 -17 -49 -17q-18 0 -29 23q-61 124 -116 248z" />
    <glyph glyph-name="plus" unicode="+" horiz-adv-x="1435" 
d="M715 100q-6 -28 -35 -28h-37q-31 0 -31 28q0 5 4 25l95 426h-447q-13 0 -20.5 8.5t-7.5 20.5q0 22 4 45q6 32 36 32h451l94 443q3 15 13 25t22 10h41q13 0 21 -8.5t8 -20.5q0 -11 -4 -31l-91 -418h447q13 0 21 -8t8 -20q0 -10 -7 -45q-2 -15 -11.5 -24t-24.5 -9h-453z
" />
    <glyph glyph-name="comma" unicode="," horiz-adv-x="421" 
d="M188 188q37 0 37 -32q0 -2 -12 -56q-30 -112 -103.5 -226.5t-158.5 -174.5q-29 -18 -47 -18t-29 14q-14 14 -14 29q0 17 22 32q66 53 127 148.5t82 228.5q7 55 49 55h47z" />
    <glyph glyph-name="hyphen" unicode="-" horiz-adv-x="667" 
d="M545 494h-395q-27 0 -27 22q0 11 10 55q5 18 13 24.5t28 6.5h389q31 0 31 -22q0 -18 -12 -62q-4 -15 -11.5 -19.5t-25.5 -4.5z" />
    <glyph glyph-name="period" unicode="." horiz-adv-x="423" 
d="M225 100q0 -62 -37 -96q-23 -20 -63 -20q-76 0 -76 65q0 64 33 92q26 23 68 23q75 0 75 -64z" />
    <glyph glyph-name="slash" unicode="/" horiz-adv-x="757" 
d="M53 -168q-16 -37 -49 -37h-35q-28 0 -28 23q0 13 14 41l856 1632q21 47 51 47h39q27 0 27 -25q0 -11 -23 -55z" />
    <glyph glyph-name="zero" unicode="0" horiz-adv-x="1132" 
d="M1130 1034q0 -109 -22.5 -264.5t-72.5 -329t-115 -272.5q-71 -107 -168 -153t-232 -46q-102 0 -174.5 19.5t-125 64t-78 120.5t-25.5 187q0 187 55 425.5t150 390.5q77 121 178.5 170t234.5 49q105 0 175 -16t121.5 -56t75 -111t23.5 -178zM1004 1016q0 72 -11 119
t-42 83t-87.5 52t-144.5 16q-97 0 -169 -38.5t-130 -131.5q-79 -128 -128.5 -355.5t-49.5 -387.5q0 -161 63.5 -228t226.5 -67q99 0 168.5 34t122.5 119q77 124 129 377t52 408z" />
    <glyph glyph-name="one" unicode="1" horiz-adv-x="1132" 
d="M723 0h-449q-32 0 -32 23q0 3 10 51q4 17 14 22.5t31 5.5h156l245 1141l-223 -94q-32 -12 -41 -12q-14 0 -20 16q-21 47 -21 55q0 20 31 35l295 125q37 16 61 16h27q33 0 33 -28q0 -9 -4 -33l-263 -1221h170q31 0 31 -22q0 -18 -8 -51q-4 -18 -13 -23.5t-30 -5.5z" />
    <glyph glyph-name="two" unicode="2" horiz-adv-x="1132" 
d="M911 0h-862q-31 0 -31 27q0 16 7 45q7 25 24 37q163 118 250 183t222 174.5t224 197.5q195 186 195 403q0 233 -276 233q-113 0 -244 -43q-11 -3 -27 -9.5t-26 -9.5t-17 -3q-17 0 -24 20q-13 33 -13 48q0 27 58 47q168 59 325 59q373 0 373 -317q0 -265 -219 -478
q-285 -279 -645 -508q166 3 637 3l39 161q5 31 32 31h48q28 0 28 -29q0 -2 -1 -7t-3.5 -20.5t-6.5 -36.5t-11.5 -65t-16.5 -96q-6 -47 -39 -47z" />
    <glyph glyph-name="three" unicode="3" horiz-adv-x="1132" 
d="M731 727q106 -9 165.5 -75t59.5 -185q0 -225 -108 -346q-133 -148 -445 -148q-185 0 -292 43q-41 16 -41 39q0 26 22 62q10 16 29 16q7 0 16 -2.5t23.5 -7.5t23.5 -8q122 -33 236 -33q243 0 336 113q78 90 78 264q0 105 -74 159t-248 54h-41q-33 0 -33 24q0 28 6 52
q5 17 14 23.5t31 6.5h46q188 0 290 88q88 74 88 242q0 97 -62.5 144.5t-195.5 47.5q-137 0 -241 -40q-10 -3 -26.5 -9t-26 -9t-15.5 -3q-19 0 -27 21q-12 34 -12 47t14 22.5t48 22.5q154 57 315 57q193 0 274.5 -74t81.5 -213q0 -167 -74 -260t-235 -135z" />
    <glyph glyph-name="four" unicode="4" horiz-adv-x="1132" 
d="M948 0h-434q-33 0 -33 23q0 4 1.5 10t4.5 19t5 24q4 17 14 22.5t31 5.5h149l68 306h-594q-21 0 -29 7t-8 25q0 29 8 50q2 6 6 13t11 17t10 15l616 800q32 47 68 47h47q29 0 29 -24q0 -12 -27 -51q-522 -680 -610 -791h497l74 350q6 39 39 39h45q33 0 33 -24q0 -11 -4 -35
l-70 -330h199q34 0 34 -24q0 -14 -8 -60q-4 -16 -13.5 -20t-29.5 -4h-205l-67 -306h162q32 0 32 -22q0 -20 -8 -53q-6 -18 -14.5 -23.5t-28.5 -5.5z" />
    <glyph glyph-name="five" unicode="5" horiz-adv-x="1132" 
d="M1073 1124q-5 -28 -33 -28h-49q-26 0 -26 26q0 2 18 156h-487l-125 -457q116 41 250 41q195 0 290 -71.5t95 -235.5q0 -277 -145 -429.5t-447 -152.5q-201 0 -316 43q-21 8 -28 16.5t-7 20.5q0 15 19 62q10 20 33 20q5 0 14.5 -3t24 -8.5t24.5 -8.5q134 -33 254 -33
q229 0 337 114.5t108 335.5q0 125 -73 173.5t-220 48.5q-131 0 -273 -43q-38 -11 -45 -11q-13 0 -21.5 8.5t-8.5 22.5t16 68l149 534q15 51 54 51h622q15 0 26 -8t11 -24q0 -21 -41 -228z" />
    <glyph glyph-name="six" unicode="6" horiz-adv-x="1132" 
d="M295 686q53 78 160.5 128t249.5 50q348 0 348 -311q0 -281 -142 -438q-65 -74 -156.5 -108t-234.5 -34q-182 0 -281.5 92.5t-99.5 288.5q0 96 18 216t51.5 245t89.5 240.5t124 185.5q82 86 188.5 127t263.5 41q156 0 232 -27q16 -8 16 -26q0 -27 -16 -64q-7 -18 -25 -18
q-7 0 -47 8q-95 18 -166 18q-132 0 -218 -35t-148 -104q-67 -74 -113 -185.5t-94 -289.5zM254 356q0 -57 11 -101.5t39.5 -85t85 -63t138.5 -22.5q215 0 306 115q96 125 96 325q0 102 -60.5 167t-193.5 65q-115 0 -218 -48.5t-161 -125.5q-18 -28 -29 -74q-14 -69 -14 -152z
" />
    <glyph glyph-name="seven" unicode="7" horiz-adv-x="1132" 
d="M369 -6h-52q-34 0 -34 26q0 20 20 60q332 606 713 1200q-115 -2 -654 -2l-36 -158q-7 -28 -35 -28h-47q-29 0 -29 26q0 18 37 219q5 24 14 35.5t29 11.5h835q35 0 35 -26q0 -23 -4 -39q-5 -27 -26 -59q-162 -261 -240.5 -389t-215 -364.5t-255.5 -463.5q-12 -25 -24 -37
t-31 -12z" />
    <glyph glyph-name="eight" unicode="8" horiz-adv-x="1132" 
d="M823 721q104 -17 159.5 -87t55.5 -181q0 -243 -140 -361.5t-388 -118.5q-196 0 -301 85t-105 233q0 190 92 302.5t261 145.5q-83 24 -127.5 87t-44.5 145q0 219 128 328.5t361 109.5q356 0 356 -270q0 -337 -307 -418zM913 442q0 115 -78 171.5t-208 56.5
q-62 0 -115 -8.5t-107 -32.5t-92 -62.5t-62 -102t-24 -147.5q0 -123 83 -179t216 -56q184 0 285.5 89.5t101.5 270.5zM1010 1112q0 188 -260 188q-344 0 -344 -319q0 -103 68.5 -154t178.5 -51q160 0 258.5 90t98.5 246z" />
    <glyph glyph-name="nine" unicode="9" horiz-adv-x="1132" 
d="M952 694q-126 -172 -403 -172q-178 0 -265 83.5t-87 230.5q0 132 30.5 237t108.5 193q67 73 160 108t231 35q381 0 381 -379q0 -135 -26.5 -295.5t-90.5 -331.5t-153 -264q-82 -86 -189 -127t-264 -41q-174 0 -246 29q-16 5 -16 25q0 28 14 63q11 18 25 18q1 0 49 -8
q92 -18 176 -18q249 0 369 139q68 77 112 189t84 286zM991 1026q0 46 -6 82t-23.5 73t-46.5 61.5t-79 40t-117 15.5q-212 0 -303 -116q-99 -123 -99 -320q0 -105 63 -169t198 -64q118 0 216.5 46.5t151.5 125.5q21 31 31 73q14 63 14 152z" />
    <glyph glyph-name="colon" unicode=":" horiz-adv-x="462" 
d="M266 100q0 -62 -37 -96q-23 -20 -63 -20q-76 0 -76 65q0 62 33 92q26 23 67 23q76 0 76 -64zM446 942q0 -65 -36 -96q-24 -21 -62 -21q-78 0 -78 66q0 57 35 92q25 25 66 25q75 0 75 -66z" />
    <glyph glyph-name="semicolon" unicode=";" horiz-adv-x="462" 
d="M446 942q0 -65 -36 -96q-24 -21 -62 -21q-78 0 -78 66q0 57 35 92q25 25 66 25q75 0 75 -66zM229 188q37 0 37 -32q0 -2 -12 -56q-30 -112 -104.5 -227.5t-159.5 -175.5q-26 -16 -45 -16q-18 0 -29 14q-14 14 -14 29q0 17 22 32q64 54 125 149.5t84 227.5q10 55 49 55h47
z" />
    <glyph glyph-name="less" unicode="&#x3c;" horiz-adv-x="1435" 
d="M1141 141q-6 -26 -25 -26q-6 0 -22 8l-766 407q-19 10 -19 33q0 19 8 60q6 28 29 41l948 419q10 7 25 7q20 0 20 -23q0 -17 -10 -66q-6 -26 -29 -36l-870 -375l700 -359q19 -9 19 -34q0 -15 -8 -56z" />
    <glyph glyph-name="equal" unicode="=" horiz-adv-x="1435" 
d="M1262 383q-3 -31 -35 -31h-1002q-28 0 -28 27q0 13 6 47q3 29 35 29h1001q29 0 29 -29q0 -8 -6 -43zM1346 772q-6 -31 -35 -31h-1002q-28 0 -28 31q0 12 8 43q9 31 35 31h999q31 0 31 -29q0 -3 -1 -8.5l-3 -16.5t-4 -20z" />
    <glyph glyph-name="greater" unicode="&#x3e;" horiz-adv-x="1435" 
d="M410 1069q3 25 20 25q9 0 23 -7l766 -409q20 -10 20 -33q0 -14 -8 -61q-6 -30 -29 -39l-948 -418q-20 -8 -25 -8q-20 0 -20 24q0 20 10 64q6 29 29 39l868 375l-696 356q-21 11 -21 35z" />
    <glyph glyph-name="question" unicode="?" horiz-adv-x="817" 
d="M369 430h-41q-25 0 -25 33q0 31 16 108q22 111 65.5 169t154.5 120q56 32 94.5 60.5t72.5 67t51 88t17 110.5q0 79 -50 127.5t-159 48.5q-78 0 -126.5 -8.5t-108.5 -28.5q-32 -8 -33 -8q-16 0 -23 20q-12 32 -12 47q0 22 27 35q133 54 301 54q84 0 146.5 -21t98 -58
t52 -80.5t16.5 -94.5q0 -98 -32 -173t-89.5 -131t-154.5 -114q-74 -44 -108.5 -71.5t-55.5 -62.5t-35 -92q-21 -89 -25 -114q-7 -31 -34 -31zM391 100q0 -64 -37 -96q-20 -20 -61 -20q-78 0 -78 65q0 57 35 92q26 23 67 23q74 0 74 -64z" />
    <glyph glyph-name="at" unicode="@" horiz-adv-x="1644" 
d="M1014 223q-105 -110 -283 -110q-118 0 -182 61.5t-64 175.5q0 141 67 287t181 237q116 96 303 99q110 0 178 -41l5 10q13 25 38 25h21q25 0 25 -21q0 -8 -11 -45l-157 -557q-19 -74 -19 -82q0 -49 45 -49q41 0 94 29q124 76 192.5 230.5t68.5 324.5q0 452 -494 452
q-137 0 -260.5 -45.5t-217 -126.5t-162.5 -188.5t-104.5 -235.5t-35.5 -264q0 -265 145 -406t438 -141q152 0 245.5 18t201.5 56q50 16 57 16q17 0 25 -26q1 -4 2.5 -10.5t2.5 -11t1 -7.5q-2 -20 -53 -39q-222 -86 -494 -86q-320 0 -493 161t-173 470q0 145 38 283
t113.5 258t180 210.5t247 142.5t304.5 52q277 0 428.5 -131t151.5 -389q0 -93 -21.5 -189t-64 -184.5t-100 -158t-136.5 -111t-166 -41.5q-56 0 -81.5 22t-26.5 76zM1182 850q-60 35 -164 35q-79 -1 -132 -20.5t-98 -55.5q-89 -74 -141.5 -194.5t-52.5 -241.5
q0 -84 41.5 -127t132.5 -43q118 0 209 71q18 13 33 33t28 70z" />
    <glyph glyph-name="A" unicode="A" horiz-adv-x="1363" 
d="M324 0h-365q-33 0 -33 23q0 4 1.5 10t4.5 19t5 24q4 17 14 22.5t31 5.5h86l755 1311q21 37 51 37h48q20 0 30 -8.5t13 -30.5l196 -1309h86q33 0 33 -22q0 -20 -8 -53q-6 -18 -14 -23.5t-29 -5.5h-361q-30 0 -30 23q0 14 8 53q4 17 14 22.5t31 5.5h147l-57 383h-553
l-225 -383h141q33 0 33 -22q0 -20 -8 -53q-6 -18 -15 -23.5t-30 -5.5zM868 1280q-153 -280 -385 -686h484q-48 324 -99 686z" />
    <glyph glyph-name="B" unicode="B" horiz-adv-x="1306" 
d="M516 0h-446q-31 0 -31 23q0 17 10 53q4 17 13 22.5t30 5.5h111l264 1237h-123q-31 0 -31 21q0 12 9 53q8 31 45 31h417q127 0 209 -10q254 -30 254 -281q0 -339 -270 -397q95 -20 142.5 -88.5t47.5 -173.5q0 -357 -268 -453q-119 -43 -383 -43zM328 104h217q218 0 311 39
q93 37 137.5 129t44.5 207q0 68 -24 118t-68 73q-65 32 -225 32h-268zM475 805h266q151 0 222 33q84 36 122.5 115.5t38.5 183.5q0 74 -34.5 120.5t-83.5 61.5q-65 22 -242 22h-174z" />
    <glyph glyph-name="C" unicode="C" horiz-adv-x="1253" 
d="M1143 1339q-102 23 -275 23q-225 0 -360 -148q-104 -117 -164.5 -346t-60.5 -422q0 -78 17.5 -140.5t56 -114t107.5 -79.5t165 -28q120 0 199 12t157 37q12 4 25 9t20.5 7.5t13.5 2.5q10 0 16.5 -7t12.5 -24q8 -21 8 -41q0 -24 -51 -41q-177 -66 -412 -66
q-460 0 -460 457q0 132 26 285t86.5 312.5t143.5 256.5q87 99 208.5 144t303.5 45q166 0 309 -33q39 -8 39 -41q0 -21 -39 -230q-5 -28 -33 -28h-49q-27 0 -27 28q0 3 1 13t5.5 53.5t10.5 103.5z" />
    <glyph glyph-name="D" unicode="D" horiz-adv-x="1458" 
d="M498 0h-428q-31 0 -31 23q0 17 10 53q4 17 13 22.5t30 5.5h109l266 1237h-123q-31 0 -31 21q0 10 9 53q8 31 45 31h434q229 0 360 -41q126 -41 192 -150t66 -272q0 -113 -13 -220.5t-47.5 -222.5t-87 -208t-139.5 -169.5t-198 -113.5q-76 -25 -203.5 -37t-232.5 -12z
M328 104h207q257 0 383 54q100 42 175.5 132t116.5 204.5t60.5 229.5t19.5 230q0 254 -160 336q-99 51 -348 51h-192z" />
    <glyph glyph-name="E" unicode="E" horiz-adv-x="1210" 
d="M985 0h-915q-31 0 -31 23q0 14 10 53q4 17 13 22.5t30 5.5h109l268 1237h-125q-31 0 -31 21q0 10 9 53q8 31 45 31h833q19 0 26 -7t7 -22q0 -5 -39 -233q-5 -29 -33 -29h-49q-17 0 -23 6.5t-6 20.5q0 1 19 159h-512l-115 -532h502q35 0 35 -25q0 -12 -11 -55
q-7 -31 -45 -31h-503l-127 -594h602l41 154q7 33 35 33h49q28 0 28 -27q0 -12 -45 -217q-4 -17 -6 -23.5t-7 -13.5t-13.5 -8.5t-24.5 -1.5z" />
    <glyph glyph-name="F" unicode="F" horiz-adv-x="1153" 
d="M475 0h-405q-31 0 -31 23q0 17 10 53q4 17 13 22.5t30 5.5h109l268 1237h-125q-31 0 -31 21q0 10 9 53q8 31 45 31h843q31 0 31 -27q0 -8 -39 -235q-5 -29 -35 -29h-49q-26 0 -26 27q0 2 16 159h-518l-127 -581h473q35 0 35 -23q0 -21 -10 -55q-4 -18 -13.5 -23.5
t-29.5 -5.5h-478l-114 -549h168q18 0 25 -5t7 -17q0 -20 -8 -53q-6 -18 -14 -23.5t-29 -5.5z" />
    <glyph glyph-name="G" unicode="G" horiz-adv-x="1366" 
d="M1163 125q-6 -29 -17 -43.5t-38 -26.5q-182 -82 -457 -82q-232 0 -361.5 110t-129.5 345q0 218 68.5 467.5t193.5 392.5q85 95 210.5 140t307.5 45q91 0 185 -10t147 -25q21 -5 30 -13.5t9 -27.5q0 -22 -37 -228q-5 -28 -35 -28h-49q-27 0 -27 26q0 10 19 170
q-119 25 -297 25q-241 0 -373 -145q-72 -79 -125.5 -222.5t-77.5 -285.5t-24 -263q0 -63 12 -115.5t40 -98.5t71 -78.5t108.5 -51t149.5 -18.5q225 0 378 61l99 451h-342q-33 0 -33 25q0 24 10 55q4 17 13.5 23t29.5 6h416q41 0 41 -31q0 -20 -6 -41z" />
    <glyph glyph-name="H" unicode="H" horiz-adv-x="1511" 
d="M434 0h-364q-31 0 -31 23q0 17 10 53q4 17 13 22.5t30 5.5h109l266 1237h-123q-31 0 -31 21q0 12 9 53q8 31 45 31h360q33 0 33 -25q0 -17 -8 -53q-6 -17 -14.5 -22t-28.5 -5h-117l-117 -534h711l112 534h-120q-33 0 -33 21q0 19 10 53q8 31 43 31h363q32 0 32 -25
q0 -19 -10 -53q-4 -17 -13 -22t-30 -5h-117l-266 -1237h129q33 0 33 -22t-10 -53q-4 -18 -13 -23.5t-30 -5.5h-363q-31 0 -31 23q0 9 9 53q4 17 14 22.5t31 5.5h108l127 596h-708l-127 -596h129q17 0 23.5 -5t6.5 -17q0 -20 -8 -53q-4 -18 -13 -23.5t-30 -5.5z" />
    <glyph glyph-name="I" unicode="I" horiz-adv-x="677" 
d="M434 0h-364q-31 0 -31 23q0 17 10 53q4 17 13 22.5t30 5.5h109l266 1237h-123q-31 0 -31 21q0 10 9 53q8 31 45 31h360q33 0 33 -25q0 -24 -8 -51q-4 -17 -14 -23t-29 -6h-117l-266 -1237h129q17 0 23.5 -5t6.5 -17q0 -20 -8 -53q-4 -18 -13 -23.5t-30 -5.5z" />
    <glyph glyph-name="J" unicode="J" horiz-adv-x="659" 
d="M332 129q-21 -102 -47 -159t-72 -99q-88 -82 -252 -82q-49 0 -78 6q-26 3 -26 29q0 20 10 53q6 25 37 25l30 -2q30 -2 46 -2q87 0 143 43q32 24 51 68t37 128l258 1204h-143q-33 0 -33 21q0 8 10 53q8 31 45 31h373q31 0 31 -25q0 -13 -9 -53q-4 -17 -13 -22t-30 -5h-108
z" />
    <glyph glyph-name="K" unicode="K" horiz-adv-x="1325" 
d="M1384 1341h-114q-328 -388 -525 -602q79 -134 314 -592q14 -25 30 -34t48 -9h104q33 0 33 -22q0 -11 -10 -53q-4 -18 -13 -23.5t-30 -5.5h-138q-44 0 -72 13.5t-39.5 29.5t-29.5 51l-289 570q-11 22 -26.5 28t-46.5 6h-127l-127 -594h129q17 0 23.5 -5t6.5 -17
q0 -20 -8 -53q-4 -18 -13 -23.5t-30 -5.5h-364q-31 0 -31 23q0 17 10 53q4 17 13 22.5t30 5.5h109l266 1237h-123q-31 0 -31 21q0 12 9 53q8 31 45 31h360q33 0 33 -25q0 -17 -8 -53q-6 -17 -14.5 -22t-28.5 -5h-117l-117 -534h127q66 0 96 35l424 499h-90q-33 0 -33 21
q0 13 11 53q8 31 43 31h350q33 0 33 -25q0 -13 -9 -53q-6 -17 -14.5 -22t-28.5 -5z" />
    <glyph glyph-name="L" unicode="L" horiz-adv-x="1153" 
d="M999 0h-929q-31 0 -31 23q0 14 10 53q4 17 13 22.5t30 5.5h109l268 1237h-125q-31 0 -31 21q0 10 9 53q8 31 45 31h362q33 0 33 -25q0 -19 -10 -53q-4 -17 -13 -22t-30 -5h-117l-264 -1235h598l43 154q10 33 35 33h49q28 0 28 -27q0 -14 -45 -219q-4 -18 -6.5 -26
t-10 -14.5t-20.5 -6.5z" />
    <glyph glyph-name="M" unicode="M" horiz-adv-x="1779" 
d="M434 0h-362q-33 0 -33 23q0 19 10 53q4 17 13 22.5t30 5.5h111l266 1237h-125q-31 0 -31 21q0 10 9 53q8 31 45 31h258q13 0 21.5 -5.5t12 -12t7.5 -17.5q205 -786 233 -907q88 140 610 907q22 35 60 35h252q32 0 32 -25q0 -19 -10 -53q-4 -17 -13 -22t-30 -5h-121
l-249 -1237h133q32 0 32 -22q0 -11 -10 -53q-4 -18 -13 -23.5t-30 -5.5h-362q-33 0 -33 23q0 17 10 53q4 17 13.5 22.5t29.5 5.5h111q43 215 95 476t68 339t37 178.5t43 194.5q-146 -230 -622 -923q-22 -31 -51 -31h-25q-18 0 -27 9t-14 30q-142 512 -240 921
q-64 -330 -249 -1194h129q17 0 23.5 -5t6.5 -17q0 -20 -8 -53q-4 -18 -13 -23.5t-30 -5.5z" />
    <glyph glyph-name="N" unicode="N" horiz-adv-x="1503" 
d="M1569 1341h-109l-276 -1306q-7 -41 -43 -41h-41q-31 0 -45 35q-102 249 -196 476.5t-136.5 329.5t-79.5 192t-52 129t-28 75q-59 -310 -237 -1127h129q17 0 23.5 -5t6.5 -17q0 -20 -8 -53q-4 -18 -13 -23.5t-30 -5.5h-364q-31 0 -31 23q0 17 10 53q4 17 13 22.5t30 5.5
h113l264 1237h-131q-31 0 -31 21q0 17 8 53q8 31 45 31h213q23 0 35 -23q418 -1005 496 -1206q35 189 235 1124h-133q-32 0 -32 21q0 19 10 53q8 31 43 31h362q33 0 33 -25q0 -19 -10 -53q-4 -17 -13 -22t-30 -5z" />
    <glyph glyph-name="O" unicode="O" horiz-adv-x="1398" 
d="M1358 1047q0 -129 -25.5 -289.5t-86.5 -334t-144 -271.5q-82 -95 -192.5 -137t-266.5 -42q-91 0 -161.5 11.5t-133.5 41t-104 78t-64.5 125t-23.5 179.5q0 139 27.5 300t94 331.5t158.5 269.5q147 155 430 155q95 0 164.5 -9t134.5 -36t105 -72.5t64 -120.5t24 -179z
M1231 1030q0 97 -21 160t-69 99.5t-115.5 50.5t-171.5 14q-227 0 -336 -125q-109 -123 -171 -366t-62 -441q0 -99 21.5 -164.5t70 -104t116.5 -54t169 -15.5q123 0 206 32t146 115q98 126 157.5 374.5t59.5 424.5z" />
    <glyph glyph-name="P" unicode="P" horiz-adv-x="1302" 
d="M459 0h-389q-31 0 -31 23q0 17 10 53q4 17 13 22.5t30 5.5h109l266 1237h-123q-31 0 -31 21q0 12 9 53q8 31 45 31h454q235 0 342 -49q73 -36 110.5 -103t37.5 -153q0 -188 -84 -315t-260 -173q-96 -26 -301 -26h-228l-112 -523h153q33 0 33 -22q0 -20 -8 -53
q-6 -18 -15 -23.5t-30 -5.5zM459 731h237q193 0 285 39q67 27 113 81t66 121t20 146q0 70 -27.5 118t-71.5 71q-67 34 -274 34h-217z" />
    <glyph glyph-name="Q" unicode="Q" horiz-adv-x="1398" 
d="M1358 1047q0 -76 -10 -172.5t-35 -215t-61.5 -226t-95.5 -204t-130 -149.5l340 -221q18 -14 18 -29q0 -14 -34 -61q-16 -19 -27 -19q-12 0 -25 10l-389 258q-110 -45 -266 -45q-91 0 -161.5 11.5t-133.5 41t-104 78t-64.5 125t-23.5 179.5q0 139 27.5 300t94 331.5
t158.5 269.5q147 155 430 155q95 0 164.5 -9t134.5 -36t105 -72.5t64 -120.5t24 -179zM1231 1030q0 97 -21 160t-69 99.5t-115.5 50.5t-171.5 14q-225 0 -336 -125q-74 -83 -129.5 -235.5t-79.5 -300.5t-24 -271q0 -99 21.5 -164.5t70 -104t116.5 -54t169 -15.5
q123 0 206 32t148 115q66 86 117.5 243t74.5 303t23 253z" />
    <glyph glyph-name="R" unicode="R" horiz-adv-x="1339" 
d="M434 0h-364q-31 0 -31 23q0 17 10 53q4 17 13 22.5t30 5.5h111l264 1237h-123q-31 0 -31 21q0 12 9 53q8 31 45 31h446q227 0 320 -41q75 -34 115 -107t40 -157q0 -193 -99.5 -316.5t-293.5 -158.5l211 -519q10 -27 24 -35t48 -8h88q32 0 32 -24q0 -9 -10 -51
q-4 -18 -13 -23.5t-30 -5.5h-135q-53 0 -75 15.5t-36 54.5l-227 581q-37 -4 -117 -4h-213l-116 -543h129q17 0 23.5 -5t6.5 -17q0 -20 -8 -53q-4 -18 -13 -23.5t-30 -5.5zM465 752h223q184 0 279 39q98 38 145 122t47 199q0 67 -28 120.5t-70 74.5q-64 34 -264 34h-207z" />
    <glyph glyph-name="S" unicode="S" horiz-adv-x="1128" 
d="M78 90v221q0 37 33 37h47q27 0 30 -33l13 -170q131 -59 301 -59q90 0 158 13.5t123.5 46t84.5 92t29 145.5q0 30 -3.5 52.5t-17 53t-37.5 55.5t-68.5 53t-106.5 52l-168 66q-117 45 -176.5 131.5t-59.5 202.5q0 424 528 424q180 0 314 -46q19 -6 25 -13.5t6 -22.5
q0 -12 -29 -232q-3 -29 -35 -29h-49q-27 0 -27 29q0 3 1 16.5t4 56.5t6 97q-132 33 -246 33q-88 0 -153 -14.5t-115 -47.5t-75.5 -92.5t-25.5 -144.5q0 -87 49 -148t174 -110l150 -60q138 -55 201 -136t63 -201q0 -435 -539 -435q-220 0 -376 72q-17 7 -25 16t-8 29z" />
    <glyph glyph-name="T" unicode="T" horiz-adv-x="1146" 
d="M674 0h-367q-33 0 -33 23q0 4 1.5 10t4.5 19t5 24q4 17 14 22.5t31 5.5h108l264 1235h-346l-34 -151q-10 -33 -37 -33h-47q-17 0 -23 6.5t-6 20.5t39 217q5 28 14 37.5t37 9.5h975q31 0 31 -27q0 -8 -39 -235q-5 -29 -33 -29h-49q-17 0 -23 6.5t-6 20.5q0 5 16 157h-346
l-262 -1235h131q31 0 31 -22q0 -20 -8 -53q-4 -18 -13 -23.5t-30 -5.5z" />
    <glyph glyph-name="U" unicode="U" horiz-adv-x="1484" 
d="M1257 578q-38 -182 -64 -269t-73 -153q-69 -99 -180 -142t-285 -43q-413 0 -413 301q0 109 41 301l163 768h-110q-33 0 -33 21q0 17 10 53q8 31 45 31h361q33 0 33 -25q0 -16 -11 -53q-4 -17 -13 -22t-30 -5h-127l-176 -819q-24 -123 -24 -221q0 -217 307 -217
q109 0 194.5 26.5t141.5 100.5q62 81 110 301l179 829h-144q-31 0 -31 21q0 10 9 53q8 31 45 31h360q31 0 31 -25q0 -17 -8 -53q-4 -17 -13 -22t-30 -5h-99z" />
    <glyph glyph-name="V" unicode="V" horiz-adv-x="1349" 
d="M588 -6h-45q-32 0 -39 41l-176 1306h-97q-32 0 -32 21q0 8 10 53q8 31 45 31h360q33 0 33 -25q0 -19 -10 -53q-4 -17 -13 -22t-30 -5h-141q80 -600 149 -1163q103 194 653 1163h-135q-33 0 -33 21q0 13 11 53q5 17 14 24t29 7h362q31 0 31 -25q0 -17 -8 -53
q-4 -17 -13 -22t-30 -5h-92l-748 -1308q-13 -24 -24 -31.5t-31 -7.5z" />
    <glyph glyph-name="W" unicode="W" horiz-adv-x="2019" 
d="M512 -6h-45q-36 0 -39 39l-59 1308h-99q-30 0 -30 21q0 17 8 53q8 31 45 31h362q31 0 31 -25q0 -17 -8 -53q-4 -17 -13 -22t-30 -5h-143q22 -473 34 -799.5t13 -342.5q117 252 591 1151q13 26 24.5 36.5t31.5 10.5h43q17 0 25.5 -10.5t9.5 -36.5q20 -213 39.5 -423.5
t28.5 -304t17.5 -186t12 -140.5t6.5 -97q99 231 530 1142h-141q-31 0 -31 21q0 10 9 53q8 31 45 31h360q33 0 33 -25q0 -26 -8 -53q-4 -17 -13 -22t-30 -5h-94l-623 -1308q-10 -23 -22 -31t-31 -8h-47q-34 0 -37 39q-80 902 -94 1173q-65 -132 -609 -1173q-12 -23 -23 -31
t-30 -8z" />
    <glyph glyph-name="X" unicode="X" horiz-adv-x="1388" 
d="M1239 0h-365q-32 0 -32 23q0 5 10 53q4 17 14 22.5t31 5.5h117q-200 393 -275 560q-55 -62 -132.5 -150t-161.5 -182t-205 -228h110q33 0 33 -22q0 -11 -10 -53q-4 -18 -13 -23.5t-30 -5.5h-365q-33 0 -33 23q0 13 11 53q4 17 13 22.5t30 5.5h100l586 658l-283 579h-119
q-30 0 -30 21q0 14 8 53q8 31 45 31h362q31 0 31 -25q0 -17 -8 -53q-4 -17 -13 -22t-30 -5h-111q97 -200 170 -346.5t78 -156.5q195 222 449 503h-99q-30 0 -30 21q0 14 8 53q8 31 45 31h360q33 0 33 -25q0 -17 -8 -53q-6 -17 -14 -22t-29 -5h-111l-540 -602l315 -635h109
q32 0 32 -22q0 -20 -8 -53q-6 -18 -15 -23.5t-30 -5.5z" />
    <glyph glyph-name="Y" unicode="Y" horiz-adv-x="1327" 
d="M1462 1341h-112l-588 -702l-117 -535h127q33 0 33 -22q0 -18 -8 -51q-6 -19 -14.5 -25t-28.5 -6h-367q-31 0 -31 25q0 7 9 51q4 17 14 22.5t31 5.5h114l113 533l-291 704h-115q-32 0 -32 21q0 5 10 53q8 31 45 31h358q33 0 33 -25q0 -17 -8 -53q-6 -17 -14 -22t-29 -5
h-111q191 -473 234 -591q143 190 479 591h-98q-33 0 -33 21q0 5 10 53q8 31 45 31h363q30 0 30 -25q0 -17 -8 -53q-4 -17 -13 -22t-30 -5z" />
    <glyph glyph-name="Z" unicode="Z" horiz-adv-x="1220" 
d="M1044 0h-1009q-35 0 -35 29q0 13 6 37q6 26 27 47q743 846 1079 1224h-715l-37 -153q-9 -29 -34 -29h-47q-17 0 -23 6.5t-6 20.5q0 10 39 217q5 24 16.5 35.5t40.5 11.5h907q15 0 26 -7.5t11 -19.5q0 -8 -6 -35q-6 -32 -27 -55q-918 -1049 -1075 -1223h799l41 160
q9 35 41 35h45q27 0 27 -29q0 -10 -39 -225q-3 -24 -14 -35.5t-38 -11.5z" />
    <glyph glyph-name="bracketleft" unicode="[" horiz-adv-x="563" 
d="M344 -287h-299q-9 0 -14.5 7t-5.5 16q0 7 6 37l362 1702q7 28 31 28h303q21 0 21 -18q0 -3 -1.5 -8.5t-3.5 -15t-4 -17.5q-3 -21 -30 -21h-217l-345 -1626h218q18 0 18 -18q0 -19 -6 -43q-5 -23 -33 -23z" />
    <glyph glyph-name="backslash" unicode="\" horiz-adv-x="845" 
d="M750 -141q6 -24 6 -35t-8.5 -20t-24.5 -9h-29q-19 0 -28 7t-13 26l-432 1630q-10 45 -10 51q0 29 35 29h30q17 0 24.5 -10.5t14.5 -36.5z" />
    <glyph glyph-name="bracketright" unicode="]" horiz-adv-x="563" 
d="M293 1503h299q18 0 18 -20q0 -13 -4 -29l-362 -1712q-8 -29 -31 -29h-303q-9 0 -15 5.5t-6 13.5q0 13 9 43q3 20 30 20h217l344 1626h-217q-20 0 -20 19q0 16 6 43q8 20 35 20z" />
    <glyph glyph-name="asciicircum" unicode="^" horiz-adv-x="1443" 
d="M1206 631q6 -12 6 -25q0 -31 -30 -31h-47q-25 0 -35 31l-166 656l-465 -662q-16 -25 -39 -25h-55q-12 0 -19.5 7t-7.5 18q0 12 8 23l516 733q17 26 48 26h61q31 0 41 -30z" />
    <glyph glyph-name="underscore" unicode="_" horiz-adv-x="1009" 
d="M-55 -160h1009v-112h-1009v112z" />
    <glyph glyph-name="grave" unicode="`" horiz-adv-x="403" 
d="M262 1210l-229 269q-15 20 -15 32q0 23 27 23h84q24 0 43 -25l203 -274q10 -17 10 -27q0 -8 -6.5 -14t-16.5 -6h-53q-28 0 -47 22z" />
    <glyph glyph-name="a" unicode="a" horiz-adv-x="1189" 
d="M969 0h-187q-34 0 -34 31q0 7 6 61q-109 -117 -336 -117q-314 0 -314 310q0 167 61 350.5t173 279.5q130 113 375 113q155 0 235 -55q7 26 16 34.5t27 8.5h39q29 0 29 -25q0 -11 -4 -35l-185 -854h119q33 0 33 -22q0 -5 -8 -51q-4 -18 -13.5 -23.5t-31.5 -5.5zM788 252
l132 625q-29 20 -92.5 33.5t-133.5 13.5q-176 0 -282 -88q-86 -75 -136.5 -228.5t-50.5 -298.5q0 -118 55.5 -174.5t180.5 -56.5q162 0 266 82q30 27 41 43q14 23 20 49z" />
    <glyph glyph-name="b" unicode="b" horiz-adv-x="1136" 
d="M215 59l-14 -39q-4 -15 -13 -20.5t-28 -5.5h-33q-27 0 -27 26q0 7 4 35l293 1375h-112q-31 0 -31 20q0 15 10 51q5 17 14 24t29 7h189q32 0 32 -25q0 -4 -1 -10.5t-3 -18t-4 -20.5l-117 -551q49 63 140.5 93t199.5 30q155 0 234.5 -74t79.5 -231q0 -145 -44 -314
t-128 -268q-73 -86 -173 -119.5t-249 -33.5q-65 0 -141 20t-107 49zM240 154q24 -22 95.5 -42t133.5 -20q120 0 197.5 27.5t130.5 87.5q64 75 101.5 225t37.5 268q0 110 -57 167t-185 57q-151 0 -266 -72q-23 -12 -41 -47q-9 -18 -16 -49z" />
    <glyph glyph-name="c" unicode="c" horiz-adv-x="927" 
d="M805 928q-58 10 -146 10q-178 0 -270 -98q-78 -79 -121 -237.5t-43 -280.5q0 -114 61.5 -179t194.5 -65q80 0 125.5 8t102.5 27q40 12 51 12q12 0 20 -19q13 -39 13 -49q0 -23 -39 -37q-130 -47 -291 -47q-361 0 -361 328q0 89 18.5 194t65.5 223t115 189
q131 137 381 137q129 0 215 -22q18 -6 24.5 -13t6.5 -24q0 -8 -35 -213q-5 -29 -37 -29h-37q-31 0 -31 23z" />
    <glyph glyph-name="d" unicode="d" horiz-adv-x="1159" 
d="M973 0h-193q-32 0 -32 25q0 27 6 65q-107 -115 -336 -115q-314 0 -314 310q0 161 59 347.5t169 282.5q130 113 381 113q145 0 227 -45l98 447h-112q-33 0 -33 20q0 11 10 53q4 17 14 23t31 6h178q23 0 31 -6.5t8 -24.5q0 -13 -6 -43l-289 -1356h123q33 0 33 -20
q0 -19 -10 -55q-4 -17 -13 -22t-30 -5zM786 248l134 633q-28 19 -92 31t-136 12q-177 0 -282 -88q-86 -75 -135.5 -228t-49.5 -299q0 -117 55.5 -174t180.5 -57q149 0 264 80q27 19 43 43q11 18 18 47z" />
    <glyph glyph-name="e" unicode="e" horiz-adv-x="1036" 
d="M236 475q-15 -86 -15 -139q0 -147 69.5 -201.5t225.5 -54.5q131 0 266 43q40 12 47 12q15 0 21 -16q16 -43 16 -49q0 -14 -8.5 -22.5t-30.5 -18.5q-137 -56 -344 -56q-205 0 -293 86t-88 265q0 84 18.5 186.5t68 219.5t120.5 185q122 119 355 119q169 0 244 -68t75 -198
q0 -107 -25 -221q-1 -5 -3 -13t-3 -11.5t-2.5 -9.5t-3 -9t-3 -6.5t-4 -6t-5.5 -4.5q-15 -12 -43 -12h-655zM252 573h594q22 86 22 177q0 92 -48 138t-175 46q-158 0 -237 -68q-103 -87 -156 -293z" />
    <glyph glyph-name="f" unicode="f" horiz-adv-x="653" 
d="M434 0h-387q-33 0 -33 23q0 1 11 51q4 17 14 22.5t31 5.5h102l172 801h-113q-28 0 -28 23q0 19 10 49q5 18 13 24.5t28 6.5h113l36 182q25 116 56 181.5t80 105.5q86 73 241 73q85 0 125 -12q17 -6 17 -27q0 -22 -11 -51q-8 -22 -32 -22q-2 0 -43 4t-72 4
q-118 0 -168 -62q-25 -28 -42 -72.5t-36 -129.5l-37 -174h195q29 0 29 -27q0 -5 -11 -51q-9 -25 -41 -25h-194l-172 -801h166q32 0 32 -22q0 -18 -8 -51q-6 -18 -14.5 -23.5t-28.5 -5.5z" />
    <glyph glyph-name="g" unicode="g" horiz-adv-x="1009" 
d="M154 35q-59 20 -86 57.5t-27 100.5q0 88 45.5 155.5t128.5 93.5q-47 60 -47 158q0 124 45 224t145 155q95 55 258 55q99 0 172 -28h273q35 0 35 -27q0 -22 -4 -45q-7 -31 -45 -31h-152q43 -59 43 -137q0 -226 -123 -336q-104 -96 -315 -96q-100 0 -172 28q-47 15 -58 15
q-27 0 -55 -19q-29 -19 -44 -58t-15 -79q0 -76 49 -88q41 -14 307 -14q228 0 320 -49t92 -179q0 -116 -36.5 -195.5t-109.5 -123.5t-166.5 -62t-224.5 -18q-100 0 -176 16.5t-120.5 42.5t-72 62t-36.5 70t-9 73q0 104 43.5 171.5t137.5 107.5zM803 -141q0 49 -22.5 81
t-84 52t-164.5 22q-90 2 -186 2q-58 0 -94 -12q-78 -23 -120 -80.5t-42 -142.5q0 -187 311 -187q39 0 68 1t65 4t62.5 8.5t56 15t50.5 23t41 33.5t32 45.5t19.5 59.5t7.5 75zM827 756q0 100 -58 139t-175 39q-118 0 -178 -33q-70 -36 -101.5 -114t-31.5 -175q0 -56 18 -93
t52.5 -55t72.5 -25t90 -7q152 0 227 70q84 79 84 254z" />
    <glyph glyph-name="h" unicode="h" horiz-adv-x="1218" 
d="M367 0h-347q-30 0 -30 23q0 10 8 51q4 17 14 22.5t31 5.5h102l283 1328h-111q-32 0 -32 20q0 3 10 51q8 31 45 31h184q35 0 35 -27q0 -11 -6 -41l-121 -563q28 48 97 79t134.5 40.5t133.5 9.5q252 0 252 -170q0 -57 -23 -172l-125 -586h117q35 0 35 -20q0 -6 -11 -55
q-4 -18 -12.5 -22.5t-30.5 -4.5h-192q-35 0 -35 27q0 13 6 43l133 620q17 72 17 125q0 61 -43 85t-131 24q-77 0 -139.5 -12.5t-88 -24.5t-57.5 -31q-27 -14 -47 -45q-11 -19 -19 -53l-141 -656h125q31 0 31 -22q0 -18 -8 -51q-4 -18 -13 -23.5t-30 -5.5z" />
    <glyph glyph-name="i" unicode="i" horiz-adv-x="610" 
d="M393 0h-346q-33 0 -33 23q0 3 1.5 9t4.5 17.5t5 24.5q4 17 14 22.5t31 5.5h102l172 801h-115q-30 0 -30 23q0 10 8 49q8 31 45 31h188q33 0 33 -27q0 -13 -4 -33l-180 -844h123q32 0 32 -22q0 -18 -8 -51q-6 -18 -14 -23.5t-29 -5.5zM549 1382q0 -60 -35 -92
q-25 -22 -63 -22q-78 0 -78 65q0 59 33 92q25 25 67 25q76 0 76 -68z" />
    <glyph glyph-name="j" unicode="j" horiz-adv-x="534" 
d="M186 -178q-22 -104 -49 -161.5t-71 -92.5q-97 -80 -287 -80q-45 0 -45 31q0 27 8 51q4 14 15 19t34 5q132 0 191 46q33 25 52 64t36 116l233 1083h-115q-32 0 -32 23q0 13 10 49q5 17 14 24t29 7h188q35 0 35 -27q0 -15 -4 -31zM506 1382q0 -60 -35 -92q-25 -22 -63 -22
q-78 0 -78 65q0 60 32 92q25 25 68 25q76 0 76 -68z" />
    <glyph glyph-name="k" unicode="k" horiz-adv-x="1058" 
d="M367 0h-347q-32 0 -32 23q0 4 1 9t4 17.5t5 24.5q4 17 14 22.5t31 5.5h102l283 1328h-113q-32 0 -32 20q0 1 10 49q5 18 14 25.5t29 7.5h186q35 0 35 -29q0 -13 -4 -33l-180 -854h96q67 0 98 33l234 254h-74q-31 0 -31 23q0 6 9 49q8 31 45 31h321q33 0 33 -25
q0 -4 -10 -49q-4 -17 -13.5 -23t-29.5 -6h-99q-116 -123 -210 -221.5t-111 -116.5q4 -9 68 -141t137 -277q13 -28 30 -36.5t56 -8.5h61q33 0 33 -22q0 -8 -10 -53q-5 -27 -43 -27h-107q-52 0 -80.5 22t-48.5 64l-182 393q-10 22 -25.5 28.5t-46.5 6.5h-123l-88 -412h125
q31 0 31 -22q0 -18 -8 -51q-4 -18 -13 -23.5t-30 -5.5z" />
    <glyph glyph-name="l" unicode="l" horiz-adv-x="559" 
d="M369 0h-346q-33 0 -33 23q0 4 1 9t4 17.5t5 24.5q4 17 14 22.5t31 5.5h102l285 1328h-113q-30 0 -30 20q0 15 8 51q8 31 45 31h188q18 0 24.5 -6t6.5 -23q0 -9 -8 -49l-289 -1352h125q33 0 33 -22q0 -7 -10 -49q-4 -18 -13 -24.5t-30 -6.5z" />
    <glyph glyph-name="m" unicode="m" horiz-adv-x="1859" 
d="M391 0h-344q-33 0 -33 23q0 3 1.5 9t4.5 17.5t5 24.5q4 17 14 22.5t31 5.5h102l172 801h-117q-30 0 -30 23q0 13 8 49q5 18 13 24.5t28 6.5h194q31 0 31 -25q0 -3 -1 -9.5t-5 -28t-8 -46.5q36 69 142 101t216 32q55 0 104.5 -11.5t91 -42t50.5 -75.5q43 63 150.5 96
t211.5 33q269 0 269 -164q0 -62 -21 -170l-127 -594h117q33 0 33 -22q0 -2 -11 -51q-4 -18 -13 -23.5t-30 -5.5h-196q-31 0 -31 23q0 9 6 36l135 629q15 73 15 125q0 111 -170 111q-177 0 -277 -66q-23 -13 -45 -49q-8 -15 -26 -94l-131 -613h114q33 0 33 -22q0 -18 -8 -51
q-6 -18 -15 -23.5t-30 -5.5h-193q-15 0 -24 7t-9 18q0 9 7 41l135 624q16 76 16 127q0 107 -172 107q-166 0 -278 -66q-10 -6 -37 -33q-21 -26 -27 -53l-145 -670h125q32 0 32 -22q0 -18 -8 -51q-6 -18 -15 -23.5t-30 -5.5z" />
    <glyph glyph-name="n" unicode="n" horiz-adv-x="1243" 
d="M393 0h-346q-33 0 -33 23q0 8 11 51q4 17 14 22.5t31 5.5h102l172 801h-115q-30 0 -30 23q0 10 8 49q8 31 45 31h186q33 0 33 -29q0 -17 -14 -80q36 69 143.5 101t222.5 32q252 0 252 -170q0 -62 -22 -172l-125 -586h116q33 0 33 -20q0 -19 -8 -55q-6 -18 -14 -22.5
t-29 -4.5h-197q-30 0 -30 25q0 6 4 30l135 635q14 71 14 125q0 61 -43.5 85t-124.5 24q-179 0 -284 -64q-33 -20 -45 -39q-17 -25 -25 -63l-143 -656h125q32 0 32 -22q0 -18 -8 -51q-6 -18 -14 -23.5t-29 -5.5z" />
    <glyph glyph-name="o" unicode="o" horiz-adv-x="1107" 
d="M1030 731q0 -118 -44 -302t-116 -292q-112 -164 -378 -164q-70 0 -124.5 8t-105.5 29.5t-84.5 57t-53.5 94t-20 137.5q0 139 49.5 319t137.5 281q119 135 350 135q71 0 121.5 -5t104.5 -23t87 -50t54.5 -88.5t21.5 -136.5zM911 713q0 55 -15 95t-38.5 63.5t-62.5 37
t-77.5 17.5t-92.5 4q-168 0 -252 -105q-67 -81 -107.5 -248t-40.5 -270q0 -131 69 -180t212 -49q200 0 280 137q52 85 88.5 247.5t36.5 250.5z" />
    <glyph glyph-name="p" unicode="p" horiz-adv-x="1163" 
d="M281 -500h-361q-33 0 -33 23q0 3 1.5 9t4.5 17t5 23q4 17 14 23t31 6h96l276 1302h-110q-33 0 -33 23q0 13 10 49q5 17 14 24t29 7h183q32 0 32 -23q0 -15 -10 -78q48 62 139 93.5t203 31.5q155 0 234 -73.5t79 -231.5q0 -140 -43.5 -305t-123.5 -266q-74 -92 -172 -128
t-246 -36q-75 0 -150 18.5t-100 42.5l-96 -450h145q33 0 33 -23q0 -16 -8 -49q-6 -18 -14 -23.5t-29 -5.5zM268 152q25 -20 95.5 -40t134.5 -20q121 0 197.5 27.5t129.5 89.5q64 77 102 224.5t38 266.5q0 110 -59.5 167t-188.5 57q-146 0 -258 -68q-28 -20 -39 -41
q-14 -24 -21 -57z" />
    <glyph glyph-name="q" unicode="q" horiz-adv-x="1142" 
d="M846 -500h-361q-30 0 -30 23q0 13 10 49q4 17 13.5 23t29.5 6h139l103 481q-64 -58 -143 -82.5t-189 -24.5q-314 0 -314 310q0 99 22 211.5t75 230t127 182.5q130 119 383 119q72 0 137.5 -12.5t97.5 -36.5l8 25q6 19 14 24.5t27 5.5h39q29 0 29 -22q0 -5 -4 -25
l-295 -1386h102q33 0 33 -23q0 -16 -8 -49q-6 -18 -15 -23.5t-30 -5.5zM788 260l132 621q-26 19 -91.5 31t-136.5 12q-182 0 -286 -93q-85 -75 -133 -226t-48 -298q0 -115 55.5 -172t180.5 -57q159 0 262 78q31 24 41 39q19 34 24 65z" />
    <glyph glyph-name="r" unicode="r" horiz-adv-x="794" 
d="M434 0h-387q-33 0 -33 23q0 3 1.5 9t4.5 17.5t5 24.5q4 17 14 22.5t31 5.5h102l172 801h-115q-30 0 -30 23q0 10 8 49q8 31 45 31h186q33 0 33 -27q0 -10 -14 -82q28 58 119.5 95.5t187.5 37.5q38 0 61 -4q19 -6 19 -29q0 -26 -13 -61q-10 -23 -34 -23q-2 0 -32.5 1
t-51.5 1q-60 0 -119 -17.5t-96 -41.5q-31 -18 -49 -51q-11 -22 -23 -72l-139 -631h166q32 0 32 -22q0 -15 -8 -51q-6 -18 -14.5 -23.5t-28.5 -5.5z" />
    <glyph glyph-name="s" unicode="s" horiz-adv-x="847" 
d="M41 63v187q0 22 9.5 30.5t29.5 8.5h31q17 0 23.5 -6.5t8.5 -22.5l13 -151q82 -33 188 -33q94 0 146 15.5t81 47.5q52 52 52 133q0 28 -4 45.5t-19 40t-49.5 42t-89.5 38.5l-133 47q-85 31 -133 89t-48 131t27.5 139t83.5 110q98 76 305 76q120 0 219 -26q31 -7 31 -41
q0 -25 -20 -199q-3 -29 -37 -29h-39q-27 0 -27 29q0 8 0.5 21.5t2 50t3.5 77.5q-72 17 -155 17q-152 0 -209 -45q-66 -54 -66 -158q0 -48 35.5 -85.5t126.5 -72.5l123 -45q92 -33 141 -86t49 -137q0 -142 -88 -233q-49 -50 -126 -72.5t-197 -22.5q-164 0 -260 47
q-29 14 -29 43z" />
    <glyph glyph-name="t" unicode="t" horiz-adv-x="618" 
d="M426 903l-135 -635q-15 -69 -15 -102q0 -45 26.5 -62.5t80.5 -17.5q29 0 68.5 7t42.5 7q19 0 26 -20q6 -21 6 -43q0 -28 -39 -37q-67 -18 -163 -18q-75 0 -120.5 37t-45.5 120q0 47 16 129l137 635h-116q-29 0 -29 21q0 14 8 53q6 29 41 29h119q43 195 55 241
q10 41 39 41h45q25 0 25 -24q0 -9 -9 -54l-43 -204h207q31 0 31 -23q0 -28 -6 -51q-4 -19 -14.5 -24t-30.5 -5h-207z" />
    <glyph glyph-name="u" unicode="u" horiz-adv-x="1243" 
d="M1008 0h-187q-39 0 -39 33q0 11 11 57q-118 -115 -342 -115q-53 0 -97.5 9t-85.5 29t-64.5 59.5t-23.5 93.5q0 48 23 166l123 571h-111q-33 0 -33 23q0 4 1.5 9.5l4.5 16.5t5 23q8 31 45 31h188q31 0 31 -23q0 -1 -6 -37l-132 -618q-16 -71 -16 -123q0 -125 195 -125
q147 0 260 72q32 23 45 41q16 20 24 55l142 655h-113q-31 0 -31 23q0 6 9 49q8 31 45 31h184q35 0 35 -27q0 -3 -1 -8.5t-2.5 -14t-2.5 -12.5l-183 -842h119q33 0 33 -22q0 -20 -10 -51q-4 -18 -13 -23.5t-30 -5.5z" />
    <glyph glyph-name="v" unicode="v" horiz-adv-x="1048" 
d="M1077 903h-67l-529 -872q-12 -21 -21.5 -28t-27.5 -7h-41q-33 0 -39 35l-153 872h-80q-33 0 -33 23q0 13 10 49q5 17 14 24t29 7h310q32 0 32 -25q0 -4 -10 -49q-4 -17 -13.5 -23t-29.5 -6h-113q97 -563 125 -760q123 223 443 760h-117q-33 0 -33 23q0 13 10 49
q8 31 45 31h308q32 0 32 -25q0 -15 -10 -49q-5 -17 -13 -23t-28 -6z" />
    <glyph glyph-name="w" unicode="w" horiz-adv-x="1607" 
d="M1624 903h-72l-446 -870q-11 -22 -21.5 -30.5t-29.5 -8.5h-43q-31 0 -37 39q-97 688 -105 778q-63 -123 -434 -778q-20 -39 -53 -39h-39q-36 0 -39 41l-80 868h-86q-33 0 -33 23q0 9 11 49q5 17 14 24t29 7h309q33 0 33 -25q0 -15 -10 -49q-4 -17 -13.5 -23t-29.5 -6
h-105q36 -436 53 -758q104 206 424 775q15 28 27.5 39.5t32.5 11.5h37q17 0 25 -12.5t11 -38.5q80 -536 107 -775q98 211 369 758h-117q-31 0 -31 23q0 10 8 49q8 31 45 31h310q32 0 32 -25q0 -15 -10 -49q-4 -17 -13.5 -23t-29.5 -6z" />
    <glyph glyph-name="x" unicode="x" horiz-adv-x="1110" 
d="M936 0h-322q-32 0 -32 23q0 12 10 51q4 17 13.5 22.5t29.5 5.5h110l-192 365q-330 -349 -346 -365h123q30 0 30 -22q0 -18 -8 -51q-4 -18 -13 -23.5t-30 -5.5h-319q-33 0 -33 23q0 12 10 51q4 17 14 22.5t31 5.5h66l414 428l-203 373h-80q-33 0 -33 23q0 13 10 49
q5 17 14 24t29 7h306q32 0 32 -25q0 -15 -10 -49q-4 -17 -13.5 -23t-29.5 -6h-100q35 -68 73.5 -141t59.5 -113t35 -69q93 106 301 323h-103q-30 0 -30 23q0 10 8 49q8 31 45 31h301q33 0 33 -25q0 -12 -11 -49q-4 -17 -13 -23t-28 -6h-73l-369 -387l227 -414h86
q33 0 33 -22q0 -18 -8 -51q-6 -18 -15 -23.5t-30 -5.5z" />
    <glyph glyph-name="y" unicode="y" horiz-adv-x="1048" 
d="M1079 903h-63l-574 -940q-16 -26 -55 -90t-61 -99t-53 -80.5t-54 -72.5q-110 -133 -280 -133q-59 0 -89 6q-32 6 -32 33t14 59q7 17 33 17q5 0 34 -4.5t48 -4.5q58 0 100.5 19.5t83.5 69.5q54 65 199 305l24 41l-159 874h-74q-31 0 -31 23q0 16 8 49q8 31 45 31h310
q32 0 32 -25q0 -4 -10 -49q-4 -17 -13.5 -23t-29.5 -6h-119q98 -564 127 -758q121 220 443 758h-115q-31 0 -31 23q0 20 8 49q8 31 46 31h309q33 0 33 -25q0 -12 -11 -49q-4 -17 -13.5 -23t-29.5 -6z" />
    <glyph glyph-name="z" unicode="z" horiz-adv-x="944" 
d="M758 0h-744q-26 0 -26 23q0 13 6 34q2 14 29 45l741 801h-475l-35 -137q-5 -17 -12.5 -23t-26.5 -6h-39q-29 0 -29 23q0 15 39 207q8 39 50 39h677q33 0 33 -23q0 -17 -4 -31q-4 -22 -33 -55l-737 -795h528l45 148q4 17 12.5 23t26.5 6h37q27 0 27 -23q0 -19 -45 -217
q-5 -21 -13.5 -30t-31.5 -9z" />
    <glyph glyph-name="braceleft" unicode="{" horiz-adv-x="622" 
d="M227 610q60 -17 92.5 -54.5t32.5 -115.5q0 -45 -16 -123l-64 -309q-16 -72 -16 -112q0 -45 27 -72q35 -37 149 -41q23 0 23 -23t-6 -39q-9 -20 -35 -20q-154 0 -215 45q-60 46 -60 129q0 36 19 137l63 301q15 70 15 117q0 66 -32 101.5t-98 46.5q-22 3 -22 22q0 15 4 33
q6 26 31 29q101 18 152 70.5t75 172.5l62 287q36 168 94 235q44 52 114.5 71.5t178.5 19.5q26 0 26 -25q0 -16 -6 -37q-4 -20 -31 -24q-146 0 -200 -68q-34 -48 -58 -160l-63 -295q-17 -77 -40 -130t-56 -85t-62.5 -49t-77.5 -35z" />
    <glyph glyph-name="bar" unicode="|" horiz-adv-x="438" 
d="M121 -266q-3 -19 -12 -29t-29 -10h-39q-27 0 -27 26q0 13 4 33l375 1757q3 19 12 29t29 10h37q31 0 31 -22q0 -5 -6 -35z" />
    <glyph glyph-name="braceright" unicode="}" horiz-adv-x="665" 
d="M477 606q-61 17 -94 55t-33 117q0 41 17 121l63 311q16 69 16 111q0 45 -24 72q-35 37 -150 41q-22 0 -22 22q0 23 6 41q3 9 13.5 15t19.5 6q155 -4 215 -48q59 -40 59 -129q0 -58 -18 -137l-64 -301q-14 -66 -14 -117q0 -67 32 -101.5t99 -45.5q23 -3 23 -21
q0 -13 -7 -32q-7 -28 -28 -31q-102 -17 -153 -70.5t-77 -173.5l-61 -286q-36 -167 -92 -234q-47 -52 -116.5 -71t-178.5 -19q-27 0 -27 23q0 17 6 38q6 23 33 23q148 0 199 70q33 44 57 157l66 297q16 77 39 130t55 84.5t62.5 48.5t78.5 34z" />
    <glyph glyph-name="asciitilde" unicode="~" horiz-adv-x="1435" 
d="M315 508q-16 -16 -30 -16q-17 0 -37 18q-17 14 -17 33q0 15 11 26q86 97 155 136.5t148 39.5q47 0 98 -20t143 -76q114 -71 199 -71q58 0 107.5 30t109.5 105q18 22 33 22q14 0 29 -12q30 -22 30 -41q0 -10 -10 -27q-68 -92 -139.5 -138t-161.5 -46q-103 0 -238 82
q-85 51 -129.5 67.5t-78.5 16.5q-57 0 -109 -30t-113 -99z" />
    <glyph glyph-name="exclamdown" unicode="&#xa1;" horiz-adv-x="575" 
d="M221 543q9 39 39 39h39q31 0 31 -27q0 -13 -4 -37q-173 -867 -183 -907q-9 -45 -47 -45h-53q-19 0 -27 8t-8 27q0 10 213 942zM262 913q0 61 37 95q25 22 63 22q78 0 78 -65q0 -62 -34 -93q-27 -24 -68 -24q-76 0 -76 65z" />
    <glyph glyph-name="cent" unicode="&#xa2;" horiz-adv-x="991" 
d="M475 -156q-2 -12 -5 -19t-11 -12.5t-21 -5.5h-26q-29 0 -29 25q0 5 4 25l29 139q-138 11 -211.5 85t-73.5 226q0 89 18.5 194.5t66.5 223.5t116 186q113 113 307 127l31 142q8 39 37 39h28q27 0 27 -23q0 -11 -6 -35l-27 -119q140 -3 223 -22q29 -13 29 -39
q0 -19 -37 -207q-5 -29 -35 -29h-32q-31 0 -31 23q0 9 16 154q-63 11 -155 14l-179 -838q120 2 222 35q30 12 49 12q17 0 24 -18q11 -33 11 -43q0 -25 -41 -39q-116 -44 -287 -51zM256 328q0 -100 41.5 -157.5t140.5 -70.5l178 832q-126 -17 -200 -94q-75 -78 -117.5 -235.5
t-42.5 -274.5z" />
    <glyph glyph-name="sterling" unicode="&#xa3;" horiz-adv-x="1153" 
d="M1004 0h-871q-31 0 -31 20q0 26 7 50q6 19 28 30q50 26 88 49.5t79.5 58t68 70.5t44 84t17.5 101q0 75 -8 127h-176q-31 0 -31 22q0 14 8 45q7 31 41 31h150q-12 114 -12 215q0 239 128.5 374.5t393.5 135.5q161 0 270 -35q23 -10 23 -32q0 -21 -27 -218q-5 -28 -35 -28
h-45q-29 0 -29 28q0 6 9 156q-85 23 -187 23q-375 -3 -375 -389q0 -136 13 -230h426q17 0 25 -5t8 -21q0 -11 -7 -46q-9 -26 -43 -26h-403q8 -62 8 -98q0 -128 -62 -220.5t-192 -165.5h715q37 0 37 -24q0 -14 -8 -53q-4 -19 -14.5 -24t-30.5 -5z" />
    <glyph glyph-name="currency" unicode="&#xa4;" horiz-adv-x="1105" 
d="M1012 256q-9 -12 -25 -12q-9 0 -24 12l-109 104q-103 -79 -244 -79q-138 0 -245 79l-99 -104q-18 -14 -28 -14q-12 0 -27 12l-16 18q-15 12 -15 27t15 27l106 108q-82 109 -82 246q0 133 82 242l-106 108q-15 12 -15 25q0 14 17 28l16 17q11 14 23 14q15 0 26 -14
l105 -107q106 84 243 84q144 0 242 -82l106 105q14 14 27 14q14 0 25 -14l16 -17q14 -11 14 -26q0 -16 -14 -25l-106 -108q81 -98 81 -244q0 -145 -81 -244l110 -110q12 -9 12 -25q0 -15 -14 -29zM905 680q0 131 -84 215t-211 84q-124 0 -209.5 -84.5t-85.5 -212.5
q0 -132 84.5 -217.5t210.5 -85.5q127 0 211 85t84 216z" />
    <glyph glyph-name="yen" unicode="&#xa5;" horiz-adv-x="1181" 
d="M666 0h-367q-31 0 -31 23q0 14 8 53q4 17 14.5 22.5t31.5 5.5h114l70 332h-299q-31 0 -31 21q0 19 6 37q4 18 12.5 23t28.5 5h301l19 84l-41 99h-246q-31 0 -31 20q0 22 6 37q4 18 13 23.5t30 5.5h193l-209 491h-104q-31 0 -31 21q0 22 8 51q4 17 14 23.5t31 6.5h361
q30 0 30 -24q0 -15 -8 -51q-4 -17 -13 -22t-30 -5h-123q186 -442 228 -563q117 148 466 563h-112q-31 0 -31 21q0 12 8 51q4 17 14 23.5t31 6.5h361q33 0 33 -24q0 -10 -9 -51q-6 -17 -14 -22t-29 -5h-104l-420 -491h205q31 0 31 -23q0 -19 -4 -37q-8 -26 -41 -26h-261
l-81 -97l-19 -86h324q30 0 30 -22q0 -11 -4 -31q-7 -33 -45 -33h-323l-72 -332h129q33 0 33 -22q0 -20 -8 -53q-6 -18 -14.5 -23.5t-28.5 -5.5z" />
    <glyph glyph-name="brokenbar" unicode="&#xa6;" horiz-adv-x="438" 
d="M365 881q-3 -20 -12 -29.5t-31 -9.5h-37q-27 0 -27 26q0 13 4 33l115 531q3 19 12 28.5t29 9.5h37q30 0 30 -22q0 -7 -6 -37zM176 2q-3 -20 -12 -29.5t-31 -9.5h-37q-26 0 -26 27q0 13 4 33l114 530q8 39 41 39h37q31 0 31 -25q0 -5 -6 -35z" />
    <glyph glyph-name="section" unicode="&#xa7;" horiz-adv-x="989" 
d="M684 225q41 -36 61.5 -81t20.5 -115q0 -51 -11 -98.5t-40.5 -96.5t-75.5 -85t-122 -58.5t-173 -22.5q-176 0 -287 60q-39 23 -39 49q0 94 13 209q1 13 11.5 21.5t25.5 8.5h36q13 0 23 -8t10 -22v-162q55 -28 104 -37.5t124 -9.5q135 0 205.5 63t70.5 178
q0 64 -46.5 111.5t-180.5 126.5l-72 43q-111 66 -157 132.5t-46 143.5q0 79 26 138.5t70 93.5t90 51.5t97 22.5q-35 24 -58.5 80t-23.5 108q0 38 6.5 76.5t30.5 90.5t63 90.5t113.5 66t173.5 28.5q145 0 242 -41q32 -16 32 -47q0 -33 -18 -211q-2 -28 -35 -28h-39
q-32 0 -32 26q0 43 2 168q-73 25 -177 25q-129 0 -185 -60.5t-56 -158.5q0 -135 172 -230l61 -35q134 -75 188 -141t54 -149q0 -252 -252 -314zM813 504q0 62 -27 104t-94 86q-78 53 -162 97q-28 14 -53 14q-36 0 -63 -8q-158 -38 -158 -197q0 -54 26.5 -95.5t96.5 -86.5
q88 -59 194 -111q20 -8 39 -8q33 0 60 12q62 22 101.5 71t39.5 122z" />
    <glyph glyph-name="dieresis" unicode="&#xa8;" horiz-adv-x="403" 
d="M104 1382q0 -61 -32 -90q-23 -20 -62 -20q-71 0 -71 61q0 60 28 88q30 23 66 23q71 0 71 -62zM461 1382q0 -59 -31 -90q-27 -20 -61 -20q-74 0 -74 61t31 88q26 23 65 23q70 0 70 -62z" />
    <glyph glyph-name="copyright" unicode="&#xa9;" horiz-adv-x="1699" 
d="M1630 707q0 -208 -89 -375t-255.5 -264t-382.5 -97q-162 0 -299 56.5t-230 155t-145.5 234t-52.5 290.5q0 208 89.5 375.5t255.5 264.5t380 97q221 0 388.5 -97t254 -263.5t86.5 -376.5zM1554 707q0 190 -78.5 340.5t-228.5 238.5t-346 88q-146 0 -268 -51.5
t-204.5 -140.5t-128.5 -211.5t-46 -263.5q0 -188 77.5 -338.5t226.5 -239t345 -88.5q195 0 344.5 88t228 238.5t78.5 339.5zM1120 1057q-68 10 -131 10q-96 0 -156 -26t-104 -78q-117 -142 -117 -373q0 -109 57.5 -177.5t178.5 -68.5q126 0 209 29q35 12 43 12q15 0 22 -25
q11 -33 11 -38q0 -17 -37 -33q-115 -43 -265 -43q-152 0 -243.5 87t-91.5 249q0 107 34.5 228.5t108.5 209.5q123 143 375 143q117 0 192 -20q17 -4 23 -11.5t6 -21.5q0 -12 -27 -180q-6 -27 -32 -27h-46q-22 0 -22 25q0 11 12 129z" />
    <glyph glyph-name="ordfeminine" unicode="&#xaa;" horiz-adv-x="778" 
d="M543 604q-39 -39 -86.5 -58.5t-120.5 -19.5q-199 0 -199 191q0 98 38 211.5t108 171.5q78 67 237 67q94 0 144 -32q6 28 30 28h41q23 0 23 -20q0 -11 -4 -27l-111 -500h76q17 0 24 -3.5t7 -14.5q0 -7 -7 -39q-3 -13 -9 -17.5t-23 -4.5h-150q-24 0 -24 22q0 15 6 45z
M567 725l74 330q-43 26 -125 26q-112 0 -168 -47q-48 -42 -76 -128.5t-28 -168.5q0 -65 31 -95t102 -30q86 0 151 52q20 16 25 26q10 13 14 35z" />
    <glyph glyph-name="guillemotleft" unicode="&#xab;" horiz-adv-x="952" 
d="M231 543l191 -346q12 -22 12 -39q0 -9 -8.5 -16t-19.5 -7h-35q-20 0 -29.5 9t-24.5 34l-188 326q-14 24 -14 43t22 45l332 313q3 2 9.5 8.5l8.5 8.5t7.5 6.5t8 6.5t7 5t8 4.5t8 3t8.5 2t9 0.5h43q22 0 22 -22q0 -14 -33 -47zM602 543l191 -346q12 -22 12 -39q0 -9 -9 -16
t-20 -7h-35q-5 0 -10 1t-8 2t-6.5 4t-5.5 4.5t-5.5 6.5t-4.5 7t-5.5 9t-5.5 9l-190 326q-13 23 -13 43q0 22 23 45l330 313q3 3 11.5 11t11 10t9 7.5t10 7.5t9 4.5t11 3.5t11.5 1h43q9 0 16 -6t7 -16q0 -14 -33 -47z" />
    <glyph glyph-name="logicalnot" unicode="&#xac;" horiz-adv-x="1435" 
d="M1190 100q-3 -28 -35 -28h-39q-29 0 -29 28q0 7 3 19l94 432h-928q-13 0 -21 8.5t-8 20.5q0 21 6 45q6 32 35 32h1002q28 0 28 -28q0 -11 -4 -31z" />
    <glyph glyph-name="uni00AD" unicode="&#xad;" horiz-adv-x="667" 
d="M545 494h-395q-27 0 -27 22q0 11 10 55q5 18 13 24.5t28 6.5h389q31 0 31 -22q0 -4 -12 -62q-4 -15 -11.5 -19.5t-25.5 -4.5z" />
    <glyph glyph-name="registered" unicode="&#xae;" horiz-adv-x="1699" 
d="M1630 707q0 -208 -89 -375t-255.5 -264t-382.5 -97q-162 0 -299 56.5t-230 155t-145.5 234t-52.5 290.5q0 208 89.5 375.5t255.5 264.5t380 97q221 0 388.5 -97t254 -263.5t86.5 -376.5zM1554 707q0 190 -78.5 340.5t-228.5 238.5t-346 88q-146 0 -268 -51.5
t-204.5 -140.5t-128.5 -211.5t-46 -263.5q0 -188 77.5 -338.5t226.5 -239t345 -88.5q195 0 344.5 88t228 238.5t78.5 339.5zM760 279h-279q-20 0 -20 22q0 8 8 39q6 29 39 29h72l149 700h-98q-21 0 -21 23q0 2 8 38q6 29 39 29h304q154 0 219 -33q43 -22 67.5 -68.5
t24.5 -105.5q0 -221 -223 -280l108 -273q9 -30 41 -30h72q24 0 24 -25q0 -11 -6 -41q-6 -24 -37 -24h-96q-70 0 -92 63l-115 311q-27 -2 -84 -2h-119l-61 -282h90q29 0 29 -25q0 -14 -8 -41q-6 -24 -35 -24zM764 739h125q113 0 158 19q57 22 88.5 69t31.5 107q0 92 -63 119
q-43 16 -152 16h-121z" />
    <glyph glyph-name="macron" unicode="&#xaf;" horiz-adv-x="403" 
d="M426 1260h-469q-27 0 -27 24q0 25 11 57q5 18 13 24.5t26 6.5h462q31 0 31 -22q0 -31 -10 -64q-5 -15 -12.5 -20.5t-24.5 -5.5z" />
    <glyph glyph-name="degree" unicode="&#xb0;" horiz-adv-x="688" 
d="M793 1206q0 -141 -81.5 -226t-222.5 -85q-120 0 -191 67.5t-71 190.5q0 140 83.5 222.5t224.5 82.5q121 0 189.5 -65t68.5 -187zM700 1198q0 180 -176 180q-93 0 -147.5 -57t-54.5 -170q0 -84 48.5 -130t129.5 -46q91 0 145.5 57t54.5 166z" />
    <glyph glyph-name="plusminus" unicode="&#xb1;" horiz-adv-x="1435" 
d="M750 289q-7 -33 -35 -33h-39q-29 0 -29 29q0 8 4 28l90 414h-444q-31 0 -31 29q0 14 8 45q3 30 35 30h451l94 433q7 30 33 30h39q30 0 30 -28q0 -9 -4 -29l-88 -406h445q30 0 30 -28q0 -14 -8 -45q-3 -31 -35 -31h-452zM1174 0h-1004q-13 0 -21 8.5t-8 20.5q0 3 6 45
q6 30 35 30h1006q29 0 29 -28q0 -3 -1.5 -9t-4 -17.5t-3.5 -18.5q-3 -31 -34 -31z" />
    <glyph glyph-name="twosuperior" unicode="&#xb2;" 
d="M752 860h-566q-22 0 -22 19q0 18 6 43q6 16 23 28q293 193 430 314q122 106 122 233q0 64 -37.5 98.5t-129.5 34.5q-74 0 -152 -20q-10 -2 -26 -7.5t-21 -5.5q-15 0 -21 15q-8 36 -8 43q0 20 39 31q115 34 219 34q135 0 189.5 -55.5t54.5 -151.5q0 -92 -31.5 -157
t-103.5 -129q-180 -157 -379 -277q72 2 367 2l28 117q6 25 33 25h35q20 0 20 -19q0 -12 -33 -184q-5 -31 -36 -31z" />
    <glyph glyph-name="threesuperior" unicode="&#xb3;" 
d="M647 1305q144 -16 144 -160q0 -142 -76 -215q-86 -86 -291 -86q-130 0 -195 24q-26 12 -26 29q0 15 18 51q9 13 25 13q4 0 10.5 -2t15.5 -5t15 -4q74 -18 149 -18q152 0 205 59q47 52 47 150q0 58 -44.5 86t-149.5 28h-29q-23 0 -23 21q0 27 4 45q6 25 35 25h31
q117 0 174 47q51 39 51 133q0 53 -36.5 78.5t-118.5 25.5q-80 0 -148 -18q-39 -13 -47 -13q-14 0 -18 15q-9 27 -9 41q0 24 39 35q95 30 211 30q129 0 180.5 -45t51.5 -131q0 -102 -46 -159t-149 -80z" />
    <glyph glyph-name="acute" unicode="&#xb4;" horiz-adv-x="403" 
d="M113 1210q-22 -22 -50 -22h-51q-24 0 -24 22q0 13 12 25l254 274q22 25 47 25h92q25 0 25 -21q0 -5 -2 -9.5t-4 -7.5t-6.5 -8t-6.5 -7z" />
    <glyph glyph-name="mu" unicode="&#xb5;" horiz-adv-x="1099" 
d="M203 45l-88 -426q-4 -13 -7 -19.5t-12 -12t-24 -5.5h-47q-31 0 -31 25q0 4 2.5 17t3.5 20l285 1331q7 37 41 37h45q28 0 28 -23q0 -17 -4 -33l-135 -630q-18 -88 -18 -136q0 -106 194 -106q193 0 309 57q30 12 41 25q14 14 21 49l162 760q7 37 43 37h45q28 0 28 -25
q0 -4 -4 -24l-198 -932q-6 -37 -41 -37h-43q-31 0 -31 26q0 11 10 56q-58 -48 -159.5 -71t-206.5 -23q-165 0 -209 63z" />
    <glyph glyph-name="paragraph" unicode="&#xb6;" horiz-adv-x="1140" 
d="M483 -225q-4 -18 -11.5 -27.5t-27.5 -9.5h-24q-29 0 -29 22q0 7 4 27l150 707q-98 0 -171 26t-115.5 73t-63.5 106.5t-21 131.5q0 175 63.5 308.5t188.5 210.5q151 96 405 96h271q22 0 31.5 -7.5t9.5 -25.5q0 -31 -6 -43l-338 -1595q-4 -18 -11.5 -27.5t-27.5 -9.5h-27
q-26 0 -26 22q0 11 4 27l333 1569h-225z" />
    <glyph glyph-name="periodcentered" unicode="&#xb7;" horiz-adv-x="423" 
d="M313 575q0 -62 -37 -96q-23 -20 -63 -20q-76 0 -76 65q0 62 33 92q28 25 68 25q75 0 75 -66z" />
    <glyph glyph-name="cedilla" unicode="&#xb8;" horiz-adv-x="403" 
d="M217 -129q172 -2 172 -147q0 -113 -64.5 -160t-193.5 -47q-68 0 -100 14q-19 5 -19 25q0 18 8 38q6 23 31 23q7 0 27 -4q40 -8 69 -8q66 0 97.5 21.5t31.5 80.5q0 76 -90 76q-7 0 -24 -1t-19 -1q-32 0 -32 33q0 15 14 55l53 151h86z" />
    <glyph glyph-name="onesuperior" unicode="&#xb9;" 
d="M670 860h-359q-22 0 -22 23q0 8 8 39q5 15 13 20.5t28 5.5h117l149 643l-137 -53q-15 -6 -27 -6q-13 0 -16 10q-14 35 -14 51q0 15 20 25l193 76q23 10 41 10h36q23 0 23 -18q0 -13 -4 -29l-162 -709h125q29 0 29 -22q0 -18 -6 -41q-5 -14 -11.5 -19.5t-23.5 -5.5z" />
    <glyph glyph-name="ordmasculine" unicode="&#xba;" horiz-adv-x="731" 
d="M743 985q0 -78 -26.5 -188.5t-75.5 -175.5q-74 -97 -250 -97q-57 0 -99 8.5t-79 29.5t-56.5 62.5t-19.5 102.5q0 87 30.5 194t88.5 169q81 86 227 86q46 0 80 -3.5t70 -15t58.5 -31.5t37 -56t14.5 -85zM639 967q0 71 -41.5 93.5t-124.5 22.5q-97 0 -145 -59
q-38 -46 -62 -138.5t-24 -148.5q0 -72 39.5 -97.5t121.5 -25.5q117 0 164 72q29 48 50.5 140t21.5 141z" />
    <glyph glyph-name="guillemotright" unicode="&#xbb;" horiz-adv-x="952" 
d="M764 541l-191 346q-12 22 -12 41q0 9 9 15.5t20 6.5h35q5 0 10 -1t8 -2t6.5 -4t5.5 -4.5t5.5 -6.5t4.5 -7t5.5 -9t5.5 -9l190 -325q13 -23 13 -45q0 -19 -23 -45l-330 -314q-20 -19 -26.5 -24.5t-19.5 -12t-27 -6.5h-43q-23 0 -23 23q0 10 33 47zM393 541l-190 346
q-13 23 -13 41q0 9 9 15.5t20 6.5h35q5 0 10 -1t8 -2t6.5 -4t5.5 -4.5t5.5 -6.5t4.5 -7t5.5 -9t5.5 -9l191 -325q12 -21 12 -45q0 -19 -23 -45l-331 -314q-19 -18 -26.5 -24.5t-20 -12.5t-25.5 -6h-43q-23 0 -23 23q0 10 33 47z" />
    <glyph glyph-name="onequarter" unicode="&#xbc;" horiz-adv-x="1724" 
d="M496 -33q-14 -20 -24 -26.5t-28 -6.5h-30q-21 0 -21 21q0 11 19 41l921 1415q14 25 26.5 35t31.5 10h30q25 0 25 -20q0 -15 -29 -56zM618 541h-358q-22 0 -22 22q0 8 8 39q5 15 13 21t28 6h116l150 643l-137 -53q-17 -7 -27 -7q-12 0 -16 11q-15 37 -15 51t21 24l192 76
q23 10 41 10h37q23 0 23 -18q0 -13 -4 -29l-162 -708h125q28 0 28 -23q0 -18 -6 -41q-5 -14 -11.5 -19t-23.5 -5zM1501 0h-315q-25 0 -25 23q0 7 8 38q5 15 13 21t28 6h109l35 152h-375q-16 0 -21.5 5t-5.5 17q0 21 6 45q2 9 23 35l393 473q26 29 49 29h50q18 0 18 -15
q0 -13 -18 -34q-80 -97 -390 -467h289l51 207q5 26 29 26h43q25 0 25 -16q0 -4 -7 -39l-43 -178h123q27 0 27 -15q0 -3 -1.5 -10t-5 -20.5t-5.5 -24.5q-5 -18 -31 -18h-127l-35 -152h98q29 0 29 -22q0 -8 -8 -41q-6 -25 -33 -25z" />
    <glyph glyph-name="onehalf" unicode="&#xbd;" horiz-adv-x="1724" 
d="M487 -33q-14 -20 -23.5 -26.5t-27.5 -6.5h-30q-21 0 -21 21q0 12 18 41l922 1415q14 25 26 35t31 10h31q25 0 25 -20q0 -15 -29 -56zM606 541h-358q-23 0 -23 22q0 8 8 39q5 15 13 21t28 6h117l150 643l-138 -53q-17 -7 -26 -7q-13 0 -17 11q-14 35 -14 51q0 14 21 24
l192 76q23 10 41 10h37q22 0 22 -18q0 -13 -4 -29l-161 -708h124q29 0 29 -23q0 -18 -6 -41q-5 -14 -11.5 -19t-23.5 -5zM1546 0h-565q-23 0 -23 18q0 14 7 43q7 19 22 29q297 195 430 313q123 107 123 234q0 64 -37.5 98.5t-130.5 34.5q-73 0 -151 -20q-10 -2 -26 -7.5
t-21 -5.5q-15 0 -21 15q-8 36 -8 43q0 19 39 30q119 35 219 35q135 0 189.5 -55.5t54.5 -151.5q0 -92 -32 -156.5t-104 -129.5q-183 -159 -378 -277q72 2 366 2l29 117q6 24 33 24h34q21 0 21 -18q0 -12 -33 -184q-5 -31 -37 -31z" />
    <glyph glyph-name="threequarters" unicode="&#xbe;" horiz-adv-x="1724" 
d="M557 -33q-14 -20 -23.5 -26.5t-27.5 -6.5h-31q-20 0 -20 21q0 12 18 41l922 1415q14 25 26 35t31 10h31q24 0 24 -20q0 -16 -28 -56zM627 985q143 -16 143 -160q0 -142 -76 -215q-86 -86 -291 -86q-115 0 -192 25q-27 11 -27 29q0 8 17 51q8 12 22 12q3 0 43 -10
q74 -19 150 -19q154 0 205 60q47 52 47 149q0 58 -45 86.5t-150 28.5h-29q-22 0 -22 20q0 27 6 45q6 25 31 25h33q117 0 174 47q53 40 53 133q0 53 -38 79t-120 26q-93 0 -149 -21q-30 -10 -45 -10t-19 14q-8 24 -8 41q0 20 39 33q101 33 211 33q129 0 180 -45t51 -131
q0 -102 -45.5 -159.5t-148.5 -80.5zM1538 0h-315q-25 0 -25 23q0 7 8 38q5 15 13 21t28 6h109l35 152h-375q-16 0 -21.5 5t-5.5 17q0 21 6 45q2 9 23 35l393 473q26 29 49 29h49q19 0 19 -15q0 -12 -19 -34q-163 -197 -389 -467h289l51 207q5 26 29 26h43q24 0 24 -16
q0 -9 -6 -39l-43 -178h123q27 0 27 -15q0 -3 -1.5 -10t-5 -20.5t-5.5 -24.5q-5 -18 -31 -18h-127l-35 -152h98q29 0 29 -22q0 -8 -8 -41q-6 -25 -33 -25z" />
    <glyph glyph-name="questiondown" unicode="&#xbf;" horiz-adv-x="817" 
d="M471 582h39q27 0 27 -33q0 -17 -19 -109q-22 -111 -65 -168.5t-154 -119.5q-56 -32 -94 -60.5t-73 -67t-52 -88t-17 -110.5q0 -79 50 -127.5t159 -48.5q127 0 236 37q32 8 33 8q15 0 22 -23q10 -23 10 -45t-26 -35q-130 -53 -299 -53q-84 0 -147 21t-98 58t-52 80.5
t-17 94.5q0 143 65.5 237t211.5 183q108 65 144 103t55 120q4 19 8 38.5t8.5 42.5t7.5 36q11 29 37 29zM446 913q0 63 37 95q22 22 62 22q78 0 78 -65q0 -61 -35 -93q-24 -24 -66 -24q-76 0 -76 65z" />
    <glyph glyph-name="Agrave" unicode="&#xc0;" horiz-adv-x="1363" 
d="M324 0h-365q-33 0 -33 23q0 4 1.5 10t4.5 19t5 24q4 17 14 22.5t31 5.5h86l755 1311q21 37 51 37h48q20 0 30 -8.5t13 -30.5l196 -1309h86q33 0 33 -22q0 -20 -8 -53q-6 -18 -14 -23.5t-29 -5.5h-361q-30 0 -30 23q0 14 8 53q4 17 14 22.5t31 5.5h147l-57 383h-553
l-225 -383h141q33 0 33 -22q0 -20 -8 -53q-6 -18 -15 -23.5t-30 -5.5zM868 1280q-153 -280 -385 -686h484q-48 324 -99 686zM907 1581l-282 223q-23 18 -23 37q0 9 8.5 16t20.5 7h88q32 0 57 -25l250 -223q18 -15 18 -33q0 -9 -7 -15.5t-19 -6.5h-53q-29 0 -58 20z" />
    <glyph glyph-name="Aacute" unicode="&#xc1;" horiz-adv-x="1363" 
d="M324 0h-365q-33 0 -33 23q0 4 1.5 10t4.5 19t5 24q4 17 14 22.5t31 5.5h86l755 1311q21 37 51 37h48q20 0 30 -8.5t13 -30.5l196 -1309h86q33 0 33 -22q0 -20 -8 -53q-6 -18 -14 -23.5t-29 -5.5h-361q-30 0 -30 23q0 14 8 53q4 17 14 22.5t31 5.5h147l-57 383h-553
l-225 -383h141q33 0 33 -22q0 -20 -8 -53q-6 -18 -15 -23.5t-30 -5.5zM868 1280q-153 -280 -385 -686h484q-48 324 -99 686zM889 1563q-30 -21 -60 -21h-59q-11 0 -18 7.5t-7 15.5q0 16 19 32l309 226q28 22 55 22h99q12 0 20 -6.5t8 -15.5q0 -19 -22 -37z" />
    <glyph glyph-name="Acircumflex" unicode="&#xc2;" horiz-adv-x="1363" 
d="M324 0h-365q-33 0 -33 23q0 4 1.5 10t4.5 19t5 24q4 17 14 22.5t31 5.5h86l755 1311q21 37 51 37h48q20 0 30 -8.5t13 -30.5l196 -1309h86q33 0 33 -22q0 -20 -8 -53q-6 -18 -14 -23.5t-29 -5.5h-361q-30 0 -30 23q0 14 8 53q4 17 14 22.5t31 5.5h147l-57 383h-553
l-225 -383h141q33 0 33 -22q0 -20 -8 -53q-6 -18 -15 -23.5t-30 -5.5zM868 1280q-153 -280 -385 -686h484q-48 324 -99 686zM676 1561h-53q-23 0 -23 22q0 16 18 31l252 209q35 28 64 28h47q28 0 49 -24l180 -213q11 -15 11 -27q0 -26 -33 -26h-37q-22 0 -51 26l-158 148
l-209 -148q-39 -26 -57 -26z" />
    <glyph glyph-name="Atilde" unicode="&#xc3;" horiz-adv-x="1363" 
d="M324 0h-365q-33 0 -33 23q0 4 1.5 10t4.5 19t5 24q4 17 14 22.5t31 5.5h86l755 1311q21 37 51 37h48q20 0 30 -8.5t13 -30.5l196 -1309h86q33 0 33 -22q0 -20 -8 -53q-6 -18 -14 -23.5t-29 -5.5h-361q-30 0 -30 23q0 14 8 53q4 17 14 22.5t31 5.5h147l-57 383h-553
l-225 -383h141q33 0 33 -22q0 -20 -8 -53q-6 -18 -15 -23.5t-30 -5.5zM868 1280q-153 -280 -385 -686h484q-48 324 -99 686zM655 1591h-32q-12 0 -19.5 6t-7.5 15q0 20 16 47q42 79 85.5 116t105.5 37q41 0 145 -59q83 -49 123 -49q29 0 49 16t49 68q21 35 43 35h35
q29 0 29 -21q0 -18 -12 -45q-41 -89 -87 -128.5t-106 -39.5q-34 0 -66.5 12t-89.5 44q-90 51 -122 51q-26 0 -47.5 -17t-45.5 -61q-12 -27 -45 -27z" />
    <glyph glyph-name="Adieresis" unicode="&#xc4;" horiz-adv-x="1363" 
d="M324 0h-365q-33 0 -33 23q0 4 1.5 10t4.5 19t5 24q4 17 14 22.5t31 5.5h86l755 1311q21 37 51 37h48q20 0 30 -8.5t13 -30.5l196 -1309h86q33 0 33 -22q0 -20 -8 -53q-6 -18 -14 -23.5t-29 -5.5h-361q-30 0 -30 23q0 14 8 53q4 17 14 22.5t31 5.5h147l-57 383h-553
l-225 -383h141q33 0 33 -22q0 -20 -8 -53q-6 -18 -15 -23.5t-30 -5.5zM868 1280q-153 -280 -385 -686h484q-48 324 -99 686zM823 1700q0 -61 -32 -90q-25 -21 -62 -21q-72 0 -72 64q0 61 29 86q25 22 66 22q71 0 71 -61zM1200 1700q0 -60 -33 -90q-25 -21 -61 -21
q-72 0 -72 64q0 59 31 86q22 22 65 22q70 0 70 -61z" />
    <glyph glyph-name="Aring" unicode="&#xc5;" horiz-adv-x="1363" 
d="M324 0h-365q-33 0 -33 23q0 4 1.5 10t4.5 19t5 24q4 17 14 22.5t31 5.5h86l755 1311q21 37 51 37h48q20 0 30 -8.5t13 -30.5l196 -1309h86q33 0 33 -22q0 -20 -8 -53q-6 -18 -14 -23.5t-29 -5.5h-361q-30 0 -30 23q0 14 8 53q4 17 14 22.5t31 5.5h147l-57 383h-553
l-225 -383h141q33 0 33 -22q0 -20 -8 -53q-6 -18 -15 -23.5t-30 -5.5zM868 1280q-153 -280 -385 -686h484q-48 324 -99 686zM1135 1712q0 -94 -55 -149.5t-150 -55.5q-77 0 -122.5 44.5t-45.5 123.5q0 89 56 145t147 56q78 0 124 -43.5t46 -120.5zM1063 1710
q0 50 -28.5 77.5t-78.5 27.5q-53 0 -90 -36t-37 -98q0 -54 29 -83t80 -29q56 0 90.5 35.5t34.5 105.5z" />
    <glyph glyph-name="AE" unicode="&#xc6;" horiz-adv-x="2013" 
d="M346 0h-389q-33 0 -33 23q0 5 10 53q4 17 14.5 22.5t31.5 5.5h92l1073 1237h-152q-30 0 -30 23q0 15 10 51q5 17 14 24t29 7h985q20 0 27.5 -7t7.5 -22q0 -11 -39 -233q-5 -29 -33 -29h-49q-17 0 -23 6.5t-6 20.5q0 6 19 159h-514l-115 -534h489q35 0 35 -25
q0 -14 -10 -53q-7 -31 -45 -31h-492l-125 -594h605l41 154q10 33 34 33h50q28 0 28 -27q0 -18 -45 -217q-5 -25 -15 -36t-36 -11h-916q-30 0 -30 23q0 14 8 53q4 17 14 22.5t31 5.5h107l86 398h-531l-336 -398h142q32 0 32 -22q0 -20 -8 -53q-6 -18 -14 -23.5t-29 -5.5z
M649 610h465l154 719q-118 -148 -619 -719z" />
    <glyph glyph-name="Ccedilla" unicode="&#xc7;" horiz-adv-x="1253" 
d="M594 -135q178 -2 178 -152q0 -116 -67.5 -165.5t-200.5 -49.5q-64 0 -103 13q-20 5 -20 26q0 19 8 43q6 25 33 25q11 0 29 -6q45 -9 69 -9q68 0 101.5 23t33.5 84q0 78 -94 78q-8 0 -25 -1t-20 -1q-33 0 -33 34q0 5 17 58l39 112q-381 37 -381 453q0 132 26 285
t86.5 312.5t143.5 256.5q87 99 208.5 144t303.5 45q166 0 309 -33q39 -8 39 -41q0 -21 -39 -230q-5 -28 -33 -28h-49q-27 0 -27 28q0 3 1 13t5.5 53.5t10.5 103.5q-102 23 -275 23q-225 0 -360 -148q-104 -117 -164.5 -346t-60.5 -422q0 -78 17.5 -140.5t56 -114
t107.5 -79.5t165 -28q120 0 199 12t157 37q12 4 25 9t20.5 7.5t13.5 2.5q10 0 16.5 -7t12.5 -24q8 -21 8 -41q0 -24 -51 -41q-173 -63 -403 -66z" />
    <glyph glyph-name="Egrave" unicode="&#xc8;" horiz-adv-x="1210" 
d="M985 0h-915q-31 0 -31 23q0 14 10 53q4 17 13 22.5t30 5.5h109l268 1237h-125q-31 0 -31 21q0 10 9 53q8 31 45 31h833q19 0 26 -7t7 -22q0 -5 -39 -233q-5 -29 -33 -29h-49q-17 0 -23 6.5t-6 20.5q0 1 19 159h-512l-115 -532h502q35 0 35 -25q0 -12 -11 -55
q-7 -31 -45 -31h-503l-127 -594h602l41 154q7 33 35 33h49q28 0 28 -27q0 -12 -45 -217q-4 -17 -6 -23.5t-7 -13.5t-13.5 -8.5t-24.5 -1.5zM823 1581l-282 223q-23 18 -23 37q0 9 8.5 16t20.5 7h88q32 0 57 -25l250 -223q19 -16 19 -33q0 -8 -7 -15t-20 -7h-53q-29 0 -58 20
z" />
    <glyph glyph-name="Eacute" unicode="&#xc9;" horiz-adv-x="1210" 
d="M985 0h-915q-31 0 -31 23q0 14 10 53q4 17 13 22.5t30 5.5h109l268 1237h-125q-31 0 -31 21q0 10 9 53q8 31 45 31h833q19 0 26 -7t7 -22q0 -5 -39 -233q-5 -29 -33 -29h-49q-17 0 -23 6.5t-6 20.5q0 1 19 159h-512l-115 -532h502q35 0 35 -25q0 -12 -11 -55
q-7 -31 -45 -31h-503l-127 -594h602l41 154q7 33 35 33h49q28 0 28 -27q0 -12 -45 -217q-4 -17 -6 -23.5t-7 -13.5t-13.5 -8.5t-24.5 -1.5zM840 1563q-30 -21 -60 -21h-59q-11 0 -18 7.5t-7 15.5q0 16 19 32l309 226q28 22 55 22h99q12 0 20 -6.5t8 -15.5q0 -19 -22 -37z
" />
    <glyph glyph-name="Ecircumflex" unicode="&#xca;" horiz-adv-x="1210" 
d="M985 0h-915q-31 0 -31 23q0 14 10 53q4 17 13 22.5t30 5.5h109l268 1237h-125q-31 0 -31 21q0 10 9 53q8 31 45 31h833q19 0 26 -7t7 -22q0 -5 -39 -233q-5 -29 -33 -29h-49q-17 0 -23 6.5t-6 20.5q0 1 19 159h-512l-115 -532h502q35 0 35 -25q0 -12 -11 -55
q-7 -31 -45 -31h-503l-127 -594h602l41 154q7 33 35 33h49q28 0 28 -27q0 -12 -45 -217q-4 -17 -6 -23.5t-7 -13.5t-13.5 -8.5t-24.5 -1.5zM602 1561h-53q-23 0 -23 22q0 15 19 31l252 209q35 28 63 28h47q28 0 49 -24l181 -213q10 -13 10 -27q0 -26 -33 -26h-37
q-22 0 -51 26l-158 148l-209 -148q-39 -26 -57 -26z" />
    <glyph glyph-name="Edieresis" unicode="&#xcb;" horiz-adv-x="1210" 
d="M985 0h-915q-31 0 -31 23q0 14 10 53q4 17 13 22.5t30 5.5h109l268 1237h-125q-31 0 -31 21q0 10 9 53q8 31 45 31h833q19 0 26 -7t7 -22q0 -5 -39 -233q-5 -29 -33 -29h-49q-17 0 -23 6.5t-6 20.5q0 1 19 159h-512l-115 -532h502q35 0 35 -25q0 -12 -11 -55
q-7 -31 -45 -31h-503l-127 -594h602l41 154q7 33 35 33h49q28 0 28 -27q0 -12 -45 -217q-4 -17 -6 -23.5t-7 -13.5t-13.5 -8.5t-24.5 -1.5zM741 1700q0 -61 -32 -90q-25 -21 -62 -21q-72 0 -72 64q0 61 29 86q25 22 66 22q71 0 71 -61zM1118 1700q0 -60 -33 -90
q-25 -21 -61 -21q-72 0 -72 64q0 59 31 86q22 22 66 22q34 0 51.5 -13.5t17.5 -47.5z" />
    <glyph glyph-name="Igrave" unicode="&#xcc;" horiz-adv-x="677" 
d="M434 0h-364q-31 0 -31 23q0 17 10 53q4 17 13 22.5t30 5.5h109l266 1237h-123q-31 0 -31 21q0 10 9 53q8 31 45 31h360q33 0 33 -25q0 -24 -8 -51q-4 -17 -14 -23t-29 -6h-117l-266 -1237h129q17 0 23.5 -5t6.5 -17q0 -20 -8 -53q-4 -18 -13 -23.5t-30 -5.5zM571 1581
l-282 223q-23 18 -23 37q0 9 8.5 16t20.5 7h88q32 0 57 -25l250 -223q19 -16 19 -33q0 -8 -7 -15t-20 -7h-53q-29 0 -58 20z" />
    <glyph glyph-name="Iacute" unicode="&#xcd;" horiz-adv-x="677" 
d="M434 0h-364q-31 0 -31 23q0 17 10 53q4 17 13 22.5t30 5.5h109l266 1237h-123q-31 0 -31 21q0 10 9 53q8 31 45 31h360q33 0 33 -25q0 -24 -8 -51q-4 -17 -14 -23t-29 -6h-117l-266 -1237h129q17 0 23.5 -5t6.5 -17q0 -20 -8 -53q-4 -18 -13 -23.5t-30 -5.5zM528 1581
q-29 -20 -59 -20h-59q-11 0 -18 7t-7 15q0 18 18 33l310 225q30 23 55 23h98q12 0 20.5 -7t8.5 -16q0 -19 -23 -37z" />
    <glyph glyph-name="Icircumflex" unicode="&#xce;" horiz-adv-x="677" 
d="M434 0h-364q-31 0 -31 23q0 17 10 53q4 17 13 22.5t30 5.5h109l266 1237h-123q-31 0 -31 21q0 10 9 53q8 31 45 31h360q33 0 33 -25q0 -24 -8 -51q-4 -17 -14 -23t-29 -6h-117l-266 -1237h129q17 0 23.5 -5t6.5 -17q0 -20 -8 -53q-4 -18 -13 -23.5t-30 -5.5zM346 1561
h-53q-23 0 -23 22q0 15 19 31l252 209q35 28 63 28h47q28 0 49 -24l181 -213q10 -13 10 -27q0 -26 -33 -26h-37q-22 0 -51 26l-158 148l-209 -148q-39 -26 -57 -26z" />
    <glyph glyph-name="Idieresis" unicode="&#xcf;" horiz-adv-x="677" 
d="M434 0h-364q-31 0 -31 23q0 17 10 53q4 17 13 22.5t30 5.5h109l266 1237h-123q-31 0 -31 21q0 10 9 53q8 31 45 31h360q33 0 33 -25q0 -24 -8 -51q-4 -17 -14 -23t-29 -6h-117l-266 -1237h129q17 0 23.5 -5t6.5 -17q0 -20 -8 -53q-4 -18 -13 -23.5t-30 -5.5zM496 1700
q0 -60 -33 -90q-24 -21 -62 -21q-71 0 -71 64q0 62 28 86q25 22 66 22q72 0 72 -61zM872 1700q0 -61 -32 -90q-24 -21 -62 -21q-71 0 -71 64q0 60 30 86q22 22 66 22q34 0 51.5 -13.5t17.5 -47.5z" />
    <glyph glyph-name="Eth" unicode="&#xd0;" horiz-adv-x="1458" 
d="M498 0h-428q-31 0 -31 23q0 17 10 53q4 17 13 22.5t30 5.5h109l127 596h-201q-29 0 -29 23q0 7 11 53q5 18 12 24.5t26 6.5h203l117 534h-123q-31 0 -31 21q0 10 9 53q8 31 45 31h434q229 0 360 -41q126 -41 192 -150t66 -272q0 -113 -13 -220.5t-47.5 -222.5t-87 -208
t-139.5 -169.5t-198 -113.5q-76 -25 -203.5 -37t-232.5 -12zM328 104h207q257 0 383 54q100 42 175.5 132t116.5 204.5t60.5 229.5t19.5 230q0 254 -160 336q-99 51 -348 51h-192l-115 -534h320q30 0 30 -25q0 -18 -12 -55q-4 -17 -12.5 -22t-26.5 -5h-321z" />
    <glyph glyph-name="Ntilde" unicode="&#xd1;" horiz-adv-x="1503" 
d="M758 1591h-33q-12 0 -19.5 6t-7.5 15q0 19 17 47q42 79 85 116t105 37q42 0 146 -59q83 -49 123 -49q29 0 49 16t49 68q21 35 43 35h35q28 0 28 -21q0 -18 -12 -45q-41 -89 -86.5 -128.5t-105.5 -39.5q-34 0 -66.5 12t-89.5 44q-90 51 -123 51q-26 0 -47 -17t-45 -61
q-12 -27 -45 -27zM326 104h129q17 0 23.5 -5t6.5 -17q0 -20 -8 -53q-4 -18 -13 -23.5t-30 -5.5h-364q-31 0 -31 23q0 17 10 53q4 17 13 22.5t30 5.5h113l262 1237h-123q-31 0 -31 21q0 10 9 51q9 33 45 33h204q27 0 35 -23q404 -958 498 -1204q81 410 235 1122h-131
q-30 0 -30 21q0 14 8 53q8 31 45 31h360q33 0 33 -25q0 -19 -10 -53q-4 -17 -13 -22t-30 -5h-111l-276 -1306q-7 -41 -45 -41h-35q-35 0 -49 35q-446 1077 -492 1204q-59 -307 -237 -1129z" />
    <glyph glyph-name="Ograve" unicode="&#xd2;" horiz-adv-x="1398" 
d="M1358 1047q0 -129 -25.5 -289.5t-86.5 -334t-144 -271.5q-82 -95 -192.5 -137t-266.5 -42q-91 0 -161.5 11.5t-133.5 41t-104 78t-64.5 125t-23.5 179.5q0 139 27.5 300t94 331.5t158.5 269.5q147 155 430 155q95 0 164.5 -9t134.5 -36t105 -72.5t64 -120.5t24 -179z
M1231 1030q0 97 -21 160t-69 99.5t-115.5 50.5t-171.5 14q-227 0 -336 -125q-109 -123 -171 -366t-62 -441q0 -99 21.5 -164.5t70 -104t116.5 -54t169 -15.5q123 0 206 32t146 115q98 126 157.5 374.5t59.5 424.5zM924 1581l-283 223q-23 18 -23 37q0 9 8.5 16t20.5 7h88
q33 0 58 -25l249 -223q19 -16 19 -33q0 -8 -7 -15t-20 -7h-53q-28 0 -57 20z" />
    <glyph glyph-name="Oacute" unicode="&#xd3;" horiz-adv-x="1398" 
d="M1358 1047q0 -129 -25.5 -289.5t-86.5 -334t-144 -271.5q-82 -95 -192.5 -137t-266.5 -42q-91 0 -161.5 11.5t-133.5 41t-104 78t-64.5 125t-23.5 179.5q0 139 27.5 300t94 331.5t158.5 269.5q147 155 430 155q95 0 164.5 -9t134.5 -36t105 -72.5t64 -120.5t24 -179z
M1231 1030q0 97 -21 160t-69 99.5t-115.5 50.5t-171.5 14q-227 0 -336 -125q-109 -123 -171 -366t-62 -441q0 -99 21.5 -164.5t70 -104t116.5 -54t169 -15.5q123 0 206 32t146 115q98 126 157.5 374.5t59.5 424.5zM938 1581q-29 -20 -59 -20h-60q-11 0 -17.5 7t-6.5 15
q0 18 18 33l309 225q30 23 56 23h98q12 0 20.5 -7t8.5 -16q0 -19 -23 -37z" />
    <glyph glyph-name="Ocircumflex" unicode="&#xd4;" horiz-adv-x="1398" 
d="M1358 1047q0 -129 -25.5 -289.5t-86.5 -334t-144 -271.5q-82 -95 -192.5 -137t-266.5 -42q-91 0 -161.5 11.5t-133.5 41t-104 78t-64.5 125t-23.5 179.5q0 139 27.5 300t94 331.5t158.5 269.5q147 155 430 155q95 0 164.5 -9t134.5 -36t105 -72.5t64 -120.5t24 -179z
M1231 1030q0 97 -21 160t-69 99.5t-115.5 50.5t-171.5 14q-227 0 -336 -125q-109 -123 -171 -366t-62 -441q0 -99 21.5 -164.5t70 -104t116.5 -54t169 -15.5q123 0 206 32t146 115q98 126 157.5 374.5t59.5 424.5zM686 1561h-53q-23 0 -23 22q0 15 19 31l252 209
q35 28 63 28h47q28 0 49 -24l181 -213q10 -13 10 -27q0 -26 -33 -26h-37q-22 0 -51 26l-158 148l-209 -148q-39 -26 -57 -26z" />
    <glyph glyph-name="Otilde" unicode="&#xd5;" horiz-adv-x="1398" 
d="M1358 1047q0 -129 -25.5 -289.5t-86.5 -334t-144 -271.5q-82 -95 -192.5 -137t-266.5 -42q-91 0 -161.5 11.5t-133.5 41t-104 78t-64.5 125t-23.5 179.5q0 139 27.5 300t94 331.5t158.5 269.5q147 155 430 155q95 0 164.5 -9t134.5 -36t105 -72.5t64 -120.5t24 -179z
M1231 1030q0 97 -21 160t-69 99.5t-115.5 50.5t-171.5 14q-227 0 -336 -125q-109 -123 -171 -366t-62 -441q0 -99 21.5 -164.5t70 -104t116.5 -54t169 -15.5q123 0 206 32t146 115q98 126 157.5 374.5t59.5 424.5zM686 1591h-33q-26 0 -26 21q0 20 16 47q42 79 85.5 116
t105.5 37q41 0 145 -59q83 -49 123 -49q29 0 49 16t49 68q21 35 43 35h35q29 0 29 -21q0 -16 -13 -45q-41 -89 -86.5 -128.5t-105.5 -39.5q-34 0 -66.5 12t-89.5 44q-90 51 -123 51q-26 0 -47 -17t-45 -61q-12 -27 -45 -27z" />
    <glyph glyph-name="Odieresis" unicode="&#xd6;" horiz-adv-x="1398" 
d="M1358 1047q0 -129 -25.5 -289.5t-86.5 -334t-144 -271.5q-82 -95 -192.5 -137t-266.5 -42q-91 0 -161.5 11.5t-133.5 41t-104 78t-64.5 125t-23.5 179.5q0 139 27.5 300t94 331.5t158.5 269.5q147 155 430 155q95 0 164.5 -9t134.5 -36t105 -72.5t64 -120.5t24 -179z
M1231 1030q0 97 -21 160t-69 99.5t-115.5 50.5t-171.5 14q-227 0 -336 -125q-109 -123 -171 -366t-62 -441q0 -99 21.5 -164.5t70 -104t116.5 -54t169 -15.5q123 0 206 32t146 115q98 126 157.5 374.5t59.5 424.5zM848 1700q0 -60 -33 -90q-25 -21 -61 -21q-72 0 -72 64
q0 61 29 86q25 22 65 22q72 0 72 -61zM1225 1700q0 -60 -33 -90q-24 -21 -62 -21q-71 0 -71 64q0 59 31 86q22 22 65 22q70 0 70 -61z" />
    <glyph glyph-name="multiply" unicode="&#xd7;" horiz-adv-x="1435" 
d="M1161 274q10 -8 10 -24q0 -13 -12 -25l-31 -30q-14 -11 -26 -11t-23 11l-305 331l-368 -336q-8 -10 -23 -10q-13 0 -23 13l-22 28q-12 12 -12 23q0 10 16 26l367 338l-308 336q-10 10 -10 23q0 11 17 28l28 25q10 10 25 10q12 0 22 -10l305 -336l377 338q7 10 21 10
t24 -12l23 -29q10 -15 10 -20q0 -7 -12 -27l-381 -338z" />
    <glyph glyph-name="Oslash" unicode="&#xd8;" horiz-adv-x="1398" 
d="M176 -20q-17 -17 -29 -17q-14 0 -41 27q-12 10 -12 22q0 13 12 25l103 119q-53 95 -53 252q0 139 27.5 300t94 331.5t158.5 269.5q147 155 430 155q131 0 223 -20t152 -72l90 107q17 20 29 20q14 0 24 -10q31 -24 31 -37q-3 -16 -12 -25l-105 -122q60 -94 60 -258
q0 -129 -25.5 -289.5t-86.5 -334t-144 -271.5q-82 -95 -192.5 -137t-266.5 -42q-265 0 -379 109zM1231 1030q0 99 -25 166l-858 -1014q43 -53 119 -75.5t195 -22.5q123 0 206 32t146 115q98 126 157.5 374.5t59.5 424.5zM285 422q0 -92 18 -154l854 1006q-80 80 -303 80
q-227 0 -336 -125q-109 -123 -171 -366t-62 -441z" />
    <glyph glyph-name="Ugrave" unicode="&#xd9;" horiz-adv-x="1484" 
d="M1257 578q-38 -182 -64 -269t-73 -153q-69 -99 -180 -142t-285 -43q-413 0 -413 301q0 109 41 301l163 768h-110q-33 0 -33 21q0 17 10 53q8 31 45 31h361q33 0 33 -25q0 -16 -11 -53q-4 -17 -13 -22t-30 -5h-127l-176 -819q-24 -123 -24 -221q0 -217 307 -217
q109 0 194.5 26.5t141.5 100.5q62 81 110 301l179 829h-144q-31 0 -31 21q0 10 9 53q8 31 45 31h360q31 0 31 -25q0 -17 -8 -53q-4 -17 -13 -22t-30 -5h-99zM938 1581l-283 223q-22 18 -22 37q0 9 8.5 16t20.5 7h88q32 0 57 -25l250 -223q18 -15 18 -33q0 -9 -6.5 -15.5
t-19.5 -6.5h-54q-28 0 -57 20z" />
    <glyph glyph-name="Uacute" unicode="&#xda;" horiz-adv-x="1484" 
d="M1257 578q-38 -182 -64 -269t-73 -153q-69 -99 -180 -142t-285 -43q-413 0 -413 301q0 109 41 301l163 768h-110q-33 0 -33 21q0 17 10 53q8 31 45 31h361q33 0 33 -25q0 -16 -11 -53q-4 -17 -13 -22t-30 -5h-127l-176 -819q-24 -123 -24 -221q0 -217 307 -217
q109 0 194.5 26.5t141.5 100.5q62 81 110 301l179 829h-144q-31 0 -31 21q0 10 9 53q8 31 45 31h360q31 0 31 -25q0 -17 -8 -53q-4 -17 -13 -22t-30 -5h-99zM944 1581q-29 -20 -59 -20h-60q-11 0 -17.5 7t-6.5 15q0 18 18 33l309 225q30 23 56 23h98q12 0 20.5 -7t8.5 -16
q0 -19 -23 -37z" />
    <glyph glyph-name="Ucircumflex" unicode="&#xdb;" horiz-adv-x="1484" 
d="M1257 578q-38 -182 -64 -269t-73 -153q-69 -99 -180 -142t-285 -43q-413 0 -413 301q0 109 41 301l163 768h-110q-33 0 -33 21q0 17 10 53q8 31 45 31h361q33 0 33 -25q0 -16 -11 -53q-4 -17 -13 -22t-30 -5h-127l-176 -819q-24 -123 -24 -221q0 -217 307 -217
q109 0 194.5 26.5t141.5 100.5q62 81 110 301l179 829h-144q-31 0 -31 21q0 10 9 53q8 31 45 31h360q31 0 31 -25q0 -17 -8 -53q-4 -17 -13 -22t-30 -5h-99zM741 1561h-53q-22 0 -22 22q0 16 18 31l252 209q35 28 63 28h48q28 0 49 -24l180 -213q10 -13 10 -27
q0 -26 -33 -26h-36q-23 0 -52 26l-157 148l-209 -148q-39 -26 -58 -26z" />
    <glyph glyph-name="Udieresis" unicode="&#xdc;" horiz-adv-x="1484" 
d="M1257 578q-38 -182 -64 -269t-73 -153q-69 -99 -180 -142t-285 -43q-413 0 -413 301q0 109 41 301l163 768h-110q-33 0 -33 21q0 17 10 53q8 31 45 31h361q33 0 33 -25q0 -16 -11 -53q-4 -17 -13 -22t-30 -5h-127l-176 -819q-24 -123 -24 -221q0 -217 307 -217
q109 0 194.5 26.5t141.5 100.5q62 81 110 301l179 829h-144q-31 0 -31 21q0 10 9 53q8 31 45 31h360q31 0 31 -25q0 -17 -8 -53q-4 -17 -13 -22t-30 -5h-99zM887 1700q0 -60 -33 -90q-24 -21 -61 -21q-72 0 -72 64q0 61 29 86q25 22 65 22q72 0 72 -61zM1264 1700
q0 -60 -33 -90q-25 -21 -62 -21q-71 0 -71 64q0 60 30 86q22 22 66 22q70 0 70 -61z" />
    <glyph glyph-name="Yacute" unicode="&#xdd;" horiz-adv-x="1327" 
d="M1462 1341h-112l-588 -702l-117 -535h127q33 0 33 -22q0 -18 -8 -51q-6 -19 -14.5 -25t-28.5 -6h-367q-31 0 -31 25q0 7 9 51q4 17 14 22.5t31 5.5h114l113 533l-291 704h-115q-32 0 -32 21q0 5 10 53q8 31 45 31h358q33 0 33 -25q0 -17 -8 -53q-6 -17 -14 -22t-29 -5
h-111q191 -473 234 -591q143 190 479 591h-98q-33 0 -33 21q0 5 10 53q8 31 45 31h363q30 0 30 -25q0 -17 -8 -53q-4 -17 -13 -22t-30 -5zM848 1581q-29 -20 -60 -20h-59q-11 0 -17.5 7t-6.5 15q0 18 18 33l309 225q30 23 55 23h99q12 0 20 -7t8 -16q0 -19 -22 -37z" />
    <glyph glyph-name="Thorn" unicode="&#xde;" horiz-adv-x="1302" 
d="M709 1341h-119l-43 -202h209q227 0 340 -52q147 -71 147 -251q0 -189 -83 -318t-259 -174q-100 -27 -303 -27h-227l-45 -215h129q17 0 23.5 -5t6.5 -17q0 -18 -8 -51q-4 -18 -13 -23.5t-30 -5.5h-364q-31 0 -31 23q0 15 10 51q4 17 13 22.5t30 5.5h111l264 1239h-123
q-31 0 -31 21q0 10 9 53q8 31 45 31h360q33 0 33 -25q0 -17 -8 -53q-6 -17 -14.5 -22t-28.5 -5zM393 424h238q190 0 282 37q101 39 151 133.5t50 214.5q0 132 -98 184q-68 35 -277 35h-217z" />
    <glyph glyph-name="germandbls" unicode="&#xdf;" horiz-adv-x="1134" 
d="M211 0h-191q-32 0 -32 23q0 1 10 49q4 17 12.5 22.5t28.5 5.5h108l193 914q50 235 98 307q60 89 142 125.5t208 36.5q310 0 310 -275q0 -104 -30 -188t-98 -144.5t-169 -78.5q116 -13 173.5 -81t57.5 -175q0 -264 -106 -408q-59 -83 -145 -117t-212 -34q-102 0 -168 18
q-20 6 -20 29t14 55q10 20 31 20q5 0 20 -3.5t19 -4.5q49 -10 125 -10q96 0 153 26t95 89q75 123 75 321q0 51 -12.5 87t-45 66t-94.5 45t-155 15h-33q-26 0 -26 17q0 19 10 57q4 17 12.5 22t26.5 5h35q141 0 231 75q117 95 117 287q0 92 -49.5 138t-159.5 46
q-161 0 -227 -100q-43 -60 -84 -258l-207 -983q-3 -13 -5.5 -20.5t-12 -14t-23.5 -6.5z" />
    <glyph glyph-name="agrave" unicode="&#xe0;" horiz-adv-x="1189" 
d="M969 0h-187q-34 0 -34 31q0 7 6 61q-109 -117 -336 -117q-314 0 -314 310q0 167 61 350.5t173 279.5q130 113 375 113q155 0 235 -55q7 26 16 34.5t27 8.5h39q29 0 29 -25q0 -11 -4 -35l-185 -854h119q33 0 33 -22q0 -5 -8 -51q-4 -18 -13.5 -23.5t-31.5 -5.5zM788 252
l132 625q-29 20 -92.5 33.5t-133.5 13.5q-176 0 -282 -88q-86 -75 -136.5 -228.5t-50.5 -298.5q0 -118 55.5 -174.5t180.5 -56.5q162 0 266 82q30 27 41 43q14 23 20 49zM717 1210l-230 269q-14 19 -14 32q0 23 27 23h84q24 0 43 -25l202 -274q11 -18 11 -27q0 -8 -6.5 -14
t-16.5 -6h-53q-28 0 -47 22z" />
    <glyph glyph-name="aacute" unicode="&#xe1;" horiz-adv-x="1189" 
d="M969 0h-187q-34 0 -34 31q0 7 6 61q-109 -117 -336 -117q-314 0 -314 310q0 167 61 350.5t173 279.5q130 113 375 113q155 0 235 -55q7 26 16 34.5t27 8.5h39q29 0 29 -25q0 -11 -4 -35l-185 -854h119q33 0 33 -22q0 -5 -8 -51q-4 -18 -13.5 -23.5t-31.5 -5.5zM788 252
l132 625q-29 20 -92.5 33.5t-133.5 13.5q-176 0 -282 -88q-86 -75 -136.5 -228.5t-50.5 -298.5q0 -118 55.5 -174.5t180.5 -56.5q162 0 266 82q30 27 41 43q14 23 20 49zM752 1210q-22 -22 -50 -22h-51q-24 0 -24 22q0 13 12 25l254 274q22 25 47 25h92q25 0 25 -21
q0 -5 -2 -9.5t-4 -7.5t-6.5 -8t-6.5 -7z" />
    <glyph glyph-name="acircumflex" unicode="&#xe2;" horiz-adv-x="1189" 
d="M969 0h-187q-34 0 -34 31q0 7 6 61q-109 -117 -336 -117q-314 0 -314 310q0 167 61 350.5t173 279.5q130 113 375 113q155 0 235 -55q7 26 16 34.5t27 8.5h39q29 0 29 -25q0 -11 -4 -35l-185 -854h119q33 0 33 -22q0 -5 -8 -51q-4 -18 -13.5 -23.5t-31.5 -5.5zM788 252
l132 625q-29 20 -92.5 33.5t-133.5 13.5q-176 0 -282 -88q-86 -75 -136.5 -228.5t-50.5 -298.5q0 -118 55.5 -174.5t180.5 -56.5q162 0 266 82q30 27 41 43q14 23 20 49zM545 1169h-49q-23 0 -23 23q0 15 16 31l254 282q26 29 58 29h53q28 0 39 -25l143 -290q6 -18 6 -27
q0 -10 -8 -16.5t-20 -6.5h-37q-26 0 -43 27l-125 223l-215 -221q-29 -29 -49 -29z" />
    <glyph glyph-name="atilde" unicode="&#xe3;" horiz-adv-x="1189" 
d="M969 0h-187q-34 0 -34 31q0 7 6 61q-109 -117 -336 -117q-314 0 -314 310q0 167 61 350.5t173 279.5q130 113 375 113q155 0 235 -55q7 26 16 34.5t27 8.5h39q29 0 29 -25q0 -11 -4 -35l-185 -854h119q33 0 33 -22q0 -5 -8 -51q-4 -18 -13.5 -23.5t-31.5 -5.5zM788 252
l132 625q-29 20 -92.5 33.5t-133.5 13.5q-176 0 -282 -88q-86 -75 -136.5 -228.5t-50.5 -298.5q0 -118 55.5 -174.5t180.5 -56.5q162 0 266 82q30 27 41 43q14 23 20 49zM494 1237h-33q-27 0 -27 23q0 10 15 47q42 79 84.5 116t101.5 37q25 0 52 -12.5t87 -48.5
q46 -29 69.5 -38t47.5 -9q27 0 47 15.5t47 66.5q16 36 41 36h35q29 0 29 -20q0 -16 -13 -45q-41 -90 -85.5 -130t-100.5 -40q-33 0 -64.5 11t-85.5 44q-87 51 -116 51q-26 0 -46 -15.5t-42 -59.5q-13 -29 -43 -29z" />
    <glyph glyph-name="adieresis" unicode="&#xe4;" horiz-adv-x="1189" 
d="M969 0h-187q-34 0 -34 31q0 7 6 61q-109 -117 -336 -117q-314 0 -314 310q0 167 61 350.5t173 279.5q130 113 375 113q155 0 235 -55q7 26 16 34.5t27 8.5h39q29 0 29 -25q0 -11 -4 -35l-185 -854h119q33 0 33 -22q0 -5 -8 -51q-4 -18 -13.5 -23.5t-31.5 -5.5zM788 252
l132 625q-29 20 -92.5 33.5t-133.5 13.5q-176 0 -282 -88q-86 -75 -136.5 -228.5t-50.5 -298.5q0 -118 55.5 -174.5t180.5 -56.5q162 0 266 82q30 27 41 43q14 23 20 49zM698 1382q0 -61 -32 -90q-23 -20 -62 -20q-72 0 -72 61q0 59 29 88q30 23 66 23q71 0 71 -62z
M1055 1382q0 -59 -31 -90q-27 -20 -61 -20q-74 0 -74 61t31 88q26 23 65 23q70 0 70 -62z" />
    <glyph glyph-name="aring" unicode="&#xe5;" horiz-adv-x="1189" 
d="M969 0h-187q-34 0 -34 31q0 7 6 61q-109 -117 -336 -117q-314 0 -314 310q0 167 61 350.5t173 279.5q130 113 375 113q155 0 235 -55q7 26 16 34.5t27 8.5h39q29 0 29 -25q0 -11 -4 -35l-185 -854h119q33 0 33 -22q0 -5 -8 -51q-4 -18 -13.5 -23.5t-31.5 -5.5zM788 252
l132 625q-29 20 -92.5 33.5t-133.5 13.5q-176 0 -282 -88q-86 -75 -136.5 -228.5t-50.5 -298.5q0 -118 55.5 -174.5t180.5 -56.5q162 0 266 82q30 27 41 43q14 23 20 49zM973 1397q0 -98 -57.5 -156.5t-155.5 -58.5q-82 0 -128 46.5t-46 129.5q0 94 58 152.5t153 58.5
q83 0 129.5 -45t46.5 -127zM899 1395q0 54 -29 82t-82 28q-58 0 -96.5 -37.5t-38.5 -103.5q0 -58 30.5 -88.5t84.5 -30.5q60 0 95.5 37.5t35.5 112.5z" />
    <glyph glyph-name="ae" unicode="&#xe6;" horiz-adv-x="1732" 
d="M844 129q-51 -47 -98 -76.5t-132 -53.5t-192 -24q-318 0 -318 312q0 158 61 344t171 282q132 115 375 115q133 0 221 -45l6 18q10 33 37 33h33q24 0 24 -22q0 -9 -8 -49l-16 -78q40 68 136.5 108.5t207.5 40.5q327 0 327 -266q0 -98 -24 -221q-8 -48 -25 -60
q-15 -12 -43 -12h-651q-14 -80 -14 -139q0 -146 71.5 -202t229.5 -56q132 0 260 41q30 12 45 12q16 0 22 -16q13 -35 13 -45q0 -25 -39 -39q-141 -58 -334 -58q-142 0 -226.5 38t-119.5 118zM815 223q-4 66 -4 109q0 117 55 350l45 197q-28 20 -87.5 32.5t-129.5 12.5
q-178 0 -284 -88q-87 -75 -136 -227.5t-49 -299.5q0 -117 55.5 -174t180.5 -57q218 0 354 145zM952 575h590q23 90 23 177q0 92 -48.5 138t-175.5 46q-152 0 -243 -68q-103 -76 -146 -293z" />
    <glyph glyph-name="ccedilla" unicode="&#xe7;" horiz-adv-x="927" 
d="M426 -129q172 -2 172 -147q0 -113 -64.5 -160t-193.5 -47q-68 0 -100 14q-19 5 -19 25q0 18 8 38q6 23 31 23q7 0 27 -4q40 -8 69 -8q66 0 97.5 21.5t31.5 80.5q0 76 -90 76q-7 0 -24 -1t-19 -1q-33 0 -33 33q0 12 15 55l39 111q-271 38 -271 321q0 89 18.5 194t65.5 223
t115 189q131 137 381 137q129 0 215 -22q18 -6 24.5 -13t6.5 -24q0 -8 -35 -213q-5 -29 -37 -29h-37q-31 0 -31 23l17 162q-58 10 -146 10q-178 0 -270 -98q-78 -79 -121 -237.5t-43 -280.5q0 -114 61.5 -179t194.5 -65q80 0 125.5 8t102.5 27q40 12 51 12q12 0 20 -19
q13 -39 13 -49q0 -23 -39 -37q-130 -47 -291 -47h-4z" />
    <glyph glyph-name="egrave" unicode="&#xe8;" horiz-adv-x="1036" 
d="M236 475q-15 -86 -15 -139q0 -147 69.5 -201.5t225.5 -54.5q131 0 266 43q40 12 47 12q15 0 21 -16q16 -43 16 -49q0 -14 -8.5 -22.5t-30.5 -18.5q-137 -56 -344 -56q-205 0 -293 86t-88 265q0 84 18.5 186.5t68 219.5t120.5 185q122 119 355 119q169 0 244 -68t75 -198
q0 -107 -25 -221q-1 -5 -3 -13t-3 -11.5t-2.5 -9.5t-3 -9t-3 -6.5t-4 -6t-5.5 -4.5q-15 -12 -43 -12h-655zM252 573h594q22 86 22 177q0 92 -48 138t-175 46q-158 0 -237 -68q-103 -87 -156 -293zM629 1210l-230 269q-14 19 -14 32q0 23 27 23h84q24 0 43 -25l202 -274
q11 -18 11 -27q0 -8 -6.5 -14t-16.5 -6h-53q-28 0 -47 22z" />
    <glyph glyph-name="eacute" unicode="&#xe9;" horiz-adv-x="1036" 
d="M236 475q-15 -86 -15 -139q0 -147 69.5 -201.5t225.5 -54.5q131 0 266 43q40 12 47 12q15 0 21 -16q16 -43 16 -49q0 -14 -8.5 -22.5t-30.5 -18.5q-137 -56 -344 -56q-205 0 -293 86t-88 265q0 84 18.5 186.5t68 219.5t120.5 185q122 119 355 119q169 0 244 -68t75 -198
q0 -107 -25 -221q-1 -5 -3 -13t-3 -11.5t-2.5 -9.5t-3 -9t-3 -6.5t-4 -6t-5.5 -4.5q-15 -12 -43 -12h-655zM252 573h594q22 86 22 177q0 92 -48 138t-175 46q-158 0 -237 -68q-103 -87 -156 -293zM674 1210q-22 -22 -49 -22h-52q-24 0 -24 22q0 13 12 25l254 274
q22 25 47 25h92q25 0 25 -21q0 -10 -18 -32z" />
    <glyph glyph-name="ecircumflex" unicode="&#xea;" horiz-adv-x="1036" 
d="M236 475q-15 -86 -15 -139q0 -147 69.5 -201.5t225.5 -54.5q131 0 266 43q40 12 47 12q15 0 21 -16q16 -43 16 -49q0 -14 -8.5 -22.5t-30.5 -18.5q-137 -56 -344 -56q-205 0 -293 86t-88 265q0 84 18.5 186.5t68 219.5t120.5 185q122 119 355 119q169 0 244 -68t75 -198
q0 -107 -25 -221q-1 -5 -3 -13t-3 -11.5t-2.5 -9.5t-3 -9t-3 -6.5t-4 -6t-5.5 -4.5q-15 -12 -43 -12h-655zM252 573h594q22 86 22 177q0 92 -48 138t-175 46q-158 0 -237 -68q-103 -87 -156 -293zM477 1169h-49q-22 0 -22 23q0 15 16 31l254 282q26 29 57 29h53q28 0 39 -25
l144 -290q6 -18 6 -27q0 -10 -8.5 -16.5t-20.5 -6.5h-37q-26 0 -43 27l-125 223l-215 -221q-29 -29 -49 -29z" />
    <glyph glyph-name="edieresis" unicode="&#xeb;" horiz-adv-x="1036" 
d="M236 475q-15 -86 -15 -139q0 -147 69.5 -201.5t225.5 -54.5q131 0 266 43q40 12 47 12q15 0 21 -16q16 -43 16 -49q0 -14 -8.5 -22.5t-30.5 -18.5q-137 -56 -344 -56q-205 0 -293 86t-88 265q0 84 18.5 186.5t68 219.5t120.5 185q122 119 355 119q169 0 244 -68t75 -198
q0 -107 -25 -221q-1 -5 -3 -13t-3 -11.5t-2.5 -9.5t-3 -9t-3 -6.5t-4 -6t-5.5 -4.5q-15 -12 -43 -12h-655zM252 573h594q22 86 22 177q0 92 -48 138t-175 46q-158 0 -237 -68q-103 -87 -156 -293zM616 1382q0 -61 -32 -90q-23 -20 -62 -20q-71 0 -71 61q0 60 28 88
q30 23 66 23q71 0 71 -62zM973 1382q0 -59 -31 -90q-27 -20 -61 -20q-74 0 -74 61t31 88q26 23 65 23q70 0 70 -62z" />
    <glyph glyph-name="igrave" unicode="&#xec;" horiz-adv-x="610" 
d="M369 1210l-230 269q-14 19 -14 32q0 23 27 23h84q24 0 43 -25l202 -274q11 -18 11 -27q0 -8 -6.5 -14t-16.5 -6h-53q-28 0 -47 22zM393 0h-346q-33 0 -33 23q0 5 11 51q4 17 14 22.5t31 5.5h102l172 801h-115q-30 0 -30 23q0 10 8 49q8 31 45 31h188q33 0 33 -27
q0 -13 -4 -33l-180 -844h123q32 0 32 -22q0 -18 -8 -51q-6 -18 -14 -23.5t-29 -5.5z" />
    <glyph glyph-name="iacute" unicode="&#xed;" horiz-adv-x="610" 
d="M395 1210q-22 -22 -49 -22h-51q-25 0 -25 22q0 12 13 25l254 274q22 25 47 25h92q24 0 24 -21q0 -10 -18 -32zM393 0h-346q-33 0 -33 23q0 5 11 51q4 17 14 22.5t31 5.5h102l172 801h-115q-30 0 -30 23q0 10 8 49q8 31 45 31h188q33 0 33 -27q0 -13 -4 -33l-180 -844h123
q32 0 32 -22q0 -18 -8 -51q-6 -18 -14 -23.5t-29 -5.5z" />
    <glyph glyph-name="icircumflex" unicode="&#xee;" horiz-adv-x="610" 
d="M393 0h-346q-33 0 -33 23q0 5 11 51q4 17 14 22.5t31 5.5h102l172 801h-115q-30 0 -30 23q0 10 8 49q8 31 45 31h188q33 0 33 -27q0 -13 -4 -33l-180 -844h123q32 0 32 -22q0 -18 -8 -51q-6 -18 -14 -23.5t-29 -5.5zM188 1169h-49q-22 0 -22 23q0 15 16 31l254 282
q26 29 57 29h54q28 0 39 -25l143 -290q6 -18 6 -27q0 -10 -8.5 -16.5t-20.5 -6.5h-36q-26 0 -43 27l-125 223l-215 -221q-29 -29 -50 -29z" />
    <glyph glyph-name="idieresis" unicode="&#xef;" horiz-adv-x="610" 
d="M328 1382q0 -60 -33 -90q-23 -20 -62 -20q-71 0 -71 61q0 60 28 88q30 23 66 23q72 0 72 -62zM684 1382q0 -59 -31 -90q-27 -20 -61 -20q-74 0 -74 61t31 88q26 23 65 23q70 0 70 -62zM393 0h-346q-33 0 -33 23q0 5 11 51q4 17 14 22.5t31 5.5h102l172 801h-115
q-30 0 -30 23q0 10 8 49q8 31 45 31h188q33 0 33 -27q0 -13 -4 -33l-180 -844h123q32 0 32 -22q0 -18 -8 -51q-6 -18 -14 -23.5t-29 -5.5z" />
    <glyph glyph-name="eth" unicode="&#xf0;" horiz-adv-x="1124" 
d="M1112 1436l-162 -97q105 -146 105 -401q0 -212 -41 -437t-131 -364q-108 -164 -387 -164q-70 0 -124.5 8t-106.5 29.5t-86 57t-54.5 94t-20.5 137.5q0 140 47.5 316.5t135.5 279.5q119 135 356 135q104 0 187 -25t114 -83q0 243 -92 356l-197 -117q-28 -14 -34 -14
q-16 0 -27 20q-19 33 -19 39q0 14 23 29l188 108q-103 76 -294 93q-27 3 -27 26q0 15 8 47q7 21 33 21q40 0 63 -2q198 -20 320 -121l168 100q26 13 33 13q10 0 20 -13q23 -38 23 -45q0 -14 -21 -26zM918 713q0 55 -15 94.5t-39.5 63t-63.5 37t-78.5 18t-92.5 4.5
q-171 0 -258 -105q-67 -81 -106.5 -247.5t-39.5 -270.5q0 -131 70 -180t215 -49q210 0 289 133q50 86 84.5 249t34.5 253z" />
    <glyph glyph-name="ntilde" unicode="&#xf1;" horiz-adv-x="1243" 
d="M393 0h-346q-33 0 -33 23q0 8 11 51q4 17 14 22.5t31 5.5h102l172 801h-115q-30 0 -30 23q0 10 8 49q8 31 45 31h186q33 0 33 -29q0 -17 -14 -80q36 69 143.5 101t222.5 32q252 0 252 -170q0 -62 -22 -172l-125 -586h116q33 0 33 -20q0 -19 -8 -55q-6 -18 -14 -22.5
t-29 -4.5h-197q-30 0 -30 25q0 6 4 30l135 635q14 71 14 125q0 61 -43.5 85t-124.5 24q-179 0 -284 -64q-33 -20 -45 -39q-17 -25 -25 -63l-143 -656h125q32 0 32 -22q0 -18 -8 -51q-6 -18 -14 -23.5t-29 -5.5zM500 1237h-33q-27 0 -27 23q0 10 15 47q42 79 84.5 116
t101.5 37q25 0 52 -12.5t87 -48.5q46 -29 69.5 -38t47.5 -9q27 0 47 15.5t47 66.5q16 36 41 36h35q29 0 29 -20q0 -16 -13 -45q-41 -90 -85.5 -130t-100.5 -40q-33 0 -64 11t-85 44q-87 51 -117 51q-26 0 -46 -15.5t-42 -59.5q-13 -29 -43 -29z" />
    <glyph glyph-name="ograve" unicode="&#xf2;" horiz-adv-x="1107" 
d="M1030 731q0 -118 -44 -302t-116 -292q-112 -164 -378 -164q-70 0 -124.5 8t-105.5 29.5t-84.5 57t-53.5 94t-20 137.5q0 139 49.5 319t137.5 281q119 135 350 135q71 0 121.5 -5t104.5 -23t87 -50t54.5 -88.5t21.5 -136.5zM911 713q0 55 -15 95t-38.5 63.5t-62.5 37
t-77.5 17.5t-92.5 4q-168 0 -252 -105q-67 -81 -107.5 -248t-40.5 -270q0 -131 69 -180t212 -49q200 0 280 137q52 85 88.5 247.5t36.5 250.5zM684 1210l-229 269q-15 20 -15 32q0 23 27 23h84q24 0 43 -25l203 -274q10 -17 10 -27q0 -8 -6.5 -14t-16.5 -6h-53q-28 0 -47 22
z" />
    <glyph glyph-name="oacute" unicode="&#xf3;" horiz-adv-x="1107" 
d="M1030 731q0 -118 -44 -302t-116 -292q-112 -164 -378 -164q-70 0 -124.5 8t-105.5 29.5t-84.5 57t-53.5 94t-20 137.5q0 139 49.5 319t137.5 281q119 135 350 135q71 0 121.5 -5t104.5 -23t87 -50t54.5 -88.5t21.5 -136.5zM911 713q0 55 -15 95t-38.5 63.5t-62.5 37
t-77.5 17.5t-92.5 4q-168 0 -252 -105q-67 -81 -107.5 -248t-40.5 -270q0 -131 69 -180t212 -49q200 0 280 137q52 85 88.5 247.5t36.5 250.5zM698 1210q-22 -22 -49 -22h-51q-25 0 -25 22q0 12 13 25l254 274q22 25 47 25h92q25 0 25 -21q0 -5 -2 -9.5t-4 -7.5t-6.5 -8
t-6.5 -7z" />
    <glyph glyph-name="ocircumflex" unicode="&#xf4;" horiz-adv-x="1107" 
d="M1030 731q0 -118 -44 -302t-116 -292q-112 -164 -378 -164q-70 0 -124.5 8t-105.5 29.5t-84.5 57t-53.5 94t-20 137.5q0 139 49.5 319t137.5 281q119 135 350 135q71 0 121.5 -5t104.5 -23t87 -50t54.5 -88.5t21.5 -136.5zM911 713q0 55 -15 95t-38.5 63.5t-62.5 37
t-77.5 17.5t-92.5 4q-168 0 -252 -105q-67 -81 -107.5 -248t-40.5 -270q0 -131 69 -180t212 -49q200 0 280 137q52 85 88.5 247.5t36.5 250.5zM496 1169h-50q-22 0 -22 23q0 15 16 31l254 282q26 29 58 29h53q28 0 39 -25l143 -290q6 -18 6 -27q0 -10 -8 -16.5t-20 -6.5h-37
q-26 0 -43 27l-125 223l-215 -221q-29 -29 -49 -29z" />
    <glyph glyph-name="otilde" unicode="&#xf5;" horiz-adv-x="1107" 
d="M1030 731q0 -118 -44 -302t-116 -292q-112 -164 -378 -164q-70 0 -124.5 8t-105.5 29.5t-84.5 57t-53.5 94t-20 137.5q0 139 49.5 319t137.5 281q119 135 350 135q71 0 121.5 -5t104.5 -23t87 -50t54.5 -88.5t21.5 -136.5zM911 713q0 55 -15 95t-38.5 63.5t-62.5 37
t-77.5 17.5t-92.5 4q-168 0 -252 -105q-67 -81 -107.5 -248t-40.5 -270q0 -131 69 -180t212 -49q200 0 280 137q52 85 88.5 247.5t36.5 250.5zM473 1237h-33q-26 0 -26 23q0 12 14 47q42 79 84.5 116t101.5 37q25 0 53 -13t87 -48q46 -29 69 -38t47 -9q27 0 47.5 15.5
t47.5 66.5q16 36 41 36h34q29 0 29 -20q0 -18 -12 -45q-41 -90 -86 -130t-101 -40q-33 0 -64 11t-85 44q-87 51 -117 51q-26 0 -46 -15.5t-42 -59.5q-13 -29 -43 -29z" />
    <glyph glyph-name="odieresis" unicode="&#xf6;" horiz-adv-x="1107" 
d="M1030 731q0 -118 -44 -302t-116 -292q-112 -164 -378 -164q-70 0 -124.5 8t-105.5 29.5t-84.5 57t-53.5 94t-20 137.5q0 139 49.5 319t137.5 281q119 135 350 135q71 0 121.5 -5t104.5 -23t87 -50t54.5 -88.5t21.5 -136.5zM911 713q0 55 -15 95t-38.5 63.5t-62.5 37
t-77.5 17.5t-92.5 4q-168 0 -252 -105q-67 -81 -107.5 -248t-40.5 -270q0 -131 69 -180t212 -49q200 0 280 137q52 85 88.5 247.5t36.5 250.5zM651 1382q0 -60 -33 -90q-23 -20 -61 -20q-72 0 -72 61q0 59 29 88q30 23 66 23q71 0 71 -62zM1008 1382q0 -59 -31 -90
q-27 -20 -62 -20q-73 0 -73 61q0 62 30 88q26 23 66 23q70 0 70 -62z" />
    <glyph glyph-name="divide" unicode="&#xf7;" horiz-adv-x="1435" 
d="M911 950q0 -43 -23.5 -73.5t-66.5 -30.5q-27 0 -45 16.5t-18 50.5q0 48 24 75.5t62 27.5q28 0 47.5 -16.5t19.5 -49.5zM1262 553h-1000q-29 0 -29 29q0 5 7 45q6 30 34 30h1002q29 0 29 -28q0 -18 -7 -47q-6 -29 -36 -29zM766 289q0 -43 -23.5 -74t-66.5 -31
q-27 0 -46.5 16.5t-19.5 49.5q0 49 24.5 74.5t63.5 25.5q29 0 48.5 -14.5t19.5 -46.5z" />
    <glyph glyph-name="oslash" unicode="&#xf8;" horiz-adv-x="1107" 
d="M143 -45q-14 -14 -24 -14q-15 0 -37 20q-12 12 -12 25q0 12 12 24l74 86q-52 74 -52 203q0 142 48 321t137 279q116 135 352 135q192 0 277 -51l75 90q12 14 25 14q14 0 24 -10q25 -17 25 -33q0 -11 -10 -24l-80 -92q53 -72 53 -197q0 -120 -42 -303.5t-114 -290.5
q-112 -164 -382 -164q-188 0 -279 64zM911 713q0 66 -22 112l-596 -698q62 -49 213 -49q208 0 285 133q51 86 85.5 248.5t34.5 253.5zM225 307q0 -57 17 -110l594 692q-66 41 -211 41q-169 0 -254 -103q-67 -81 -106.5 -248.5t-39.5 -271.5z" />
    <glyph glyph-name="ugrave" unicode="&#xf9;" horiz-adv-x="1243" 
d="M1008 0h-187q-39 0 -39 33q0 11 11 57q-118 -115 -342 -115q-53 0 -97.5 9t-85.5 29t-64.5 59.5t-23.5 93.5q0 48 23 166l123 571h-111q-33 0 -33 23q0 4 1.5 9.5l4.5 16.5t5 23q8 31 45 31h188q31 0 31 -23q0 -1 -6 -37l-132 -618q-16 -71 -16 -123q0 -125 195 -125
q147 0 260 72q32 23 45 41q16 20 24 55l142 655h-113q-31 0 -31 23q0 6 9 49q8 31 45 31h184q35 0 35 -27q0 -3 -1 -8.5t-2.5 -14t-2.5 -12.5l-183 -842h119q33 0 33 -22q0 -20 -10 -51q-4 -18 -13 -23.5t-30 -5.5zM680 1214l-229 269q-15 20 -15 33q0 22 27 22h84
q24 0 43 -25l203 -274q10 -17 10 -27q0 -8 -6.5 -14t-16.5 -6h-53q-28 0 -47 22z" />
    <glyph glyph-name="uacute" unicode="&#xfa;" horiz-adv-x="1243" 
d="M1008 0h-187q-39 0 -39 33q0 11 11 57q-118 -115 -342 -115q-53 0 -97.5 9t-85.5 29t-64.5 59.5t-23.5 93.5q0 48 23 166l123 571h-111q-33 0 -33 23q0 4 1.5 9.5l4.5 16.5t5 23q8 31 45 31h188q31 0 31 -23q0 -1 -6 -37l-132 -618q-16 -71 -16 -123q0 -125 195 -125
q147 0 260 72q32 23 45 41q16 20 24 55l142 655h-113q-31 0 -31 23q0 6 9 49q8 31 45 31h184q35 0 35 -27q0 -3 -1 -8.5t-2.5 -14t-2.5 -12.5l-183 -842h119q33 0 33 -22q0 -20 -10 -51q-4 -18 -13 -23.5t-30 -5.5zM713 1210q-22 -22 -49 -22h-52q-24 0 -24 22q0 13 12 25
l254 274q22 25 47 25h92q25 0 25 -21q0 -5 -2 -9.5t-4 -7.5t-6.5 -8t-6.5 -7z" />
    <glyph glyph-name="ucircumflex" unicode="&#xfb;" horiz-adv-x="1243" 
d="M1008 0h-187q-39 0 -39 33q0 11 11 57q-118 -115 -342 -115q-53 0 -97.5 9t-85.5 29t-64.5 59.5t-23.5 93.5q0 48 23 166l123 571h-111q-33 0 -33 23q0 4 1.5 9.5l4.5 16.5t5 23q8 31 45 31h188q31 0 31 -23q0 -1 -6 -37l-132 -618q-16 -71 -16 -123q0 -125 195 -125
q147 0 260 72q32 23 45 41q16 20 24 55l142 655h-113q-31 0 -31 23q0 6 9 49q8 31 45 31h184q35 0 35 -27q0 -3 -1 -8.5t-2.5 -14t-2.5 -12.5l-183 -842h119q33 0 33 -22q0 -20 -10 -51q-4 -18 -13 -23.5t-30 -5.5zM510 1169h-49q-23 0 -23 23q0 14 17 31l254 282
q26 29 57 29h53q28 0 39 -25l143 -290q7 -21 7 -27q0 -10 -8.5 -16.5t-20.5 -6.5h-37q-26 0 -43 27l-125 223l-215 -221q-29 -29 -49 -29z" />
    <glyph glyph-name="udieresis" unicode="&#xfc;" horiz-adv-x="1243" 
d="M1008 0h-187q-39 0 -39 33q0 11 11 57q-118 -115 -342 -115q-53 0 -97.5 9t-85.5 29t-64.5 59.5t-23.5 93.5q0 48 23 166l123 571h-111q-33 0 -33 23q0 4 1.5 9.5l4.5 16.5t5 23q8 31 45 31h188q31 0 31 -23q0 -1 -6 -37l-132 -618q-16 -71 -16 -123q0 -125 195 -125
q147 0 260 72q32 23 45 41q16 20 24 55l142 655h-113q-31 0 -31 23q0 6 9 49q8 31 45 31h184q35 0 35 -27q0 -3 -1 -8.5t-2.5 -14t-2.5 -12.5l-183 -842h119q33 0 33 -22q0 -20 -10 -51q-4 -18 -13 -23.5t-30 -5.5zM655 1382q0 -61 -32 -90q-23 -20 -62 -20q-72 0 -72 61
q0 59 29 88q30 23 66 23q71 0 71 -62zM1012 1382q0 -59 -31 -90q-27 -20 -61 -20q-74 0 -74 61t31 88q26 23 65 23q70 0 70 -62z" />
    <glyph glyph-name="yacute" unicode="&#xfd;" horiz-adv-x="1048" 
d="M1079 903h-63l-574 -940q-16 -26 -55 -90t-61 -99t-53 -80.5t-54 -72.5q-110 -133 -280 -133q-59 0 -89 6q-32 6 -32 33q0 29 14 57q10 17 33 17q5 0 34 -3.5t48 -3.5q57 0 99.5 21t84.5 72q56 66 199 303l24 41l-159 872h-74q-31 0 -31 23q0 16 8 49q8 31 45 31h310
q32 0 32 -25q0 -4 -10 -49q-4 -17 -13.5 -23t-29.5 -6h-119q115 -662 129 -747q94 166 441 747h-115q-31 0 -31 23q0 20 8 49q8 31 46 31h309q33 0 33 -25q0 -12 -11 -49q-4 -17 -13.5 -23t-29.5 -6zM662 1210q-22 -22 -50 -22h-51q-24 0 -24 22q0 13 12 25l254 274
q22 25 47 25h92q25 0 25 -21q0 -5 -2 -9.5t-4 -7.5t-6.5 -8t-6.5 -7z" />
    <glyph glyph-name="thorn" unicode="&#xfe;" horiz-adv-x="1163" 
d="M256 -500h-360q-33 0 -33 23q0 15 10 51q4 17 14 23t31 6h92l391 1827h-112q-31 0 -31 20q0 15 8 51q8 31 45 31h187q34 0 34 -29q0 -10 -4 -30l-116 -541q113 96 338 96q155 0 233 -72.5t78 -230.5q0 -140 -44 -306.5t-124 -266.5q-72 -92 -170.5 -127t-253.5 -35
q-75 0 -145 18.5t-99 40.5l-98 -446h147q33 0 33 -23q0 -18 -8 -51q-6 -18 -14.5 -23.5t-28.5 -5.5zM248 150q24 -21 92 -39.5t133 -18.5q121 0 198 27.5t130 89.5q63 78 101 225.5t38 265.5q0 111 -58 166.5t-188 55.5q-150 0 -258 -58q-33 -18 -41 -35q-9 -17 -16 -47z
" />
    <glyph glyph-name="ydieresis" unicode="&#xff;" horiz-adv-x="1048" 
d="M1079 903h-63l-574 -940q-16 -26 -55 -90t-61 -99t-53 -80.5t-54 -72.5q-110 -133 -280 -133q-59 0 -89 6q-32 6 -32 33q0 29 14 57q10 17 33 17q5 0 34 -3.5t48 -3.5q57 0 99.5 21t84.5 72q56 66 199 303l24 41l-159 872h-74q-31 0 -31 23q0 16 8 49q8 31 45 31h310
q32 0 32 -25q0 -4 -10 -49q-4 -17 -13.5 -23t-29.5 -6h-119q115 -662 129 -747q94 166 441 747h-115q-31 0 -31 23q0 20 8 49q8 31 46 31h309q33 0 33 -25q0 -12 -11 -49q-4 -17 -13.5 -23t-29.5 -6zM571 1382q0 -61 -32 -90q-23 -20 -62 -20q-71 0 -71 61q0 60 28 88
q30 23 66 23q71 0 71 -62zM928 1382q0 -59 -31 -90q-27 -20 -61 -20q-74 0 -74 61t31 88q26 23 65 23q70 0 70 -62z" />
    <glyph glyph-name="Amacron" unicode="&#x100;" horiz-adv-x="1363" 
d="M324 0h-365q-33 0 -33 23q0 4 1.5 10t4.5 19t5 24q4 17 14 22.5t31 5.5h86l755 1311q21 37 51 37h48q20 0 30 -8.5t13 -30.5l196 -1309h86q33 0 33 -22q0 -20 -8 -53q-6 -18 -14 -23.5t-29 -5.5h-361q-30 0 -30 23q0 14 8 53q4 17 14 22.5t31 5.5h147l-57 383h-553
l-225 -383h141q33 0 33 -22q0 -20 -8 -53q-6 -18 -15 -23.5t-30 -5.5zM868 1280q-153 -280 -385 -686h484q-48 324 -99 686zM1182 1634h-506q-27 0 -27 23q0 26 10 57q9 31 39 31h502q31 0 31 -25q0 -23 -12 -59q-4 -17 -11.5 -22t-25.5 -5z" />
    <glyph glyph-name="amacron" unicode="&#x101;" horiz-adv-x="1189" 
d="M969 0h-187q-34 0 -34 31q0 7 6 61q-109 -117 -336 -117q-314 0 -314 310q0 167 61 350.5t173 279.5q130 113 375 113q155 0 235 -55q7 26 16 34.5t27 8.5h39q29 0 29 -25q0 -11 -4 -35l-185 -854h119q33 0 33 -22q0 -5 -8 -51q-4 -18 -13.5 -23.5t-31.5 -5.5zM788 252
l132 625q-29 20 -92.5 33.5t-133.5 13.5q-176 0 -282 -88q-86 -75 -136.5 -228.5t-50.5 -298.5q0 -118 55.5 -174.5t180.5 -56.5q162 0 266 82q30 27 41 43q14 23 20 49zM991 1260h-469q-26 0 -26 24q0 28 10 57q5 18 13 24.5t26 6.5h463q30 0 30 -22q0 -31 -10 -64
q-5 -15 -12.5 -20.5t-24.5 -5.5z" />
    <glyph glyph-name="Abreve" unicode="&#x102;" horiz-adv-x="1363" 
d="M324 0h-365q-33 0 -33 23q0 4 1.5 10t4.5 19t5 24q4 17 14 22.5t31 5.5h86l755 1311q21 37 51 37h48q20 0 30 -8.5t13 -30.5l196 -1309h86q33 0 33 -22q0 -20 -8 -53q-6 -18 -14 -23.5t-29 -5.5h-361q-30 0 -30 23q0 14 8 53q4 17 14 22.5t31 5.5h147l-57 383h-553
l-225 -383h141q33 0 33 -22q0 -20 -8 -53q-6 -18 -15 -23.5t-30 -5.5zM868 1280q-153 -280 -385 -686h484q-48 324 -99 686zM1223 1847q24 0 24 -24q0 -31 -16 -72q-38 -92 -109 -141t-196 -49q-262 0 -262 211q0 30 6 51q7 24 30 24h37q27 0 27 -24q0 -10 1 -26t1 -19
q5 -57 42.5 -85t119.5 -28q100 0 150.5 38.5t72.5 115.5q5 15 12 21.5t23 6.5h37z" />
    <glyph glyph-name="abreve" unicode="&#x103;" horiz-adv-x="1189" 
d="M969 0h-187q-34 0 -34 31q0 7 6 61q-109 -117 -336 -117q-314 0 -314 310q0 167 61 350.5t173 279.5q130 113 375 113q155 0 235 -55q7 26 16 34.5t27 8.5h39q29 0 29 -25q0 -11 -4 -35l-185 -854h119q33 0 33 -22q0 -5 -8 -51q-4 -18 -13.5 -23.5t-31.5 -5.5zM788 252
l132 625q-29 20 -92.5 33.5t-133.5 13.5q-176 0 -282 -88q-86 -75 -136.5 -228.5t-50.5 -298.5q0 -118 55.5 -174.5t180.5 -56.5q162 0 266 82q30 27 41 43q14 23 20 49zM1020 1470q20 0 20 -24q0 -32 -16 -76q-78 -199 -295 -199q-123 0 -183.5 56.5t-60.5 148.5q0 42 7 70
q7 24 32 24h27q24 0 24 -22v-43q3 -65 40.5 -96t121.5 -31q95 0 142 42.5t71 127.5q6 22 31 22h39z" />
    <glyph glyph-name="Aogonek" unicode="&#x104;" horiz-adv-x="1363" 
d="M324 0h-365q-33 0 -33 23q0 4 1.5 10t4.5 19t5 24q4 17 14 22.5t31 5.5h86l755 1311q21 37 51 37h48q20 0 30 -8.5t13 -30.5l196 -1309h86q33 0 33 -22q0 -20 -8 -53q-6 -18 -14 -23.5t-29 -5.5h-101q-219 -140 -219 -281q0 -96 107 -96q25 0 57 5t37 5q19 0 25 -20
t6 -43q-3 -23 -27 -29q-49 -16 -131 -16q-195 0 -195 172q0 96 58.5 168t163.5 135h-142q-30 0 -30 23q0 14 8 53q4 17 14 22.5t31 5.5h147l-57 383h-553l-225 -383h141q33 0 33 -22q0 -20 -8 -53q-6 -18 -15 -23.5t-30 -5.5zM868 1280q-153 -280 -385 -686h484
q-48 324 -99 686z" />
    <glyph glyph-name="aogonek" unicode="&#x105;" horiz-adv-x="1189" 
d="M969 0h-74q-213 -133 -213 -266q0 -90 104 -90q24 0 55.5 5t35.5 5q17 0 24 -21q6 -27 6 -41q-2 -20 -24 -26q-52 -17 -129 -17q-187 0 -187 164q0 91 56 159.5t157 127.5q-32 0 -32 31q0 7 6 61q-109 -117 -336 -117q-314 0 -314 310q0 167 61 350.5t173 279.5
q130 113 375 113q155 0 235 -55q7 26 16 34.5t27 8.5h39q29 0 29 -25q0 -11 -4 -35l-185 -854h119q33 0 33 -22q0 -5 -8 -51q-4 -18 -13.5 -23.5t-31.5 -5.5zM788 252l132 625q-29 20 -92.5 33.5t-133.5 13.5q-176 0 -282 -88q-86 -75 -136.5 -228.5t-50.5 -298.5
q0 -118 55.5 -174.5t180.5 -56.5q162 0 266 82q30 27 41 43q14 23 20 49z" />
    <glyph glyph-name="Cacute" unicode="&#x106;" horiz-adv-x="1253" 
d="M1143 1339q-102 23 -275 23q-225 0 -360 -148q-104 -117 -164.5 -346t-60.5 -422q0 -78 17.5 -140.5t56 -114t107.5 -79.5t165 -28q120 0 199 12t157 37q12 4 25 9t20.5 7.5t13.5 2.5q10 0 16.5 -7t12.5 -24q8 -21 8 -41q0 -24 -51 -41q-177 -66 -412 -66
q-460 0 -460 457q0 132 26 285t86.5 312.5t143.5 256.5q87 99 208.5 144t303.5 45q166 0 309 -33q39 -8 39 -41q0 -21 -39 -230q-5 -28 -33 -28h-49q-27 0 -27 28q0 3 1 13t5.5 53.5t10.5 103.5zM901 1581q-29 -20 -59 -20h-60q-11 0 -17.5 7t-6.5 15q0 18 18 33l309 225
q30 23 56 23h98q12 0 20.5 -7t8.5 -16q0 -19 -23 -37z" />
    <glyph glyph-name="cacute" unicode="&#x107;" horiz-adv-x="927" 
d="M805 928q-58 10 -146 10q-178 0 -270 -98q-78 -79 -121 -237.5t-43 -280.5q0 -114 61.5 -179t194.5 -65q80 0 125.5 8t102.5 27q40 12 51 12q12 0 20 -19q13 -39 13 -49q0 -23 -39 -37q-130 -47 -291 -47q-361 0 -361 328q0 89 18.5 194t65.5 223t115 189
q131 137 381 137q129 0 215 -22q18 -6 24.5 -13t6.5 -24q0 -8 -35 -213q-5 -29 -37 -29h-37q-31 0 -31 23zM694 1210q-22 -22 -49 -22h-51q-25 0 -25 22q0 12 13 25l254 274q22 25 47 25h92q24 0 24 -21q0 -10 -18 -32z" />
    <glyph glyph-name="Ccircumflex" unicode="&#x108;" horiz-adv-x="1253" 
d="M1143 1339q-102 23 -275 23q-225 0 -360 -148q-104 -117 -164.5 -346t-60.5 -422q0 -78 17.5 -140.5t56 -114t107.5 -79.5t165 -28q120 0 199 12t157 37q12 4 25 9t20.5 7.5t13.5 2.5q10 0 16.5 -7t12.5 -24q8 -21 8 -41q0 -24 -51 -41q-177 -66 -412 -66
q-460 0 -460 457q0 132 26 285t86.5 312.5t143.5 256.5q87 99 208.5 144t303.5 45q166 0 309 -33q39 -8 39 -41q0 -21 -39 -230q-5 -28 -33 -28h-49q-27 0 -27 28q0 3 1 13t5.5 53.5t10.5 103.5zM680 1561h-53q-23 0 -23 22q0 15 19 31l251 209q35 28 64 28h47q28 0 49 -24
l180 -213q11 -15 11 -27q0 -26 -33 -26h-37q-22 0 -51 26l-158 148l-209 -148q-39 -26 -57 -26z" />
    <glyph glyph-name="ccircumflex" unicode="&#x109;" horiz-adv-x="927" 
d="M805 928q-58 10 -146 10q-178 0 -270 -98q-78 -79 -121 -237.5t-43 -280.5q0 -114 61.5 -179t194.5 -65q80 0 125.5 8t102.5 27q40 12 51 12q12 0 20 -19q13 -39 13 -49q0 -23 -39 -37q-130 -47 -291 -47q-361 0 -361 328q0 89 18.5 194t65.5 223t115 189
q131 137 381 137q129 0 215 -22q18 -6 24.5 -13t6.5 -24q0 -8 -35 -213q-5 -29 -37 -29h-37q-31 0 -31 23zM459 1169h-49q-23 0 -23 23q0 15 16 31l254 282q26 29 58 29h53q28 0 39 -25l143 -290q6 -18 6 -27q0 -10 -8 -16.5t-20 -6.5h-37q-26 0 -43 27l-125 223l-215 -221
q-29 -29 -49 -29z" />
    <glyph glyph-name="Cdotaccent" unicode="&#x10a;" horiz-adv-x="1253" 
d="M1143 1339q-102 23 -275 23q-225 0 -360 -148q-104 -117 -164.5 -346t-60.5 -422q0 -78 17.5 -140.5t56 -114t107.5 -79.5t165 -28q120 0 199 12t157 37q12 4 25 9t20.5 7.5t13.5 2.5q10 0 16.5 -7t12.5 -24q8 -21 8 -41q0 -24 -51 -41q-177 -66 -412 -66
q-460 0 -460 457q0 132 26 285t86.5 312.5t143.5 256.5q87 99 208.5 144t303.5 45q166 0 309 -33q39 -8 39 -41q0 -21 -39 -230q-5 -28 -33 -28h-49q-27 0 -27 28q0 3 1 13t5.5 53.5t10.5 103.5zM1020 1700q0 -60 -33 -90q-25 -21 -61 -21q-72 0 -72 64q0 59 31 86
q22 22 65 22q70 0 70 -61z" />
    <glyph glyph-name="cdotaccent" unicode="&#x10b;" horiz-adv-x="927" 
d="M805 928q-58 10 -146 10q-178 0 -270 -98q-78 -79 -121 -237.5t-43 -280.5q0 -114 61.5 -179t194.5 -65q80 0 125.5 8t102.5 27q40 12 51 12q12 0 20 -19q13 -39 13 -49q0 -23 -39 -37q-130 -47 -291 -47q-361 0 -361 328q0 89 18.5 194t65.5 223t115 189
q131 137 381 137q129 0 215 -22q18 -6 24.5 -13t6.5 -24q0 -8 -35 -213q-5 -29 -37 -29h-37q-31 0 -31 23zM786 1382q0 -61 -32 -90q-23 -20 -62 -20q-71 0 -71 61q0 58 30 88q26 23 66 23q69 0 69 -62z" />
    <glyph glyph-name="Ccaron" unicode="&#x10c;" horiz-adv-x="1253" 
d="M1143 1339q-102 23 -275 23q-225 0 -360 -148q-104 -117 -164.5 -346t-60.5 -422q0 -78 17.5 -140.5t56 -114t107.5 -79.5t165 -28q120 0 199 12t157 37q12 4 25 9t20.5 7.5t13.5 2.5q10 0 16.5 -7t12.5 -24q8 -21 8 -41q0 -24 -51 -41q-177 -66 -412 -66
q-460 0 -460 457q0 132 26 285t86.5 312.5t143.5 256.5q87 99 208.5 144t303.5 45q166 0 309 -33q39 -8 39 -41q0 -21 -39 -230q-5 -28 -33 -28h-49q-27 0 -27 28q0 3 1 13t5.5 53.5t10.5 103.5zM1180 1851h53q22 0 22 -20q0 -13 -18 -31l-252 -209q-37 -30 -63 -30h-50
q-25 0 -47 26l-180 213q-10 13 -10 27q0 24 33 24h37q24 0 51 -24l157 -148l209 148q36 24 58 24z" />
    <glyph glyph-name="ccaron" unicode="&#x10d;" horiz-adv-x="927" 
d="M805 928q-58 10 -146 10q-178 0 -270 -98q-78 -79 -121 -237.5t-43 -280.5q0 -114 61.5 -179t194.5 -65q80 0 125.5 8t102.5 27q40 12 51 12q12 0 20 -19q13 -39 13 -49q0 -23 -39 -37q-130 -47 -291 -47q-361 0 -361 328q0 89 18.5 194t65.5 223t115 189
q131 137 381 137q129 0 215 -22q18 -6 24.5 -13t6.5 -24q0 -8 -35 -213q-5 -29 -37 -29h-37q-31 0 -31 23zM940 1534h49q23 0 23 -21q0 -12 -17 -32l-254 -281q-28 -31 -57 -31h-53q-27 0 -39 27l-143 289l-7 28q0 9 8.5 15t20.5 6h37q27 0 43 -25l125 -223l215 219
q29 29 49 29z" />
    <glyph glyph-name="Dcaron" unicode="&#x10e;" horiz-adv-x="1458" 
d="M498 0h-428q-31 0 -31 23q0 17 10 53q4 17 13 22.5t30 5.5h109l266 1237h-123q-31 0 -31 21q0 10 9 53q8 31 45 31h434q229 0 360 -41q126 -41 192 -150t66 -272q0 -113 -13 -220.5t-47.5 -222.5t-87 -208t-139.5 -169.5t-198 -113.5q-76 -25 -203.5 -37t-232.5 -12z
M328 104h207q257 0 383 54q100 42 175.5 132t116.5 204.5t60.5 229.5t19.5 230q0 254 -160 336q-99 51 -348 51h-192zM1143 1851h53q23 0 23 -20q0 -12 -19 -31l-252 -209q-37 -30 -63 -30h-49q-26 0 -48 26l-180 213q-10 13 -10 27q0 24 33 24h37q24 0 51 -24l158 -148
l208 148q36 24 58 24z" />
    <glyph glyph-name="dcaron" unicode="&#x10f;" horiz-adv-x="1159" 
d="M973 0h-193q-32 0 -32 25q0 27 6 65q-107 -115 -336 -115q-314 0 -314 310q0 161 59 347.5t169 282.5q130 113 381 113q145 0 227 -45l98 447h-112q-33 0 -33 20q0 11 10 53q4 17 14 23t31 6h178q23 0 31 -6.5t8 -24.5q0 -13 -6 -43l-289 -1356h123q33 0 33 -20
q0 -19 -10 -55q-4 -17 -13 -22t-30 -5zM786 248l134 633q-28 19 -92 31t-136 12q-177 0 -282 -88q-86 -75 -135.5 -228t-49.5 -299q0 -117 55.5 -174t180.5 -57q149 0 264 80q27 19 43 43q11 18 18 47zM1462 1532q35 0 35 -37q0 -28 -22 -96q-57 -162 -160 -248
q-23 -23 -43 -23q-14 0 -39 17q-14 14 -14 26q0 17 20 33q105 112 127 277q7 51 47 51h49z" />
    <glyph glyph-name="Dcroat" unicode="&#x110;" horiz-adv-x="1458" 
d="M498 0h-428q-31 0 -31 23q0 17 10 53q4 17 13 22.5t30 5.5h109l129 607h-180q-29 0 -29 24q0 20 10 51q5 18 12 24.5t25 6.5h184l115 524h-123q-31 0 -31 21q0 10 9 53q8 31 45 31h434q229 0 360 -41q126 -41 192 -150t66 -272q0 -113 -13 -220.5t-47.5 -222.5t-87 -208
t-139.5 -169.5t-198 -113.5q-76 -25 -203.5 -37t-232.5 -12zM328 104h207q257 0 383 54q100 42 175.5 132t116.5 204.5t60.5 229.5t19.5 230q0 254 -160 336q-99 51 -348 51h-192l-113 -524h340q31 0 31 -22q0 -21 -12 -58q-4 -16 -12.5 -21t-28.5 -5h-340z" />
    <glyph glyph-name="dcroat" unicode="&#x111;" horiz-adv-x="1159" 
d="M973 0h-193q-32 0 -32 25q0 27 6 65q-107 -115 -336 -115q-314 0 -314 310q0 161 59 347.5t169 282.5q130 113 381 113q145 0 227 -45l49 223h-252q-28 0 -28 23q0 3 1 10t2.5 17t2.5 16q10 26 39 26h256l28 132h-112q-33 0 -33 20q0 11 10 53q4 17 14 23t31 6h178
q23 0 31 -6.5t8 -24.5q0 -13 -6 -43l-35 -160h101q30 0 30 -22l-10 -45q-5 -25 -39 -25h-100l-236 -1104h123q33 0 33 -20q0 -19 -10 -55q-4 -17 -13 -22t-30 -5zM786 248l134 633q-28 19 -92 31t-136 12q-177 0 -282 -88q-86 -75 -135.5 -228t-49.5 -299q0 -117 55.5 -174
t180.5 -57q149 0 264 80q27 19 43 43q11 18 18 47z" />
    <glyph glyph-name="Emacron" unicode="&#x112;" horiz-adv-x="1210" 
d="M985 0h-915q-31 0 -31 23q0 14 10 53q4 17 13 22.5t30 5.5h109l268 1237h-125q-31 0 -31 21q0 10 9 53q8 31 45 31h833q19 0 26 -7t7 -22q0 -5 -39 -233q-5 -29 -33 -29h-49q-17 0 -23 6.5t-6 20.5q0 1 19 159h-512l-115 -532h502q35 0 35 -25q0 -12 -11 -55
q-7 -31 -45 -31h-503l-127 -594h602l41 154q7 33 35 33h49q28 0 28 -27q0 -12 -45 -217q-4 -17 -6 -23.5t-7 -13.5t-13.5 -8.5t-24.5 -1.5zM1077 1634h-506q-26 0 -26 23q0 26 10 57q9 31 39 31h502q30 0 30 -25q0 -23 -12 -59q-4 -17 -11.5 -22t-25.5 -5z" />
    <glyph glyph-name="emacron" unicode="&#x113;" horiz-adv-x="1036" 
d="M236 475q-15 -86 -15 -139q0 -147 69.5 -201.5t225.5 -54.5q131 0 266 43q40 12 47 12q15 0 21 -16q16 -43 16 -49q0 -14 -8.5 -22.5t-30.5 -18.5q-137 -56 -344 -56q-205 0 -293 86t-88 265q0 84 18.5 186.5t68 219.5t120.5 185q122 119 355 119q169 0 244 -68t75 -198
q0 -107 -25 -221q-1 -5 -3 -13t-3 -11.5t-2.5 -9.5t-3 -9t-3 -6.5t-4 -6t-5.5 -4.5q-15 -12 -43 -12h-655zM252 573h594q22 86 22 177q0 92 -48 138t-175 46q-158 0 -237 -68q-103 -87 -156 -293zM926 1260h-469q-27 0 -27 24q0 28 10 57q5 18 13 24.5t26 6.5h463
q31 0 31 -22q0 -31 -10 -64q-5 -15 -12.5 -20.5t-24.5 -5.5z" />
    <glyph glyph-name="Ebreve" unicode="&#x114;" horiz-adv-x="1210" 
d="M985 0h-915q-31 0 -31 23q0 14 10 53q4 17 13 22.5t30 5.5h109l268 1237h-125q-31 0 -31 21q0 10 9 53q8 31 45 31h833q19 0 26 -7t7 -22q0 -5 -39 -233q-5 -29 -33 -29h-49q-17 0 -23 6.5t-6 20.5q0 1 19 159h-512l-115 -532h502q35 0 35 -25q0 -12 -11 -55
q-7 -31 -45 -31h-503l-127 -594h602l41 154q7 33 35 33h49q28 0 28 -27q0 -12 -45 -217q-4 -17 -6 -23.5t-7 -13.5t-13.5 -8.5t-24.5 -1.5zM1126 1847q25 0 25 -24q0 -31 -16 -72q-38 -92 -109.5 -141t-196.5 -49q-262 0 -262 211q0 30 6 51q7 24 31 24h37q27 0 27 -24
q0 -10 1 -26t1 -19q5 -58 42 -85.5t119 -27.5q101 0 151.5 38.5t72.5 115.5q5 15 12 21.5t23 6.5h36z" />
    <glyph glyph-name="ebreve" unicode="&#x115;" horiz-adv-x="1036" 
d="M236 475q-15 -86 -15 -139q0 -147 69.5 -201.5t225.5 -54.5q131 0 266 43q40 12 47 12q15 0 21 -16q16 -43 16 -49q0 -14 -8.5 -22.5t-30.5 -18.5q-137 -56 -344 -56q-205 0 -293 86t-88 265q0 84 18.5 186.5t68 219.5t120.5 185q122 119 355 119q169 0 244 -68t75 -198
q0 -107 -25 -221q-1 -5 -3 -13t-3 -11.5t-2.5 -9.5t-3 -9t-3 -6.5t-4 -6t-5.5 -4.5q-15 -12 -43 -12h-655zM252 573h594q22 86 22 177q0 92 -48 138t-175 46q-158 0 -237 -68q-103 -87 -156 -293zM952 1470q21 0 21 -24q0 -29 -17 -76q-78 -199 -294 -199
q-123 0 -183.5 56.5t-60.5 148.5q0 46 6 70q7 24 33 24h26q25 0 25 -22v-43q3 -65 40.5 -96t121.5 -31q95 0 142 42.5t71 127.5q5 22 30 22h39z" />
    <glyph glyph-name="Edotaccent" unicode="&#x116;" horiz-adv-x="1210" 
d="M985 0h-915q-31 0 -31 23q0 14 10 53q4 17 13 22.5t30 5.5h109l268 1237h-125q-31 0 -31 21q0 10 9 53q8 31 45 31h833q19 0 26 -7t7 -22q0 -5 -39 -233q-5 -29 -33 -29h-49q-17 0 -23 6.5t-6 20.5q0 1 19 159h-512l-115 -532h502q35 0 35 -25q0 -12 -11 -55
q-7 -31 -45 -31h-503l-127 -594h602l41 154q7 33 35 33h49q28 0 28 -27q0 -12 -45 -217q-4 -17 -6 -23.5t-7 -13.5t-13.5 -8.5t-24.5 -1.5zM934 1700q0 -60 -33 -90q-25 -21 -61 -21q-72 0 -72 64q0 59 31 86q22 22 65 22q70 0 70 -61z" />
    <glyph glyph-name="edotaccent" unicode="&#x117;" horiz-adv-x="1036" 
d="M236 475q-15 -86 -15 -139q0 -147 69.5 -201.5t225.5 -54.5q131 0 266 43q40 12 47 12q15 0 21 -16q16 -43 16 -49q0 -14 -8.5 -22.5t-30.5 -18.5q-137 -56 -344 -56q-205 0 -293 86t-88 265q0 84 18.5 186.5t68 219.5t120.5 185q122 119 355 119q169 0 244 -68t75 -198
q0 -107 -25 -221q-1 -5 -3 -13t-3 -11.5t-2.5 -9.5t-3 -9t-3 -6.5t-4 -6t-5.5 -4.5q-15 -12 -43 -12h-655zM252 573h594q22 86 22 177q0 92 -48 138t-175 46q-158 0 -237 -68q-103 -87 -156 -293zM766 1382q0 -60 -33 -90q-23 -20 -61 -20q-72 0 -72 61q0 57 31 88
q26 23 65 23q70 0 70 -62z" />
    <glyph glyph-name="Eogonek" unicode="&#x118;" horiz-adv-x="1210" 
d="M985 0h-55q-219 -140 -219 -281q0 -96 106 -96q25 0 57 5t37 5q19 0 25 -20t6 -43q-3 -23 -27 -29q-49 -16 -131 -16q-194 0 -194 172q0 97 58.5 168.5t162.5 134.5h-741q-31 0 -31 23q0 14 10 53q4 17 13 22.5t30 5.5h109l268 1237h-125q-31 0 -31 21q0 10 9 53
q8 31 45 31h833q19 0 26 -7t7 -22q0 -5 -39 -233q-5 -29 -33 -29h-49q-17 0 -23 6.5t-6 20.5q0 1 19 159h-512l-115 -532h502q35 0 35 -25q0 -12 -11 -55q-7 -31 -45 -31h-503l-127 -594h602l41 154q7 33 35 33h49q28 0 28 -27q0 -12 -45 -217q-4 -17 -6 -23.5t-7 -13.5
t-13.5 -8.5t-24.5 -1.5z" />
    <glyph glyph-name="eogonek" unicode="&#x119;" horiz-adv-x="1036" 
d="M236 475q-15 -86 -15 -139q0 -147 69.5 -201.5t225.5 -54.5q131 0 266 43q40 12 47 12q15 0 21 -16q16 -43 16 -49q0 -14 -8.5 -22.5t-30.5 -18.5q-62 -25 -127 -37q-200 -127 -200 -258q0 -90 104 -90q24 0 55 5t35 5q18 0 25 -21q6 -27 6 -41q-2 -20 -25 -26
q-52 -17 -129 -17q-186 0 -186 164q0 82 45.5 144.5t128.5 117.5q-14 0 -39 -1t-37 -1q-205 0 -293 86t-88 265q0 84 18.5 186.5t68 219.5t120.5 185q122 119 355 119q169 0 244 -68t75 -198q0 -107 -25 -221q-1 -5 -3 -13t-3 -11.5t-2.5 -9.5t-3 -9t-3 -6.5t-4 -6
t-5.5 -4.5q-15 -12 -43 -12h-655zM252 573h594q22 86 22 177q0 92 -48 138t-175 46q-158 0 -237 -68q-103 -87 -156 -293z" />
    <glyph glyph-name="Ecaron" unicode="&#x11a;" horiz-adv-x="1210" 
d="M985 0h-915q-31 0 -31 23q0 14 10 53q4 17 13 22.5t30 5.5h109l268 1237h-125q-31 0 -31 21q0 10 9 53q8 31 45 31h833q19 0 26 -7t7 -22q0 -5 -39 -233q-5 -29 -33 -29h-49q-17 0 -23 6.5t-6 20.5q0 1 19 159h-512l-115 -532h502q35 0 35 -25q0 -12 -11 -55
q-7 -31 -45 -31h-503l-127 -594h602l41 154q7 33 35 33h49q28 0 28 -27q0 -12 -45 -217q-4 -17 -6 -23.5t-7 -13.5t-13.5 -8.5t-24.5 -1.5zM1112 1851h53q23 0 23 -20q0 -12 -19 -31l-251 -209q-37 -30 -64 -30h-49q-25 0 -47 26l-180 213q-11 15 -11 27q0 24 33 24h37
q24 0 51 -24l158 -148l209 148q36 24 57 24z" />
    <glyph glyph-name="ecaron" unicode="&#x11b;" horiz-adv-x="1036" 
d="M236 475q-15 -86 -15 -139q0 -147 69.5 -201.5t225.5 -54.5q131 0 266 43q40 12 47 12q15 0 21 -16q16 -43 16 -49q0 -14 -8.5 -22.5t-30.5 -18.5q-137 -56 -344 -56q-205 0 -293 86t-88 265q0 84 18.5 186.5t68 219.5t120.5 185q122 119 355 119q169 0 244 -68t75 -198
q0 -107 -25 -221q-1 -5 -3 -13t-3 -11.5t-2.5 -9.5t-3 -9t-3 -6.5t-4 -6t-5.5 -4.5q-15 -12 -43 -12h-655zM252 573h594q22 86 22 177q0 92 -48 138t-175 46q-158 0 -237 -68q-103 -87 -156 -293zM942 1534h49q23 0 23 -21q0 -12 -17 -32l-254 -281q-28 -31 -57 -31h-53
q-27 0 -39 27l-143 289l-7 28q0 9 8.5 15t20.5 6h37q27 0 43 -25l125 -223l215 219q29 29 49 29z" />
    <glyph glyph-name="Gcircumflex" unicode="&#x11c;" horiz-adv-x="1366" 
d="M1163 125q-6 -29 -17 -43.5t-38 -26.5q-182 -82 -457 -82q-232 0 -361.5 110t-129.5 345q0 218 68.5 467.5t193.5 392.5q85 95 210.5 140t307.5 45q91 0 185 -10t147 -25q21 -5 30 -13.5t9 -27.5q0 -22 -37 -228q-5 -28 -35 -28h-49q-27 0 -27 26q0 10 19 170
q-119 25 -297 25q-241 0 -373 -145q-72 -79 -125.5 -222.5t-77.5 -285.5t-24 -263q0 -63 12 -115.5t40 -98.5t71 -78.5t108.5 -51t149.5 -18.5q225 0 378 61l99 451h-342q-33 0 -33 25q0 24 10 55q4 17 13.5 23t29.5 6h416q41 0 41 -31q0 -20 -6 -41zM721 1561h-53
q-23 0 -23 22q0 15 19 31l251 209q35 28 64 28h47q28 0 49 -24l180 -213q11 -15 11 -27q0 -26 -33 -26h-37q-22 0 -51 26l-158 148l-209 -148q-39 -26 -57 -26z" />
    <glyph glyph-name="gcircumflex" unicode="&#x11d;" horiz-adv-x="1009" 
d="M154 35q-59 20 -86 57.5t-27 100.5q0 88 45.5 155.5t128.5 93.5q-47 60 -47 158q0 124 45 224t145 155q95 55 258 55q99 0 172 -28h273q35 0 35 -27q0 -22 -4 -45q-7 -31 -45 -31h-152q43 -59 43 -137q0 -226 -123 -336q-104 -96 -315 -96q-100 0 -172 28q-47 15 -58 15
q-27 0 -55 -19q-29 -19 -44 -58t-15 -79q0 -76 49 -88q41 -14 307 -14q228 0 320 -49t92 -179q0 -116 -36.5 -195.5t-109.5 -123.5t-166.5 -62t-224.5 -18q-100 0 -176 16.5t-120.5 42.5t-72 62t-36.5 70t-9 73q0 104 43.5 171.5t137.5 107.5zM803 -141q0 49 -22.5 81
t-84 52t-164.5 22q-90 2 -186 2q-58 0 -94 -12q-78 -23 -120 -80.5t-42 -142.5q0 -187 311 -187q39 0 68 1t65 4t62.5 8.5t56 15t50.5 23t41 33.5t32 45.5t19.5 59.5t7.5 75zM827 756q0 100 -58 139t-175 39q-118 0 -178 -33q-70 -36 -101.5 -114t-31.5 -175q0 -56 18 -93
t52.5 -55t72.5 -25t90 -7q152 0 227 70q84 79 84 254zM438 1169h-49q-22 0 -22 23q0 15 16 31l254 282q26 29 57 29h54q27 0 38 -25l144 -290q6 -18 6 -27q0 -10 -8.5 -16.5t-20.5 -6.5h-37q-26 0 -43 27l-125 223l-215 -221q-29 -29 -49 -29z" />
    <glyph glyph-name="Gbreve" unicode="&#x11e;" horiz-adv-x="1366" 
d="M1163 125q-6 -29 -17 -43.5t-38 -26.5q-182 -82 -457 -82q-232 0 -361.5 110t-129.5 345q0 218 68.5 467.5t193.5 392.5q85 95 210.5 140t307.5 45q91 0 185 -10t147 -25q21 -5 30 -13.5t9 -27.5q0 -22 -37 -228q-5 -28 -35 -28h-49q-27 0 -27 26q0 10 19 170
q-119 25 -297 25q-241 0 -373 -145q-72 -79 -125.5 -222.5t-77.5 -285.5t-24 -263q0 -63 12 -115.5t40 -98.5t71 -78.5t108.5 -51t149.5 -18.5q225 0 378 61l99 451h-342q-33 0 -33 25q0 24 10 55q4 17 13.5 23t29.5 6h416q41 0 41 -31q0 -20 -6 -41zM1237 1847q25 0 25 -24
q0 -28 -17 -72q-38 -92 -109 -141t-196 -49q-262 0 -262 211q0 30 6 51q7 24 31 24h37q26 0 26 -24q0 -10 1 -26t1 -19q5 -57 42.5 -85t119.5 -28q100 0 150.5 38.5t72.5 115.5q5 15 12 21.5t23 6.5h37z" />
    <glyph glyph-name="gbreve" unicode="&#x11f;" horiz-adv-x="1009" 
d="M154 35q-59 20 -86 57.5t-27 100.5q0 88 45.5 155.5t128.5 93.5q-47 60 -47 158q0 124 45 224t145 155q95 55 258 55q99 0 172 -28h273q35 0 35 -27q0 -22 -4 -45q-7 -31 -45 -31h-152q43 -59 43 -137q0 -226 -123 -336q-104 -96 -315 -96q-100 0 -172 28q-47 15 -58 15
q-27 0 -55 -19q-29 -19 -44 -58t-15 -79q0 -76 49 -88q41 -14 307 -14q228 0 320 -49t92 -179q0 -116 -36.5 -195.5t-109.5 -123.5t-166.5 -62t-224.5 -18q-100 0 -176 16.5t-120.5 42.5t-72 62t-36.5 70t-9 73q0 104 43.5 171.5t137.5 107.5zM803 -141q0 49 -22.5 81
t-84 52t-164.5 22q-90 2 -186 2q-58 0 -94 -12q-78 -23 -120 -80.5t-42 -142.5q0 -187 311 -187q39 0 68 1t65 4t62.5 8.5t56 15t50.5 23t41 33.5t32 45.5t19.5 59.5t7.5 75zM827 756q0 100 -58 139t-175 39q-118 0 -178 -33q-70 -36 -101.5 -114t-31.5 -175q0 -56 18 -93
t52.5 -55t72.5 -25t90 -7q152 0 227 70q84 79 84 254zM920 1470q20 0 20 -24q0 -32 -16 -76q-78 -199 -295 -199q-123 0 -183.5 56.5t-60.5 148.5q0 46 6 70q7 24 33 24h27q24 0 24 -22v-43q3 -65 40.5 -96t121.5 -31q95 0 142 42.5t71 127.5q6 22 31 22h39z" />
    <glyph glyph-name="Gdotaccent" unicode="&#x120;" horiz-adv-x="1366" 
d="M1163 125q-6 -29 -17 -43.5t-38 -26.5q-182 -82 -457 -82q-232 0 -361.5 110t-129.5 345q0 218 68.5 467.5t193.5 392.5q85 95 210.5 140t307.5 45q91 0 185 -10t147 -25q21 -5 30 -13.5t9 -27.5q0 -22 -37 -228q-5 -28 -35 -28h-49q-27 0 -27 26q0 10 19 170
q-119 25 -297 25q-241 0 -373 -145q-72 -79 -125.5 -222.5t-77.5 -285.5t-24 -263q0 -63 12 -115.5t40 -98.5t71 -78.5t108.5 -51t149.5 -18.5q225 0 378 61l99 451h-342q-33 0 -33 25q0 24 10 55q4 17 13.5 23t29.5 6h416q41 0 41 -31q0 -20 -6 -41zM1038 1700
q0 -61 -32 -90q-24 -21 -62 -21q-72 0 -72 64q0 59 31 86q22 22 66 22q34 0 51.5 -13.5t17.5 -47.5z" />
    <glyph glyph-name="gdotaccent" unicode="&#x121;" horiz-adv-x="1009" 
d="M154 35q-59 20 -86 57.5t-27 100.5q0 88 45.5 155.5t128.5 93.5q-47 60 -47 158q0 124 45 224t145 155q95 55 258 55q99 0 172 -28h273q35 0 35 -27q0 -22 -4 -45q-7 -31 -45 -31h-152q43 -59 43 -137q0 -226 -123 -336q-104 -96 -315 -96q-100 0 -172 28q-47 15 -58 15
q-27 0 -55 -19q-29 -19 -44 -58t-15 -79q0 -76 49 -88q41 -14 307 -14q228 0 320 -49t92 -179q0 -116 -36.5 -195.5t-109.5 -123.5t-166.5 -62t-224.5 -18q-100 0 -176 16.5t-120.5 42.5t-72 62t-36.5 70t-9 73q0 104 43.5 171.5t137.5 107.5zM803 -141q0 49 -22.5 81
t-84 52t-164.5 22q-90 2 -186 2q-58 0 -94 -12q-78 -23 -120 -80.5t-42 -142.5q0 -187 311 -187q39 0 68 1t65 4t62.5 8.5t56 15t50.5 23t41 33.5t32 45.5t19.5 59.5t7.5 75zM827 756q0 100 -58 139t-175 39q-118 0 -178 -33q-70 -36 -101.5 -114t-31.5 -175q0 -56 18 -93
t52.5 -55t72.5 -25t90 -7q152 0 227 70q84 79 84 254zM713 1382q0 -60 -33 -90q-23 -20 -62 -20q-71 0 -71 61q0 57 31 88q26 23 65 23q70 0 70 -62z" />
    <glyph glyph-name="Gcommaaccent" unicode="&#x122;" horiz-adv-x="1366" 
d="M1163 125q-6 -29 -17 -43.5t-38 -26.5q-182 -82 -457 -82q-232 0 -361.5 110t-129.5 345q0 218 68.5 467.5t193.5 392.5q85 95 210.5 140t307.5 45q91 0 185 -10t147 -25q21 -5 30 -13.5t9 -27.5q0 -22 -37 -228q-5 -28 -35 -28h-49q-27 0 -27 26q0 10 19 170
q-119 25 -297 25q-241 0 -373 -145q-72 -79 -125.5 -222.5t-77.5 -285.5t-24 -263q0 -63 12 -115.5t40 -98.5t71 -78.5t108.5 -51t149.5 -18.5q225 0 378 61l99 451h-342q-33 0 -33 25q0 24 10 55q4 17 13.5 23t29.5 6h416q41 0 41 -31q0 -20 -6 -41zM690 -145q35 0 35 -35
q0 -25 -23 -96q-56 -161 -159 -250q-25 -21 -43 -21q-14 0 -39 17q-15 15 -15 26q0 16 21 33q105 112 127 274q7 52 47 52h49z" />
    <glyph glyph-name="gcommaaccent" unicode="&#x123;" horiz-adv-x="1009" 
d="M154 35q-59 20 -86 57.5t-27 100.5q0 88 45.5 155.5t128.5 93.5q-47 60 -47 158q0 124 45 224t145 155q95 55 258 55q99 0 172 -28h273q35 0 35 -27q0 -18 -4 -41q-7 -31 -45 -31h-152q43 -55 43 -141q0 -226 -123 -336q-104 -96 -315 -96q-100 0 -172 28q-47 15 -58 15
q-27 0 -55 -19q-29 -19 -44 -58t-15 -79q0 -76 49 -88q41 -14 307 -14q228 0 320 -49t92 -179q0 -116 -36.5 -195.5t-109.5 -123.5t-166.5 -62t-224.5 -18q-100 0 -176 16.5t-120.5 42.5t-72 62t-36.5 70t-9 73q0 104 43.5 171.5t137.5 107.5zM803 -141q0 49 -22.5 81
t-84 52t-164.5 22q-90 2 -186 2q-58 0 -94 -12q-78 -23 -120 -80.5t-42 -142.5q0 -187 311 -187q39 0 68 1t65 4t62.5 8.5t56 15t50.5 23t41 33.5t32 45.5t19.5 59.5t7.5 75zM827 756q0 100 -58 139t-175 39q-118 0 -178 -33q-70 -36 -101.5 -114t-31.5 -175q0 -56 18 -93
t52.5 -55t72.5 -25t90 -7q152 0 227 70q84 79 84 254zM621 1186h-39q-35 0 -35 35q0 37 24 100q55 157 160 244q21 18 39 18q15 0 31 -12q16 -13 16 -27q0 -13 -20 -33q-45 -46 -80.5 -118.5t-46.5 -155.5q-3 -26 -13.5 -38.5t-35.5 -12.5z" />
    <glyph glyph-name="Hcircumflex" unicode="&#x124;" horiz-adv-x="1511" 
d="M434 0h-364q-31 0 -31 23q0 17 10 53q4 17 13 22.5t30 5.5h109l266 1237h-123q-31 0 -31 21q0 12 9 53q8 31 45 31h360q33 0 33 -25q0 -17 -8 -53q-6 -17 -14.5 -22t-28.5 -5h-117l-117 -534h711l112 534h-120q-33 0 -33 21q0 19 10 53q8 31 43 31h363q32 0 32 -25
q0 -19 -10 -53q-4 -17 -13 -22t-30 -5h-117l-266 -1237h129q33 0 33 -22t-10 -53q-4 -18 -13 -23.5t-30 -5.5h-363q-31 0 -31 23q0 9 9 53q4 17 14 22.5t31 5.5h108l127 596h-708l-127 -596h129q17 0 23.5 -5t6.5 -17q0 -20 -8 -53q-4 -18 -13 -23.5t-30 -5.5zM748 1561h-54
q-22 0 -22 22q0 16 18 31l252 209q35 28 64 28h47q28 0 49 -24l180 -213q10 -13 10 -27q0 -26 -32 -26h-37q-23 0 -52 26l-157 148l-209 -148q-39 -26 -57 -26z" />
    <glyph glyph-name="hcircumflex" unicode="&#x125;" horiz-adv-x="1177" 
d="M367 0h-347q-30 0 -30 23q0 10 8 51q4 17 14 22.5t31 5.5h102l283 1328h-111q-32 0 -32 20q0 3 10 51q8 31 45 31h184q35 0 35 -27q0 -11 -6 -41l-121 -563q28 48 97 79t134.5 40.5t133.5 9.5q252 0 252 -170q0 -57 -23 -172l-125 -586h117q35 0 35 -20q0 -6 -11 -55
q-4 -18 -12.5 -22.5t-30.5 -4.5h-192q-35 0 -35 27q0 13 6 43l133 620q17 72 17 125q0 61 -43 85t-131 24q-77 0 -139.5 -12.5t-88 -24.5t-57.5 -31q-27 -14 -47 -45q-11 -19 -19 -53l-141 -656h125q31 0 31 -22q0 -18 -8 -51q-4 -18 -13 -23.5t-30 -5.5zM293 1585h-53
q-23 0 -23 23q0 14 19 30l251 209q36 29 64 29h47q28 0 49 -25l180 -213q11 -15 11 -26q0 -12 -9 -19.5t-24 -7.5h-37q-3 0 -6.5 0.5t-6 1t-5.5 1.5t-5 2t-4.5 3t-4 3t-5 3.5t-4.5 3.5l-4.5 4.5t-5.5 4.5l-158 147l-209 -147q-41 -27 -57 -27z" />
    <glyph glyph-name="Hbar" unicode="&#x126;" horiz-adv-x="1511" 
d="M434 0h-364q-31 0 -31 23q0 17 10 53q4 17 13 22.5t30 5.5h109l192 897h-135q-29 0 -29 23q0 16 11 53q5 18 12.5 24.5t26.5 6.5h137l51 233h-123q-31 0 -31 21q0 12 9 53q8 31 45 31h360q33 0 33 -25q0 -17 -8 -53q-6 -17 -14.5 -22t-28.5 -5h-117l-51 -233h708l49 233
h-120q-33 0 -33 21q0 19 10 53q8 31 43 31h363q32 0 32 -25q0 -19 -10 -53q-4 -17 -13 -22t-30 -5h-117l-51 -233h146q28 0 28 -25q0 -13 -10 -55q-4 -16 -13 -21.5t-28 -5.5h-145l-193 -897h129q33 0 33 -22t-10 -53q-4 -18 -13 -23.5t-30 -5.5h-363q-31 0 -31 23q0 9 9 53
q4 17 14 22.5t31 5.5h108l127 596h-708l-127 -596h129q17 0 23.5 -5t6.5 -17q0 -20 -8 -53q-4 -18 -13 -23.5t-30 -5.5zM475 807h711l41 194h-711z" />
    <glyph glyph-name="hbar" unicode="&#x127;" horiz-adv-x="1177" 
d="M367 0h-347q-30 0 -30 23q0 10 8 51q4 17 14 22.5t31 5.5h102l236 1106h-131q-17 0 -23 5.5t-6 17.5q0 19 6 43q7 29 39 29h135l27 127h-111q-32 0 -32 20q0 3 10 51q8 31 45 31h184q35 0 35 -27q0 -11 -6 -41l-35 -161h219q29 0 29 -25q0 -9 -8 -45q-5 -25 -41 -25h-219
l-66 -307q28 48 97 79t134.5 40.5t133.5 9.5q252 0 252 -170q0 -57 -23 -172l-125 -586h117q35 0 35 -20q0 -6 -11 -55q-4 -18 -12.5 -22.5t-30.5 -4.5h-192q-35 0 -35 27q0 13 6 43l133 620q17 72 17 125q0 61 -43 85t-131 24q-77 0 -139.5 -12.5t-88 -24.5t-57.5 -31
q-27 -14 -47 -45q-11 -19 -19 -53l-141 -656h125q31 0 31 -22q0 -18 -8 -51q-4 -18 -13 -23.5t-30 -5.5z" />
    <glyph glyph-name="Itilde" unicode="&#x128;" horiz-adv-x="677" 
d="M434 0h-364q-31 0 -31 23q0 17 10 53q4 17 13 22.5t30 5.5h109l266 1237h-123q-31 0 -31 21q0 10 9 53q8 31 45 31h360q33 0 33 -25q0 -24 -8 -51q-4 -17 -14 -23t-29 -6h-117l-266 -1237h129q17 0 23.5 -5t6.5 -17q0 -20 -8 -53q-4 -18 -13 -23.5t-30 -5.5zM307 1591
h-33q-26 0 -26 21q0 20 16 47q42 79 85.5 116t105.5 37q41 0 145 -59q83 -49 123 -49q29 0 49 16t49 68q21 35 43 35h35q29 0 29 -21q0 -16 -13 -45q-41 -89 -86.5 -128.5t-105.5 -39.5q-34 0 -66.5 12t-89.5 44q-90 51 -123 51q-26 0 -47 -17t-45 -61q-12 -27 -45 -27z" />
    <glyph glyph-name="itilde" unicode="&#x129;" horiz-adv-x="610" 
d="M160 1237h-33q-27 0 -27 23q0 10 15 47q42 79 84.5 116t101.5 37q25 0 52 -12.5t87 -48.5q46 -29 69.5 -38t47.5 -9q27 0 47 15.5t47 66.5q16 36 41 36h35q29 0 29 -20q0 -16 -13 -45q-41 -90 -85.5 -130t-100.5 -40q-33 0 -64 11t-85 44q-87 51 -117 51q-26 0 -46 -15.5
t-42 -59.5q-13 -29 -43 -29zM393 0h-346q-33 0 -33 23q0 5 11 51q4 17 14 22.5t31 5.5h102l172 801h-115q-30 0 -30 23q0 10 8 49q8 31 45 31h188q33 0 33 -27q0 -13 -4 -33l-180 -844h123q32 0 32 -22q0 -18 -8 -51q-6 -18 -14 -23.5t-29 -5.5z" />
    <glyph glyph-name="Imacron" unicode="&#x12a;" horiz-adv-x="677" 
d="M434 0h-364q-31 0 -31 23q0 17 10 53q4 17 13 22.5t30 5.5h109l266 1237h-123q-31 0 -31 21q0 10 9 53q8 31 45 31h360q33 0 33 -25q0 -24 -8 -51q-4 -17 -14 -23t-29 -6h-117l-266 -1237h129q17 0 23.5 -5t6.5 -17q0 -20 -8 -53q-4 -18 -13 -23.5t-30 -5.5zM821 1634
h-506q-26 0 -26 23q0 26 10 57q9 31 39 31h502q30 0 30 -25q0 -23 -12 -59q-4 -17 -11.5 -22t-25.5 -5z" />
    <glyph glyph-name="imacron" unicode="&#x12b;" horiz-adv-x="610" 
d="M664 1260h-469q-27 0 -27 24q0 28 10 57q5 18 13 24.5t26 6.5h463q31 0 31 -22q0 -27 -11 -64q-5 -15 -12 -20.5t-24 -5.5zM393 0h-346q-33 0 -33 23q0 5 11 51q4 17 14 22.5t31 5.5h102l172 801h-115q-30 0 -30 23q0 10 8 49q8 31 45 31h188q33 0 33 -27q0 -13 -4 -33
l-180 -844h123q32 0 32 -22q0 -18 -8 -51q-6 -18 -14 -23.5t-29 -5.5z" />
    <glyph glyph-name="Ibreve" unicode="&#x12c;" horiz-adv-x="677" 
d="M434 0h-364q-31 0 -31 23q0 17 10 53q4 17 13 22.5t30 5.5h109l266 1237h-123q-31 0 -31 21q0 10 9 53q8 31 45 31h360q33 0 33 -25q0 -24 -8 -51q-4 -17 -14 -23t-29 -6h-117l-266 -1237h129q17 0 23.5 -5t6.5 -17q0 -20 -8 -53q-4 -18 -13 -23.5t-30 -5.5zM866 1847
q25 0 25 -24q0 -28 -17 -72q-38 -92 -109 -141t-196 -49q-262 0 -262 211q0 30 6 51q7 24 31 24h37q27 0 27 -24q0 -10 1 -26t1 -19q5 -58 42 -85.5t119 -27.5q101 0 151.5 38.5t72.5 115.5q5 15 11.5 21.5t22.5 6.5h37z" />
    <glyph glyph-name="ibreve" unicode="&#x12d;" horiz-adv-x="610" 
d="M393 0h-346q-33 0 -33 23q0 5 11 51q4 17 14 22.5t31 5.5h102l172 801h-115q-30 0 -30 23q0 10 8 49q8 31 45 31h188q33 0 33 -27q0 -13 -4 -33l-180 -844h123q32 0 32 -22q0 -18 -8 -51q-6 -18 -14 -23.5t-29 -5.5zM676 1470q20 0 20 -24q0 -32 -16 -76
q-78 -199 -295 -199q-123 0 -183.5 56.5t-60.5 148.5q0 46 6 70q7 24 33 24h27q24 0 24 -22v-43q3 -65 40.5 -96t121.5 -31q95 0 142 42.5t71 127.5q6 22 31 22h39z" />
    <glyph glyph-name="Iogonek" unicode="&#x12e;" horiz-adv-x="677" 
d="M434 0h-112q-220 -140 -220 -281q0 -96 107 -96q25 0 57 5t37 5q19 0 25 -20t6 -43q-3 -23 -27 -29q-49 -16 -131 -16q-194 0 -194 172q0 97 58.5 168.5t162.5 134.5h-133q-31 0 -31 23q0 17 10 53q4 17 13 22.5t30 5.5h109l266 1237h-123q-31 0 -31 21q0 10 9 53
q8 31 45 31h360q33 0 33 -25q0 -24 -8 -51q-4 -17 -14 -23t-29 -6h-117l-266 -1237h129q17 0 23.5 -5t6.5 -17q0 -20 -8 -53q-4 -18 -13 -23.5t-30 -5.5z" />
    <glyph glyph-name="iogonek" unicode="&#x12f;" horiz-adv-x="610" 
d="M393 0h-112q-213 -133 -213 -266q0 -90 104 -90q24 0 55 5t35 5q18 0 25 -21q6 -27 6 -41q-2 -20 -25 -26q-52 -17 -129 -17q-186 0 -186 164q0 91 56 159.5t157 127.5h-119q-33 0 -33 23q0 3 1.5 9t4.5 17.5t5 24.5q4 17 14 22.5t31 5.5h102l172 801h-115q-30 0 -30 23
q0 10 8 49q8 31 45 31h188q33 0 33 -27q0 -13 -4 -33l-180 -844h123q32 0 32 -22q0 -18 -8 -51q-6 -18 -14 -23.5t-29 -5.5zM549 1382q0 -60 -35 -92q-25 -22 -63 -22q-78 0 -78 65q0 59 33 92q25 25 67 25q76 0 76 -68z" />
    <glyph glyph-name="Idotaccent" unicode="&#x130;" horiz-adv-x="677" 
d="M434 0h-364q-31 0 -31 23q0 17 10 53q4 17 13 22.5t30 5.5h109l266 1237h-123q-31 0 -31 21q0 10 9 53q8 31 45 31h360q33 0 33 -25q0 -24 -8 -51q-4 -17 -14 -23t-29 -6h-117l-266 -1237h129q17 0 23.5 -5t6.5 -17q0 -20 -8 -53q-4 -18 -13 -23.5t-30 -5.5zM672 1700
q0 -60 -33 -90q-24 -21 -61 -21q-72 0 -72 64q0 59 31 86q22 22 65 22q70 0 70 -61z" />
    <glyph glyph-name="dotlessi" unicode="&#x131;" horiz-adv-x="610" 
d="M393 0h-346q-33 0 -33 23q0 5 11 51q4 17 14 22.5t31 5.5h102l172 801h-115q-30 0 -30 23q0 10 8 49q8 31 45 31h188q33 0 33 -27q0 -13 -4 -33l-180 -844h123q32 0 32 -22q0 -18 -8 -51q-6 -18 -14 -23.5t-29 -5.5z" />
    <glyph glyph-name="IJ" unicode="&#x132;" horiz-adv-x="1337" 
d="M434 0h-364q-31 0 -31 23q0 17 10 53q4 17 13 22.5t30 5.5h109l266 1237h-123q-31 0 -31 21q0 10 9 53q8 31 45 31h360q33 0 33 -25q0 -24 -8 -51q-4 -17 -14 -23t-29 -6h-117l-266 -1237h129q17 0 23.5 -5t6.5 -17q0 -20 -8 -53q-4 -18 -13 -23.5t-30 -5.5zM1008 129
q-21 -102 -47 -159t-72 -99q-88 -82 -252 -82q-49 0 -78 6q-27 3 -27 29q0 16 11 53q6 25 37 25l30 -2q29 -2 45 -2q88 0 144 43q32 24 51 68t37 128l258 1204h-144q-32 0 -32 21q0 8 10 53q8 31 45 31h373q30 0 30 -25q0 -17 -8 -53q-4 -17 -13 -22t-30 -5h-108z" />
    <glyph glyph-name="ij" unicode="&#x133;" horiz-adv-x="1140" 
d="M393 0h-346q-33 0 -33 23q0 3 1.5 9t4.5 17.5t5 24.5q4 17 14 22.5t31 5.5h102l172 801h-115q-30 0 -30 23q0 10 8 49q8 31 45 31h188q33 0 33 -27q0 -13 -4 -33l-180 -844h123q32 0 32 -22q0 -18 -8 -51q-6 -18 -14 -23.5t-29 -5.5zM549 1382q0 -60 -35 -92
q-25 -22 -63 -22q-78 0 -78 65q0 59 33 92q25 25 67 25q76 0 76 -68zM793 -178q-22 -104 -49.5 -161.5t-71.5 -92.5q-97 -80 -287 -80q-45 0 -45 31q0 27 8 51q4 14 15 19t34 5q132 0 191 46q33 25 52 64t36 116l233 1083h-114q-33 0 -33 23q0 13 10 49q5 17 14 24t29 7h189
q34 0 34 -27q0 -15 -4 -31zM1112 1382q0 -60 -35 -92q-25 -22 -63 -22q-78 0 -78 65q0 59 33 92q25 25 67 25q76 0 76 -68z" />
    <glyph glyph-name="Jcircumflex" unicode="&#x134;" horiz-adv-x="659" 
d="M332 129q-21 -102 -47 -159t-72 -99q-88 -82 -252 -82q-49 0 -78 6q-26 3 -26 29q0 20 10 53q6 25 37 25l30 -2q30 -2 46 -2q87 0 143 43q32 24 51 68t37 128l258 1204h-143q-33 0 -33 21q0 8 10 53q8 31 45 31h373q31 0 31 -25q0 -13 -9 -53q-4 -17 -13 -22t-30 -5h-108
zM328 1561h-54q-22 0 -22 22q0 16 18 31l252 209q35 28 64 28h47q28 0 49 -24l180 -213q10 -13 10 -27q0 -26 -32 -26h-37q-22 0 -51 26l-158 148l-209 -148q-39 -26 -57 -26z" />
    <glyph glyph-name="jcircumflex" unicode="&#x135;" horiz-adv-x="534" 
d="M186 -178q-22 -104 -49 -161.5t-71 -92.5q-97 -80 -287 -80q-45 0 -45 31q0 15 8 51q6 15 16 19.5t33 4.5q132 0 191 46q33 25 52 64t36 116l233 1083h-115q-32 0 -32 23q0 13 10 49q5 17 14 24t29 7h188q35 0 35 -27q0 -15 -4 -31zM127 1169h-49q-23 0 -23 23
q0 14 17 31l254 282q26 29 57 29h53q28 0 39 -25l143 -290q7 -21 7 -27q0 -10 -8.5 -16.5t-20.5 -6.5h-37q-26 0 -43 27l-125 223l-215 -221q-29 -29 -49 -29z" />
    <glyph glyph-name="Kcommaaccent" unicode="&#x136;" horiz-adv-x="1325" 
d="M1384 1341h-114q-328 -388 -525 -602q79 -134 314 -592q14 -25 30 -34t48 -9h104q33 0 33 -22q0 -11 -10 -53q-4 -18 -13 -23.5t-30 -5.5h-138q-44 0 -72 13.5t-39.5 29.5t-29.5 51l-289 570q-11 22 -26.5 28t-46.5 6h-127l-127 -594h129q17 0 23.5 -5t6.5 -17
q0 -20 -8 -53q-4 -18 -13 -23.5t-30 -5.5h-364q-31 0 -31 23q0 17 10 53q4 17 13 22.5t30 5.5h109l266 1237h-123q-31 0 -31 21q0 12 9 53q8 31 45 31h360q33 0 33 -25q0 -17 -8 -53q-6 -17 -14.5 -22t-28.5 -5h-117l-117 -534h127q66 0 96 35l424 499h-90q-33 0 -33 21
q0 13 11 53q8 31 43 31h350q33 0 33 -25q0 -13 -9 -53q-6 -17 -14.5 -22t-28.5 -5zM659 -145q35 0 35 -35q0 -28 -22 -96q-55 -160 -160 -250q-25 -21 -43 -21q-14 0 -39 17q-14 14 -14 26q0 17 20 33q105 112 127 274q7 52 47 52h49z" />
    <glyph glyph-name="kcommaaccent" unicode="&#x137;" horiz-adv-x="1058" 
d="M367 0h-347q-32 0 -32 23q0 4 1 9t4 17.5t5 24.5q4 17 14 22.5t31 5.5h102l283 1328h-113q-32 0 -32 20q0 1 10 49q5 18 14 25.5t29 7.5h186q35 0 35 -29q0 -13 -4 -33l-180 -854h96q67 0 98 33l234 254h-74q-31 0 -31 23q0 6 9 49q8 31 45 31h321q33 0 33 -25
q0 -4 -10 -49q-4 -17 -13.5 -23t-29.5 -6h-99q-116 -123 -210 -221.5t-111 -116.5q4 -9 68 -141t137 -277q13 -28 30 -36.5t56 -8.5h61q33 0 33 -22q0 -8 -10 -53q-5 -27 -43 -27h-107q-52 0 -80.5 22t-48.5 64l-182 393q-10 22 -25.5 28.5t-46.5 6.5h-123l-88 -412h125
q31 0 31 -22q0 -18 -8 -51q-4 -18 -13 -23.5t-30 -5.5zM551 -145q35 0 35 -35q0 -25 -23 -96q-55 -160 -160 -250q-25 -21 -43 -21q-6 0 -12 2t-9 3.5t-9 6t-8 5.5q-15 15 -15 26q0 16 21 33q105 112 127 274q7 52 47 52h49z" />
    <glyph glyph-name="kgreenlandic" unicode="&#x138;" horiz-adv-x="1058" 
d="M391 0h-346q-33 0 -33 23q0 9 11 49q4 17 14 22.5t31 5.5h102l174 803h-115q-30 0 -30 23q0 10 8 49q5 17 14 24t29 7h186q35 0 35 -29q0 -13 -4 -33l-74 -348h103q70 0 100 35l242 272h-86q-31 0 -31 23q0 10 8 49q8 31 45 31h322q32 0 32 -25q0 -4 -10 -49
q-4 -17 -13.5 -23t-29.5 -6h-102q-80 -87 -152.5 -167t-107.5 -118.5t-64 -68.5q19 -33 41 -75t72.5 -140.5t97.5 -188.5q13 -28 30 -36.5t56 -8.5h62q32 0 32 -22q0 -6 -10 -51q-5 -27 -43 -27h-106q-52 0 -80.5 21.5t-48.5 62.5l-187 377q-10 21 -26 28t-45 7h-123
l-84 -396h125q30 0 30 -22q0 -16 -8 -49q-4 -18 -13 -23.5t-30 -5.5z" />
    <glyph glyph-name="Lacute" unicode="&#x139;" horiz-adv-x="1153" 
d="M999 0h-929q-31 0 -31 23q0 14 10 53q4 17 13 22.5t30 5.5h109l268 1237h-125q-31 0 -31 21q0 10 9 53q8 31 45 31h362q33 0 33 -25q0 -19 -10 -53q-4 -17 -13 -22t-30 -5h-117l-264 -1235h598l43 154q10 33 35 33h49q28 0 28 -27q0 -14 -45 -219q-4 -18 -6.5 -26
t-10 -14.5t-20.5 -6.5zM565 1581q-29 -20 -59 -20h-60q-11 0 -17.5 7t-6.5 15q0 18 18 33l310 225q30 23 55 23h98q12 0 20.5 -7t8.5 -16q0 -19 -23 -37z" />
    <glyph glyph-name="lacute" unicode="&#x13a;" horiz-adv-x="559" 
d="M369 0h-346q-33 0 -33 23q0 4 1 9t4 17.5t5 24.5q4 17 14 22.5t31 5.5h102l285 1328h-113q-30 0 -30 20q0 15 8 51q8 31 45 31h188q18 0 24.5 -6t6.5 -23q0 -9 -8 -49l-289 -1352h125q33 0 33 -22q0 -7 -10 -49q-4 -18 -13 -24.5t-30 -6.5zM481 1622q-29 -20 -59 -20h-60
q-11 0 -17.5 7t-6.5 15q0 18 18 33l310 225q30 23 55 23h98q12 0 20.5 -7t8.5 -16q0 -19 -23 -37z" />
    <glyph glyph-name="Lcommaaccent" unicode="&#x13b;" horiz-adv-x="1153" 
d="M999 0h-929q-31 0 -31 23q0 14 10 53q4 17 13 22.5t30 5.5h109l268 1237h-125q-31 0 -31 21q0 10 9 53q8 31 45 31h362q33 0 33 -25q0 -19 -10 -53q-4 -17 -13 -22t-30 -5h-117l-264 -1235h598l43 154q10 33 35 33h49q28 0 28 -27q0 -14 -45 -219q-4 -18 -6.5 -26
t-10 -14.5t-20.5 -6.5zM567 -145q35 0 35 -35q0 -28 -22 -96q-55 -160 -160 -250q-25 -21 -43 -21q-13 0 -39 17q-14 14 -14 26q0 17 20 33q105 112 127 274q7 52 47 52h49z" />
    <glyph glyph-name="lcommaaccent" unicode="&#x13c;" horiz-adv-x="559" 
d="M369 0h-346q-33 0 -33 23q0 4 1 9t4 17.5t5 24.5q4 17 14 22.5t31 5.5h102l285 1328h-113q-30 0 -30 20q0 15 8 51q8 31 45 31h188q18 0 24.5 -6t6.5 -23q0 -9 -8 -49l-289 -1352h125q33 0 33 -22q0 -7 -10 -49q-4 -18 -13 -24.5t-30 -6.5zM201 -145q35 0 35 -35
q0 -25 -23 -96q-55 -160 -160 -250q-25 -21 -43 -21q-13 0 -39 17q-14 14 -14 26q0 17 20 33q105 112 127 274q7 52 48 52h49z" />
    <glyph glyph-name="Lcaron" unicode="&#x13d;" horiz-adv-x="1153" 
d="M999 0h-929q-31 0 -31 23q0 14 10 53q4 17 13 22.5t30 5.5h109l268 1237h-125q-31 0 -31 21q0 10 9 53q8 31 45 31h362q33 0 33 -25q0 -19 -10 -53q-4 -17 -13 -22t-30 -5h-117l-264 -1235h598l43 154q10 33 35 33h49q28 0 28 -27q0 -14 -45 -219q-4 -18 -6.5 -26
t-10 -14.5t-20.5 -6.5zM1016 1475q35 0 35 -37q0 -26 -23 -97q-57 -161 -160 -247q-23 -23 -43 -23q-15 0 -39 16q-14 14 -14 27q0 16 21 33q105 112 127 276q7 52 47 52h49z" />
    <glyph glyph-name="lcaron" unicode="&#x13e;" horiz-adv-x="559" 
d="M369 0h-346q-33 0 -33 23q0 4 1 9t4 17.5t5 24.5q4 17 14 22.5t31 5.5h102l285 1328h-113q-30 0 -30 20q0 15 8 51q8 31 45 31h188q18 0 24.5 -6t6.5 -23q0 -9 -8 -49l-289 -1352h125q33 0 33 -22q0 -7 -10 -49q-4 -18 -13 -24.5t-30 -6.5zM848 1530q35 0 35 -37
q0 -25 -23 -96q-57 -162 -160 -248q-23 -23 -43 -23q-13 0 -39 17q-14 14 -14 26q0 16 21 33q105 112 127 277q7 51 47 51h49z" />
    <glyph glyph-name="Ldot" unicode="&#x13f;" horiz-adv-x="1153" 
d="M1028 729q0 -64 -37 -96q-21 -21 -61 -21q-78 0 -78 66q0 57 35 92q25 25 67 25q74 0 74 -66zM999 0h-929q-31 0 -31 23q0 14 10 53q4 17 13 22.5t30 5.5h109l268 1239h-125q-31 0 -31 21t9 51q8 31 45 31h362q33 0 33 -25q0 -17 -10 -51q-4 -17 -13 -22t-30 -5h-117
l-266 -1237h600l43 154q10 33 35 33h49q28 0 28 -27q0 -14 -45 -219q-4 -18 -6.5 -26t-10 -14.5t-20.5 -6.5z" />
    <glyph glyph-name="ldot" unicode="&#x140;" horiz-adv-x="716" 
d="M776 729q0 -64 -35 -96q-25 -21 -63 -21q-76 0 -76 66q0 58 35 90q22 25 65 25q74 0 74 -64zM369 0h-346q-33 0 -33 23q0 10 10 49q4 17 14 22.5t31 5.5h102l285 1332h-113q-30 0 -30 20q0 13 8 49q8 31 45 31h188q18 0 24.5 -6t6.5 -23q0 -9 -8 -49l-289 -1354h125
q33 0 33 -22q0 -7 -10 -49q-4 -18 -13 -23.5t-30 -5.5z" />
    <glyph glyph-name="Lslash" unicode="&#x141;" horiz-adv-x="1153" 
d="M999 0h-929q-31 0 -31 23q0 14 10 53q4 17 13 22.5t30 5.5h109l98 451l-158 -88q-10 -6 -22 -6q-15 0 -29 26q-16 33 -16 45q0 14 18 27l236 131l141 651h-125q-31 0 -31 21q0 10 9 53q8 31 45 31h362q33 0 33 -25q0 -19 -10 -53q-4 -17 -13 -22t-30 -5h-117l-123 -571
l293 164q13 8 24 8q14 0 29 -24q19 -37 19 -46q0 -14 -19 -24l-375 -213l-112 -529h598l43 154q10 33 35 33h49q28 0 28 -27q0 -14 -45 -219q-4 -18 -6.5 -26t-10 -14.5t-20.5 -6.5z" />
    <glyph glyph-name="lslash" unicode="&#x142;" horiz-adv-x="559" 
d="M369 0h-346q-33 0 -33 23q0 4 1 9t4 17.5t5 24.5q4 17 14 22.5t31 5.5h102l109 512l-115 -61q-12 -6 -24 -6q-2 0 -4 0.5t-4 2t-3.5 3t-4 4.5t-3.5 4.5t-4 5.5t-4 6q-14 23 -14 41q0 15 18 27l191 102l147 687h-113q-30 0 -30 20q0 15 8 51q8 31 45 31h188q18 0 24.5 -6
t6.5 -23q0 -9 -8 -49l-137 -639l123 66q15 6 26 6q15 0 29 -29q14 -28 14 -39q0 -13 -18 -26l-201 -109l-125 -582h125q33 0 33 -22q0 -7 -10 -49q-4 -18 -13 -24.5t-30 -6.5z" />
    <glyph glyph-name="Nacute" unicode="&#x143;" horiz-adv-x="1503" 
d="M1569 1341h-109l-276 -1306q-7 -41 -43 -41h-41q-31 0 -45 35q-102 249 -196 476.5t-136.5 329.5t-79.5 192t-52 129t-28 75q-59 -310 -237 -1127h129q17 0 23.5 -5t6.5 -17q0 -20 -8 -53q-4 -18 -13 -23.5t-30 -5.5h-364q-31 0 -31 23q0 17 10 53q4 17 13 22.5t30 5.5
h113l264 1237h-131q-31 0 -31 21q0 17 8 53q8 31 45 31h213q23 0 35 -23q418 -1005 496 -1206q35 189 235 1124h-133q-32 0 -32 21q0 19 10 53q8 31 43 31h362q33 0 33 -25q0 -19 -10 -53q-4 -17 -13 -22t-30 -5zM950 1581q-29 -20 -59 -20h-60q-11 0 -17.5 7t-6.5 15
q0 18 18 33l310 225q30 23 55 23h98q12 0 20.5 -7t8.5 -16q0 -19 -23 -37z" />
    <glyph glyph-name="nacute" unicode="&#x144;" horiz-adv-x="1243" 
d="M393 0h-346q-33 0 -33 23q0 8 11 51q4 17 14 22.5t31 5.5h102l172 801h-115q-30 0 -30 23q0 10 8 49q8 31 45 31h186q33 0 33 -29q0 -17 -14 -80q36 69 143.5 101t222.5 32q252 0 252 -170q0 -62 -22 -172l-125 -586h116q33 0 33 -20q0 -19 -8 -55q-6 -18 -14 -22.5
t-29 -4.5h-197q-30 0 -30 25q0 6 4 30l135 635q14 71 14 125q0 61 -43.5 85t-124.5 24q-179 0 -284 -64q-33 -20 -45 -39q-17 -25 -25 -63l-143 -656h125q32 0 32 -22q0 -18 -8 -51q-6 -18 -14 -23.5t-29 -5.5zM750 1210q-22 -22 -50 -22h-51q-24 0 -24 22q0 13 12 25
l254 274q22 25 47 25h92q25 0 25 -21q0 -5 -2 -9.5t-4 -7.5t-6.5 -8t-6.5 -7z" />
    <glyph glyph-name="Ncommaaccent" unicode="&#x145;" horiz-adv-x="1503" 
d="M1569 1341h-109l-276 -1306q-7 -41 -43 -41h-41q-31 0 -45 35q-102 249 -196 476.5t-136.5 329.5t-79.5 192t-52 129t-28 75q-59 -310 -237 -1127h129q17 0 23.5 -5t6.5 -17q0 -20 -8 -53q-4 -18 -13 -23.5t-30 -5.5h-364q-31 0 -31 23q0 17 10 53q4 17 13 22.5t30 5.5
h113l264 1237h-131q-31 0 -31 21q0 17 8 53q8 31 45 31h213q23 0 35 -23q418 -1005 496 -1206q35 189 235 1124h-133q-32 0 -32 21q0 19 10 53q8 31 43 31h362q33 0 33 -25q0 -19 -10 -53q-4 -17 -13 -22t-30 -5zM698 -145q35 0 35 -35q0 -28 -22 -96q-55 -160 -160 -250
q-25 -21 -43 -21q-14 0 -39 17q-14 14 -14 26q0 17 20 33q105 112 127 274q7 52 47 52h49z" />
    <glyph glyph-name="ncommaaccent" unicode="&#x146;" horiz-adv-x="1243" 
d="M393 0h-346q-33 0 -33 23q0 8 11 51q4 17 14 22.5t31 5.5h102l172 801h-115q-30 0 -30 23q0 10 8 49q8 31 45 31h186q33 0 33 -29q0 -17 -14 -80q36 69 143.5 101t222.5 32q252 0 252 -170q0 -62 -22 -172l-125 -586h116q33 0 33 -20q0 -19 -8 -55q-6 -18 -14 -22.5
t-29 -4.5h-197q-30 0 -30 25q0 6 4 30l135 635q14 71 14 125q0 61 -43.5 85t-124.5 24q-179 0 -284 -64q-33 -20 -45 -39q-17 -25 -25 -63l-143 -656h125q32 0 32 -22q0 -18 -8 -51q-6 -18 -14 -23.5t-29 -5.5zM580 -145q34 0 34 -35q0 -28 -22 -96q-55 -160 -160 -250
q-25 -21 -43 -21q-13 0 -39 17q-14 14 -14 26q0 17 20 33q105 112 127 274q7 52 47 52h50z" />
    <glyph glyph-name="Ncaron" unicode="&#x147;" horiz-adv-x="1503" 
d="M1569 1341h-109l-276 -1306q-7 -41 -43 -41h-41q-31 0 -45 35q-102 249 -196 476.5t-136.5 329.5t-79.5 192t-52 129t-28 75q-59 -310 -237 -1127h129q17 0 23.5 -5t6.5 -17q0 -20 -8 -53q-4 -18 -13 -23.5t-30 -5.5h-364q-31 0 -31 23q0 17 10 53q4 17 13 22.5t30 5.5
h113l264 1237h-131q-31 0 -31 21q0 17 8 53q8 31 45 31h213q23 0 35 -23q418 -1005 496 -1206q35 189 235 1124h-133q-32 0 -32 21q0 19 10 53q8 31 43 31h362q33 0 33 -25q0 -19 -10 -53q-4 -17 -13 -22t-30 -5zM1231 1851h53q23 0 23 -20q0 -12 -19 -31l-252 -209
q-38 -30 -63 -30h-49q-25 0 -47 26l-181 213q-10 13 -10 27q0 24 33 24h37q24 0 51 -24l158 -148l209 148q36 24 57 24z" />
    <glyph glyph-name="ncaron" unicode="&#x148;" horiz-adv-x="1243" 
d="M393 0h-346q-33 0 -33 23q0 8 11 51q4 17 14 22.5t31 5.5h102l172 801h-115q-30 0 -30 23q0 10 8 49q8 31 45 31h186q33 0 33 -29q0 -17 -14 -80q36 69 143.5 101t222.5 32q252 0 252 -170q0 -62 -22 -172l-125 -586h116q33 0 33 -20q0 -19 -8 -55q-6 -18 -14 -22.5
t-29 -4.5h-197q-30 0 -30 25q0 6 4 30l135 635q14 71 14 125q0 61 -43.5 85t-124.5 24q-179 0 -284 -64q-33 -20 -45 -39q-17 -25 -25 -63l-143 -656h125q32 0 32 -22q0 -18 -8 -51q-6 -18 -14 -23.5t-29 -5.5zM997 1534h50q22 0 22 -21q0 -13 -16 -32l-254 -281
q-28 -31 -58 -31h-53q-27 0 -39 27l-143 289q-6 24 -6 28q0 9 8 15t20 6h37q27 0 43 -25l125 -223l215 219q29 29 49 29z" />
    <glyph glyph-name="napostrophe" unicode="&#x149;" horiz-adv-x="1243" 
d="M393 0h-346q-33 0 -33 23q0 8 11 51q4 17 14 22.5t31 5.5h102l172 801h-115q-30 0 -30 23q0 10 8 49q8 31 45 31h186q33 0 33 -29q0 -17 -14 -80q36 69 143.5 101t222.5 32q252 0 252 -170q0 -62 -22 -172l-125 -586h116q33 0 33 -20q0 -19 -8 -55q-6 -18 -14 -22.5
t-29 -4.5h-197q-30 0 -30 25q0 6 4 30l135 635q14 71 14 125q0 61 -43.5 85t-124.5 24q-179 0 -284 -64q-33 -20 -45 -39q-17 -25 -25 -63l-143 -656h125q32 0 32 -22q0 -18 -8 -51q-6 -18 -14 -23.5t-29 -5.5zM537 1583q34 0 34 -35q0 -28 -22 -96q-55 -160 -160 -250
q-24 -20 -43 -20q-15 0 -39 16q-14 14 -14 27q0 16 20 32q105 112 127 275q7 51 47 51h50z" />
    <glyph glyph-name="Eng" unicode="&#x14a;" horiz-adv-x="1503" 
d="M434 0h-364q-31 0 -31 23q0 17 10 53q4 17 13 22.5t30 5.5h113l262 1237h-123q-31 0 -31 21q0 23 9 53q8 31 45 31h204q11 0 21.5 -7t13.5 -16q375 -888 498 -1204q81 410 235 1122h-131q-30 0 -30 21q0 14 8 53q8 31 45 31h360q33 0 33 -25q0 -19 -10 -53
q-4 -17 -13 -22t-30 -5h-111l-305 -1452q-18 -80 -28.5 -118t-31.5 -79.5t-53 -68.5q-85 -74 -262 -74q-46 0 -80 5q-24 7 -24 28q0 11 8 51q6 29 37 29l28 -2q28 -2 56 -2q105 0 149 39q28 23 44 66t38 135l27 112q-447 1072 -500 1219q-52 -273 -237 -1125h129
q17 0 23.5 -5t6.5 -17q0 -20 -8 -53q-4 -18 -13 -23.5t-30 -5.5z" />
    <glyph glyph-name="eng" unicode="&#x14b;" horiz-adv-x="1243" 
d="M393 0h-346q-33 0 -33 23q0 8 11 51q4 17 14 22.5t31 5.5h102l172 801h-115q-30 0 -30 23q0 10 8 49q8 31 45 31h186q33 0 33 -29q0 -17 -14 -80q36 69 143.5 101t222.5 32q252 0 252 -170q0 -62 -22 -172l-164 -782q-23 -108 -49 -163.5t-70 -90.5q-71 -60 -219 -64
q-61 0 -92 6q-25 4 -25 27q0 21 10 51q9 23 37 23q3 0 15 -1t32.5 -2t42.5 -1q75 0 115 30q59 45 88 189l164 780q14 71 14 125q0 61 -43.5 85t-124.5 24q-179 0 -284 -64q-33 -20 -45 -39q-17 -25 -25 -63l-143 -656h125q32 0 32 -22q0 -18 -8 -51q-6 -18 -14 -23.5
t-29 -5.5z" />
    <glyph glyph-name="Omacron" unicode="&#x14c;" horiz-adv-x="1398" 
d="M1358 1047q0 -129 -25.5 -289.5t-86.5 -334t-144 -271.5q-82 -95 -192.5 -137t-266.5 -42q-91 0 -161.5 11.5t-133.5 41t-104 78t-64.5 125t-23.5 179.5q0 139 27.5 300t94 331.5t158.5 269.5q147 155 430 155q95 0 164.5 -9t134.5 -36t105 -72.5t64 -120.5t24 -179z
M1231 1030q0 97 -21 160t-69 99.5t-115.5 50.5t-171.5 14q-227 0 -336 -125q-109 -123 -171 -366t-62 -441q0 -99 21.5 -164.5t70 -104t116.5 -54t169 -15.5q123 0 206 32t146 115q98 126 157.5 374.5t59.5 424.5zM1186 1634h-506q-27 0 -27 23t11 57q5 17 12.5 24t25.5 7
h502q31 0 31 -25q0 -23 -12 -59q-4 -17 -11.5 -22t-25.5 -5z" />
    <glyph glyph-name="omacron" unicode="&#x14d;" horiz-adv-x="1107" 
d="M1030 731q0 -118 -44 -302t-116 -292q-112 -164 -378 -164q-70 0 -124.5 8t-105.5 29.5t-84.5 57t-53.5 94t-20 137.5q0 139 49.5 319t137.5 281q119 135 350 135q71 0 121.5 -5t104.5 -23t87 -50t54.5 -88.5t21.5 -136.5zM911 713q0 55 -15 95t-38.5 63.5t-62.5 37
t-77.5 17.5t-92.5 4q-168 0 -252 -105q-67 -81 -107.5 -248t-40.5 -270q0 -131 69 -180t212 -49q200 0 280 137q52 85 88.5 247.5t36.5 250.5zM934 1260h-469q-27 0 -27 24q0 25 11 57q5 18 12.5 24.5t25.5 6.5h463q31 0 31 -22q0 -31 -10 -64q-5 -15 -12.5 -20.5
t-24.5 -5.5z" />
    <glyph glyph-name="Obreve" unicode="&#x14e;" horiz-adv-x="1398" 
d="M1358 1047q0 -129 -25.5 -289.5t-86.5 -334t-144 -271.5q-82 -95 -192.5 -137t-266.5 -42q-91 0 -161.5 11.5t-133.5 41t-104 78t-64.5 125t-23.5 179.5q0 139 27.5 300t94 331.5t158.5 269.5q147 155 430 155q95 0 164.5 -9t134.5 -36t105 -72.5t64 -120.5t24 -179z
M1231 1030q0 97 -21 160t-69 99.5t-115.5 50.5t-171.5 14q-227 0 -336 -125q-109 -123 -171 -366t-62 -441q0 -99 21.5 -164.5t70 -104t116.5 -54t169 -15.5q123 0 206 32t146 115q98 126 157.5 374.5t59.5 424.5zM1208 1847q25 0 25 -24q0 -31 -16 -72q-38 -92 -109.5 -141
t-196.5 -49q-262 0 -262 211q0 30 6 51q7 24 31 24h37q27 0 27 -24q0 -10 1 -26t1 -19q5 -58 42 -85.5t119 -27.5q101 0 151.5 38.5t72.5 115.5q5 15 11.5 21.5t22.5 6.5h37z" />
    <glyph glyph-name="obreve" unicode="&#x14f;" horiz-adv-x="1107" 
d="M1030 731q0 -118 -44 -302t-116 -292q-112 -164 -378 -164q-70 0 -124.5 8t-105.5 29.5t-84.5 57t-53.5 94t-20 137.5q0 139 49.5 319t137.5 281q119 135 350 135q71 0 121.5 -5t104.5 -23t87 -50t54.5 -88.5t21.5 -136.5zM911 713q0 55 -15 95t-38.5 63.5t-62.5 37
t-77.5 17.5t-92.5 4q-168 0 -252 -105q-67 -81 -107.5 -248t-40.5 -270q0 -131 69 -180t212 -49q200 0 280 137q52 85 88.5 247.5t36.5 250.5zM995 1470q21 0 21 -24q0 -29 -17 -76q-78 -199 -294 -199q-123 0 -183.5 56.5t-60.5 148.5q0 46 6 70q7 24 33 24h26q25 0 25 -22
v-43q3 -65 40.5 -96t121.5 -31q95 0 142 42.5t71 127.5q6 22 30 22h39z" />
    <glyph glyph-name="Ohungarumlaut" unicode="&#x150;" horiz-adv-x="1398" 
d="M1358 1047q0 -129 -25.5 -289.5t-86.5 -334t-144 -271.5q-82 -95 -192.5 -137t-266.5 -42q-91 0 -161.5 11.5t-133.5 41t-104 78t-64.5 125t-23.5 179.5q0 139 27.5 300t94 331.5t158.5 269.5q147 155 430 155q95 0 164.5 -9t134.5 -36t105 -72.5t64 -120.5t24 -179z
M1231 1030q0 97 -21 160t-69 99.5t-115.5 50.5t-171.5 14q-227 0 -336 -125q-109 -123 -171 -366t-62 -441q0 -99 21.5 -164.5t70 -104t116.5 -54t169 -15.5q123 0 206 32t146 115q98 126 157.5 374.5t59.5 424.5zM750 1581q-29 -20 -58 -20h-51q-12 0 -18.5 6.5t-6.5 15.5
q0 19 17 33l285 223q31 25 57 25h80q12 0 19 -7t7 -16q0 -17 -20 -37zM1116 1581q-25 -20 -57 -20h-51q-12 0 -18.5 6.5t-6.5 15.5q0 17 16 33l285 223q31 25 57 25h80q12 0 20.5 -7t8.5 -16q0 -19 -23 -37z" />
    <glyph glyph-name="ohungarumlaut" unicode="&#x151;" horiz-adv-x="1107" 
d="M1030 731q0 -118 -44 -302t-116 -292q-112 -164 -378 -164q-70 0 -124.5 8t-105.5 29.5t-84.5 57t-53.5 94t-20 137.5q0 139 49.5 319t137.5 281q119 135 350 135q71 0 121.5 -5t104.5 -23t87 -50t54.5 -88.5t21.5 -136.5zM911 713q0 55 -15 95t-38.5 63.5t-62.5 37
t-77.5 17.5t-92.5 4q-168 0 -252 -105q-67 -81 -107.5 -248t-40.5 -270q0 -131 69 -180t212 -49q200 0 280 137q52 85 88.5 247.5t36.5 250.5zM578 1210q-19 -22 -46 -22h-49q-22 0 -22 22q0 13 12 25l232 274q19 25 47 25h75q25 0 25 -21q0 -14 -18 -32zM879 1210
q-22 -22 -45 -22h-50q-22 0 -22 22q0 9 12 25l232 274q17 25 47 25h75q25 0 25 -21q0 -14 -18 -32z" />
    <glyph glyph-name="OE" unicode="&#x152;" horiz-adv-x="1984" 
d="M1761 0h-788q-193 -23 -320 -23q-256 0 -375.5 113t-119.5 340q0 221 77 463.5t218 386.5q181 184 526 184q180 0 293 -18h710q25 0 25 -27q0 -11 -39 -235q-5 -29 -35 -29h-47q-16 0 -22 6.5t-6 20.5q0 26 14 159h-512l-115 -534h498q35 0 35 -25q0 -8 -11 -53
q-7 -31 -45 -31h-499l-125 -594h602l43 154q10 33 35 33h49q28 0 28 -27q0 -15 -45 -217q-5 -25 -14.5 -36t-34.5 -11zM975 111l262 1226q-95 17 -299 17q-262 0 -410 -164q-112 -124 -176.5 -335t-64.5 -402q0 -192 92.5 -278.5t282.5 -86.5q172 0 313 23z" />
    <glyph glyph-name="oe" unicode="&#x153;" horiz-adv-x="1792" 
d="M991 475q-12 -86 -12 -139q0 -147 69 -202.5t226 -55.5q129 0 266 45q34 12 47 12q17 0 23 -16q10 -40 10 -49q0 -25 -37 -39q-141 -58 -340 -58q-157 0 -241 53t-111 160q-54 -114 -154.5 -163.5t-244.5 -49.5q-70 0 -124.5 8t-105.5 29.5t-84.5 57t-53.5 94t-20 137.5
q0 142 48 321t137 279q116 135 356 135q60 0 103 -3.5t89 -16t76.5 -34t54 -59.5t33.5 -92q120 205 418 205q171 0 246.5 -68t75.5 -198q0 -96 -25 -221q-11 -49 -24 -60q-12 -12 -43 -12h-658zM909 713q0 69 -20 113.5t-60.5 66.5t-86 29.5t-113.5 7.5q-171 0 -258 -105
q-67 -81 -106.5 -247.5t-39.5 -270.5q0 -131 68 -180t211 -49q207 0 284 133q52 86 86.5 249t34.5 253zM1010 573h592q24 94 24 179q0 92 -48 138t-175 46q-156 0 -244 -70q-103 -87 -149 -293z" />
    <glyph glyph-name="Racute" unicode="&#x154;" horiz-adv-x="1339" 
d="M434 0h-364q-31 0 -31 23q0 17 10 53q4 17 13 22.5t30 5.5h111l264 1237h-123q-31 0 -31 21q0 12 9 53q8 31 45 31h446q227 0 320 -41q75 -34 115 -107t40 -157q0 -193 -99.5 -316.5t-293.5 -158.5l211 -519q10 -27 24 -35t48 -8h88q32 0 32 -24q0 -9 -10 -51
q-4 -18 -13 -23.5t-30 -5.5h-135q-53 0 -75 15.5t-36 54.5l-227 581q-37 -4 -117 -4h-213l-116 -543h129q17 0 23.5 -5t6.5 -17q0 -20 -8 -53q-4 -18 -13 -23.5t-30 -5.5zM465 752h223q184 0 279 39q98 38 145 122t47 199q0 67 -28 120.5t-70 74.5q-64 34 -264 34h-207z
M852 1581q-29 -20 -59 -20h-60q-11 0 -17.5 7t-6.5 15q0 18 18 33l309 225q30 23 56 23h98q12 0 20.5 -7t8.5 -16q0 -19 -23 -37z" />
    <glyph glyph-name="racute" unicode="&#x155;" horiz-adv-x="794" 
d="M434 0h-387q-33 0 -33 23q0 3 1.5 9t4.5 17.5t5 24.5q4 17 14 22.5t31 5.5h102l172 801h-115q-30 0 -30 23q0 10 8 49q8 31 45 31h186q33 0 33 -27q0 -10 -14 -82q28 58 119.5 95.5t187.5 37.5q38 0 61 -4q19 -6 19 -29q0 -26 -13 -61q-10 -23 -34 -23q-2 0 -32.5 1
t-51.5 1q-60 0 -119 -17.5t-96 -41.5q-31 -18 -49 -51q-11 -22 -23 -72l-139 -631h166q32 0 32 -22q0 -15 -8 -51q-6 -18 -14.5 -23.5t-28.5 -5.5zM608 1210q-22 -22 -49 -22h-51q-25 0 -25 22q0 12 13 25l254 274q22 25 47 25h92q24 0 24 -21q0 -10 -18 -32z" />
    <glyph glyph-name="Rcommaaccent" unicode="&#x156;" horiz-adv-x="1339" 
d="M434 0h-364q-31 0 -31 23q0 17 10 53q4 17 13 22.5t30 5.5h111l264 1237h-123q-31 0 -31 21q0 12 9 53q8 31 45 31h446q227 0 320 -41q75 -34 115 -107t40 -157q0 -193 -99.5 -316.5t-293.5 -158.5l211 -519q10 -27 24 -35t48 -8h88q32 0 32 -24q0 -9 -10 -51
q-4 -18 -13 -23.5t-30 -5.5h-135q-53 0 -75 15.5t-36 54.5l-227 581q-37 -4 -117 -4h-213l-116 -543h129q17 0 23.5 -5t6.5 -17q0 -20 -8 -53q-4 -18 -13 -23.5t-30 -5.5zM465 752h223q184 0 279 39q98 38 145 122t47 199q0 67 -28 120.5t-70 74.5q-64 34 -264 34h-207z
M653 -145q35 0 35 -35q0 -28 -22 -96q-55 -160 -160 -250q-25 -21 -43 -21q-14 0 -39 17q-14 14 -14 26q0 17 20 33q105 112 127 274q7 52 47 52h49z" />
    <glyph glyph-name="rcommaaccent" unicode="&#x157;" horiz-adv-x="794" 
d="M434 0h-387q-33 0 -33 23q0 3 1.5 9t4.5 17.5t5 24.5q4 17 14 22.5t31 5.5h102l172 801h-115q-30 0 -30 23q0 10 8 49q8 31 45 31h186q33 0 33 -27q0 -10 -14 -82q28 58 119.5 95.5t187.5 37.5q38 0 61 -4q19 -6 19 -29q0 -26 -13 -61q-10 -23 -34 -23q-2 0 -32.5 1
t-51.5 1q-60 0 -119 -17.5t-96 -41.5q-31 -18 -49 -51q-11 -22 -23 -72l-139 -631h166q32 0 32 -22q0 -15 -8 -51q-6 -18 -14.5 -23.5t-28.5 -5.5zM229 -145q35 0 35 -35q0 -28 -22 -96q-55 -160 -160 -250q-25 -21 -43 -21q-13 0 -39 17q-14 14 -14 26q0 17 20 33
q105 112 127 274q7 52 47 52h49z" />
    <glyph glyph-name="Rcaron" unicode="&#x158;" horiz-adv-x="1339" 
d="M434 0h-364q-31 0 -31 23q0 17 10 53q4 17 13 22.5t30 5.5h111l264 1237h-123q-31 0 -31 21q0 12 9 53q8 31 45 31h446q227 0 320 -41q75 -34 115 -107t40 -157q0 -193 -99.5 -316.5t-293.5 -158.5l211 -519q10 -27 24 -35t48 -8h88q32 0 32 -24q0 -9 -10 -51
q-4 -18 -13 -23.5t-30 -5.5h-135q-53 0 -75 15.5t-36 54.5l-227 581q-37 -4 -117 -4h-213l-116 -543h129q17 0 23.5 -5t6.5 -17q0 -20 -8 -53q-4 -18 -13 -23.5t-30 -5.5zM465 752h223q184 0 279 39q98 38 145 122t47 199q0 67 -28 120.5t-70 74.5q-64 34 -264 34h-207z
M1098 1851h53q23 0 23 -20q0 -12 -19 -31l-252 -209q-37 -30 -63 -30h-49q-26 0 -48 26l-180 213q-10 13 -10 27q0 24 33 24h37q24 0 51 -24l157 -148l209 148q36 24 58 24z" />
    <glyph glyph-name="rcaron" unicode="&#x159;" horiz-adv-x="794" 
d="M434 0h-387q-33 0 -33 23q0 3 1.5 9t4.5 17.5t5 24.5q4 17 14 22.5t31 5.5h102l172 801h-115q-30 0 -30 23q0 10 8 49q8 31 45 31h186q33 0 33 -27q0 -10 -14 -82q28 58 119.5 95.5t187.5 37.5q38 0 61 -4q19 -6 19 -29q0 -26 -13 -61q-10 -23 -34 -23q-2 0 -32.5 1
t-51.5 1q-60 0 -119 -17.5t-96 -41.5q-31 -18 -49 -51q-11 -22 -23 -72l-139 -631h166q32 0 32 -22q0 -15 -8 -51q-6 -18 -14.5 -23.5t-28.5 -5.5zM827 1534h50q22 0 22 -21q0 -13 -16 -32l-254 -281q-28 -31 -58 -31h-53q-27 0 -39 27l-143 289q-6 24 -6 28q0 9 8 15t20 6
h37q27 0 43 -25l125 -223l215 219q29 29 49 29z" />
    <glyph glyph-name="Sacute" unicode="&#x15a;" horiz-adv-x="1128" 
d="M78 90v221q0 37 33 37h47q27 0 30 -33l13 -170q131 -59 301 -59q90 0 158 13.5t123.5 46t84.5 92t29 145.5q0 30 -3.5 52.5t-17 53t-37.5 55.5t-68.5 53t-106.5 52l-168 66q-117 45 -176.5 131.5t-59.5 202.5q0 424 528 424q180 0 314 -46q19 -6 25 -13.5t6 -22.5
q0 -12 -29 -232q-3 -29 -35 -29h-49q-27 0 -27 29q0 3 1 16.5t4 56.5t6 97q-132 33 -246 33q-88 0 -153 -14.5t-115 -47.5t-75.5 -92.5t-25.5 -144.5q0 -87 49 -148t174 -110l150 -60q138 -55 201 -136t63 -201q0 -435 -539 -435q-220 0 -376 72q-17 7 -25 16t-8 29z
M780 1581q-29 -20 -59 -20h-59q-11 0 -18 7t-7 15q0 18 18 33l310 225q30 23 55 23h98q12 0 20.5 -7t8.5 -16q0 -19 -23 -37z" />
    <glyph glyph-name="sacute" unicode="&#x15b;" horiz-adv-x="847" 
d="M41 63v187q0 22 9.5 30.5t29.5 8.5h31q17 0 23.5 -6.5t8.5 -22.5l13 -151q82 -33 188 -33q94 0 146 15.5t81 47.5q52 52 52 133q0 28 -4 45.5t-19 40t-49.5 42t-89.5 38.5l-133 47q-85 31 -133 89t-48 131t27.5 139t83.5 110q98 76 305 76q120 0 219 -26q31 -7 31 -41
q0 -25 -20 -199q-3 -29 -37 -29h-39q-27 0 -27 29q0 8 0.5 21.5t2 50t3.5 77.5q-72 17 -155 17q-152 0 -209 -45q-66 -54 -66 -158q0 -48 35.5 -85.5t126.5 -72.5l123 -45q92 -33 141 -86t49 -137q0 -142 -88 -233q-49 -50 -126 -72.5t-197 -22.5q-164 0 -260 47
q-29 14 -29 43zM561 1210q-22 -22 -49 -22h-51q-25 0 -25 22q0 12 13 25l253 274q22 25 48 25h92q24 0 24 -21q0 -10 -18 -32z" />
    <glyph glyph-name="Scircumflex" unicode="&#x15c;" horiz-adv-x="1128" 
d="M78 90v221q0 37 33 37h47q27 0 30 -33l13 -170q131 -59 301 -59q90 0 158 13.5t123.5 46t84.5 92t29 145.5q0 30 -3.5 52.5t-17 53t-37.5 55.5t-68.5 53t-106.5 52l-168 66q-117 45 -176.5 131.5t-59.5 202.5q0 424 528 424q180 0 314 -46q19 -6 25 -13.5t6 -22.5
q0 -12 -29 -232q-3 -29 -35 -29h-49q-27 0 -27 29q0 3 1 16.5t4 56.5t6 97q-132 33 -246 33q-88 0 -153 -14.5t-115 -47.5t-75.5 -92.5t-25.5 -144.5q0 -87 49 -148t174 -110l150 -60q138 -55 201 -136t63 -201q0 -435 -539 -435q-220 0 -376 72q-17 7 -25 16t-8 29z
M578 1561h-54q-22 0 -22 22q0 16 18 31l252 209q35 28 64 28h47q28 0 49 -24l180 -213q10 -13 10 -27q0 -26 -32 -26h-37q-23 0 -52 26l-157 148l-209 -148q-39 -26 -57 -26z" />
    <glyph glyph-name="scircumflex" unicode="&#x15d;" horiz-adv-x="847" 
d="M41 63v187q0 22 9.5 30.5t29.5 8.5h31q17 0 23.5 -6.5t8.5 -22.5l13 -151q82 -33 188 -33q94 0 146 15.5t81 47.5q52 52 52 133q0 28 -4 45.5t-19 40t-49.5 42t-89.5 38.5l-133 47q-85 31 -133 89t-48 131t27.5 139t83.5 110q98 76 305 76q120 0 219 -26q31 -7 31 -41
q0 -25 -20 -199q-3 -29 -37 -29h-39q-27 0 -27 29q0 8 0.5 21.5t2 50t3.5 77.5q-72 17 -155 17q-152 0 -209 -45q-66 -54 -66 -158q0 -48 35.5 -85.5t126.5 -72.5l123 -45q92 -33 141 -86t49 -137q0 -142 -88 -233q-49 -50 -126 -72.5t-197 -22.5q-164 0 -260 47
q-29 14 -29 43zM375 1169h-49q-23 0 -23 23q0 15 16 31l254 282q26 29 58 29h53q28 0 39 -25l143 -290q6 -18 6 -27q0 -10 -8 -16.5t-20 -6.5h-37q-26 0 -43 27l-125 223l-215 -221q-29 -29 -49 -29z" />
    <glyph glyph-name="Scedilla" unicode="&#x15e;" horiz-adv-x="1128" 
d="M473 -135q178 -2 178 -152q0 -116 -67.5 -165.5t-200.5 -49.5q-63 0 -102 13q-21 5 -21 26q0 19 8 43q6 25 33 25q11 0 29 -6q45 -9 69 -9q68 0 102 23t34 84q0 78 -95 78q-8 0 -25 -1t-20 -1q-33 0 -33 34q0 5 17 58l37 110q-174 9 -305 70q-17 7 -25 16t-8 29v221
q0 37 33 37h47q27 0 30 -33l13 -170q131 -59 301 -59q90 0 158 13.5t123.5 46t84.5 92t29 145.5q0 30 -3.5 52.5t-17 53t-37.5 55.5t-68.5 53t-106.5 52l-168 66q-117 45 -176.5 131.5t-59.5 202.5q0 424 528 424q180 0 314 -46q19 -6 25 -13.5t6 -22.5q0 -12 -29 -232
q-3 -29 -35 -29h-49q-27 0 -27 29q0 3 1 16.5t4 56.5t6 97q-132 33 -246 33q-88 0 -153 -14.5t-115 -47.5t-75.5 -92.5t-25.5 -144.5q0 -87 49 -148t174 -110l150 -60q138 -55 201 -136t63 -201q0 -426 -520 -435z" />
    <glyph glyph-name="scedilla" unicode="&#x15f;" horiz-adv-x="847" 
d="M332 -129q172 -2 172 -147q0 -113 -64.5 -160t-193.5 -47q-70 0 -101 14q-18 5 -18 25q0 18 8 38q6 23 31 23q7 0 27 -4q40 -8 69 -8q66 0 97.5 21.5t31.5 80.5q0 76 -90 76q-7 0 -24 -1t-19 -1q-33 0 -33 33q0 12 15 55l36 106q-128 7 -206 45q-29 14 -29 43v187
q0 22 9.5 30.5t29.5 8.5h31q17 0 23.5 -6.5t8.5 -22.5l13 -151q82 -33 188 -33q94 0 146 15.5t81 47.5q52 52 52 133q0 28 -4 45.5t-19 40t-49.5 42t-89.5 38.5l-133 47q-85 31 -133 89t-48 131t27.5 139t83.5 110q98 76 305 76q120 0 219 -26q31 -7 31 -41q0 -25 -20 -199
q-3 -29 -37 -29h-39q-27 0 -27 29q0 8 0.5 21.5t2 50t3.5 77.5q-72 17 -155 17q-152 0 -209 -45q-66 -54 -66 -158q0 -48 35.5 -85.5t126.5 -72.5l123 -45q92 -33 141 -86t49 -137q0 -142 -88 -233q-86 -89 -288 -95z" />
    <glyph glyph-name="Scaron" unicode="&#x160;" horiz-adv-x="1128" 
d="M78 90v221q0 37 33 37h47q27 0 30 -33l13 -170q131 -59 301 -59q90 0 158 13.5t123.5 46t84.5 92t29 145.5q0 30 -3.5 52.5t-17 53t-37.5 55.5t-68.5 53t-106.5 52l-168 66q-117 45 -176.5 131.5t-59.5 202.5q0 424 528 424q180 0 314 -46q19 -6 25 -13.5t6 -22.5
q0 -12 -29 -232q-3 -29 -35 -29h-49q-27 0 -27 29q0 3 1 16.5t4 56.5t6 97q-132 33 -246 33q-88 0 -153 -14.5t-115 -47.5t-75.5 -92.5t-25.5 -144.5q0 -87 49 -148t174 -110l150 -60q138 -55 201 -136t63 -201q0 -435 -539 -435q-220 0 -376 72q-17 7 -25 16t-8 29z
M1042 1851h54q22 0 22 -20q0 -13 -18 -31l-252 -209q-37 -30 -64 -30h-49q-25 0 -47 26l-180 213q-10 13 -10 27q0 24 32 24h37q24 0 51 -24l158 -148l209 148q36 24 57 24z" />
    <glyph glyph-name="scaron" unicode="&#x161;" horiz-adv-x="847" 
d="M41 63v187q0 22 9.5 30.5t29.5 8.5h31q17 0 23.5 -6.5t8.5 -22.5l13 -151q82 -33 188 -33q94 0 146 15.5t81 47.5q52 52 52 133q0 28 -4 45.5t-19 40t-49.5 42t-89.5 38.5l-133 47q-85 31 -133 89t-48 131t27.5 139t83.5 110q98 76 305 76q120 0 219 -26q31 -7 31 -41
q0 -25 -20 -199q-3 -29 -37 -29h-39q-27 0 -27 29q0 8 0.5 21.5t2 50t3.5 77.5q-72 17 -155 17q-152 0 -209 -45q-66 -54 -66 -158q0 -48 35.5 -85.5t126.5 -72.5l123 -45q92 -33 141 -86t49 -137q0 -142 -88 -233q-49 -50 -126 -72.5t-197 -22.5q-164 0 -260 47
q-29 14 -29 43zM831 1534h50q22 0 22 -21q0 -13 -16 -32l-254 -281q-28 -31 -58 -31h-53q-27 0 -39 27l-143 289q-6 24 -6 28q0 9 8 15t20 6h37q27 0 43 -25l125 -223l215 219q29 29 49 29z" />
    <glyph glyph-name="uni0162" unicode="&#x162;" horiz-adv-x="1146" 
d="M471 -135q178 -2 178 -152q0 -116 -67.5 -165.5t-200.5 -49.5q-63 0 -102 13q-21 5 -21 26q0 19 8 43q6 25 33 25q11 0 29 -6q45 -9 69 -9q68 0 101.5 23t33.5 84q0 78 -94 78q-8 0 -25 -1t-20 -1q-33 0 -33 34q0 5 17 58l45 135h-127q-33 0 -33 23q0 5 10 53
q4 17 14 22.5t31 5.5h109l264 1235h-346l-35 -151q-10 -33 -37 -33h-47q-16 0 -22 6.5t-6 20.5t39 217q5 28 14 37.5t37 9.5h975q30 0 30 -27q0 -8 -39 -235q-5 -29 -32 -29h-50q-16 0 -22 6.5t-6 20.5q0 5 16 157h-346l-262 -1235h131q31 0 31 -22q0 -20 -8 -53
q-4 -18 -13 -23.5t-30 -5.5h-148z" />
    <glyph glyph-name="uni0163" unicode="&#x163;" horiz-adv-x="618" 
d="M293 -129q172 -2 172 -147q0 -113 -64.5 -160t-193.5 -47q-69 0 -101 14q-18 5 -18 25q0 18 8 38q6 23 31 23q7 0 27 -4q40 -8 69 -8q66 0 97.5 21.5t31.5 80.5q0 76 -90 76q-7 0 -24 -1t-19 -1q-33 0 -33 33q0 12 15 55l43 127q-86 30 -86 143q0 47 16 129l137 635h-116
q-29 0 -29 21q0 14 8 53q6 29 41 29h119q43 195 55 241q10 41 39 41h45q25 0 25 -24q0 -9 -9 -54l-43 -204h207q31 0 31 -23q0 -28 -6 -51q-4 -19 -14.5 -24t-30.5 -5h-207l-135 -635q-15 -69 -15 -102q0 -45 26.5 -62.5t80.5 -17.5q29 0 68.5 7t42.5 7q19 0 26 -20
q6 -21 6 -43q0 -28 -39 -37q-67 -18 -159 -18z" />
    <glyph glyph-name="Tcaron" unicode="&#x164;" horiz-adv-x="1146" 
d="M662 0h-367q-33 0 -33 23q0 5 10 53q4 17 14 22.5t31 5.5h109l264 1235h-346l-35 -151q-10 -33 -37 -33h-47q-16 0 -22 6.5t-6 20.5t39 217q5 28 14 37.5t37 9.5h975q30 0 30 -27q0 -8 -39 -235q-5 -29 -32 -29h-50q-16 0 -22 6.5t-6 20.5q0 5 16 157h-346l-262 -1235
h131q31 0 31 -22q0 -20 -8 -53q-4 -18 -13 -23.5t-30 -5.5zM1063 1851h53q23 0 23 -20q0 -12 -19 -31l-252 -209q-37 -30 -63 -30h-49q-25 0 -47 26l-181 213q-10 13 -10 27q0 24 33 24h37q24 0 51 -24l158 -148l209 148q36 24 57 24z" />
    <glyph glyph-name="tcaron" unicode="&#x165;" horiz-adv-x="618" 
d="M426 903l-135 -635q-15 -69 -15 -102q0 -45 26.5 -62.5t80.5 -17.5q29 0 68.5 7t42.5 7q19 0 26 -20q6 -21 6 -43q0 -28 -39 -37q-67 -18 -163 -18q-75 0 -120.5 37t-45.5 120q0 47 16 129l137 635h-116q-29 0 -29 21q0 14 8 53q6 29 41 29h119q43 195 55 241
q10 41 39 41h45q25 0 25 -24q0 -9 -9 -54l-43 -204h207q31 0 31 -23q0 -28 -6 -51q-4 -19 -14.5 -24t-30.5 -5h-207zM862 1534q35 0 35 -37q0 -25 -23 -96q-58 -163 -159 -248q-23 -23 -43 -23q-14 0 -39 17q-15 15 -15 27q0 15 21 32q105 112 127 277q7 51 47 51h49z" />
    <glyph glyph-name="Tbar" unicode="&#x166;" horiz-adv-x="1146" 
d="M674 0h-367q-33 0 -33 23q0 4 1.5 10t4.5 19t5 24q4 17 14 22.5t31 5.5h108l142 660h-273q-26 0 -26 24q0 19 8 52q5 17 12.5 23.5t26.5 6.5h274l100 469h-346l-34 -151q-10 -33 -37 -33h-47q-17 0 -23 6.5t-6 20.5t39 217q5 28 14 37.5t37 9.5h975q31 0 31 -27
q0 -8 -39 -235q-5 -29 -33 -29h-49q-17 0 -23 6.5t-6 20.5q0 5 16 157h-346l-100 -469h291q31 0 31 -22q0 -16 -13 -57q-4 -17 -12.5 -22t-28.5 -5h-291l-139 -660h131q31 0 31 -22q0 -20 -8 -53q-4 -18 -13 -23.5t-30 -5.5z" />
    <glyph glyph-name="tbar" unicode="&#x167;" horiz-adv-x="618" 
d="M426 903l-45 -213h197q30 0 30 -24q0 -11 -8 -43q-7 -27 -41 -27h-199l-71 -336q-15 -69 -15 -102q0 -45 26.5 -62.5t80.5 -17.5q29 0 68.5 7t42.5 7q19 0 26 -20q6 -21 6 -43q0 -28 -39 -37q-71 -19 -163 -19q-75 0 -120.5 37t-45.5 121q0 47 16 129l72 336h-107
q-26 0 -26 22q0 20 6 44q7 28 39 28h108l47 213h-116q-29 0 -29 21q0 14 8 53q6 29 41 29h119q43 195 55 241q10 41 39 41h45q25 0 25 -24q0 -9 -9 -54l-43 -204h207q31 0 31 -23q0 -28 -6 -51q-4 -19 -14.5 -24t-30.5 -5h-207z" />
    <glyph glyph-name="Utilde" unicode="&#x168;" horiz-adv-x="1484" 
d="M1257 578q-38 -182 -64 -269t-73 -153q-69 -99 -180 -142t-285 -43q-413 0 -413 301q0 109 41 301l163 768h-110q-33 0 -33 21q0 17 10 53q8 31 45 31h361q33 0 33 -25q0 -16 -11 -53q-4 -17 -13 -22t-30 -5h-127l-176 -819q-24 -123 -24 -221q0 -217 307 -217
q109 0 194.5 26.5t141.5 100.5q62 81 110 301l179 829h-144q-31 0 -31 21q0 10 9 53q8 31 45 31h360q31 0 31 -25q0 -17 -8 -53q-4 -17 -13 -22t-30 -5h-99zM698 1591h-32q-12 0 -19.5 6t-7.5 15q0 20 16 47q42 79 85.5 116t105.5 37q41 0 145 -59q83 -49 123 -49
q29 0 49 16t49 68q21 35 43 35h35q29 0 29 -21q0 -18 -12 -45q-41 -89 -87 -128.5t-106 -39.5q-34 0 -66.5 12t-89.5 44q-90 51 -122 51q-26 0 -47.5 -17t-45.5 -61q-12 -27 -45 -27z" />
    <glyph glyph-name="utilde" unicode="&#x169;" horiz-adv-x="1243" 
d="M1008 0h-187q-39 0 -39 33q0 11 11 57q-118 -115 -342 -115q-53 0 -97.5 9t-85.5 29t-64.5 59.5t-23.5 93.5q0 48 23 166l123 571h-111q-33 0 -33 23q0 4 1.5 9.5l4.5 16.5t5 23q8 31 45 31h188q31 0 31 -23q0 -1 -6 -37l-132 -618q-16 -71 -16 -123q0 -125 195 -125
q147 0 260 72q32 23 45 41q16 20 24 55l142 655h-113q-31 0 -31 23q0 6 9 49q8 31 45 31h184q35 0 35 -27q0 -3 -1 -8.5t-2.5 -14t-2.5 -12.5l-183 -842h119q33 0 33 -22q0 -20 -10 -51q-4 -18 -13 -23.5t-30 -5.5zM485 1237h-32q-27 0 -27 23q0 12 14 47q42 79 85 116
t102 37q25 0 52 -12.5t87 -48.5q46 -29 69.5 -38t47.5 -9q27 0 47 15.5t47 66.5q16 36 41 36h35q28 0 28 -20q0 -18 -12 -45q-41 -90 -85.5 -130t-100.5 -40q-33 0 -64.5 11t-85.5 44q-87 51 -117 51q-26 0 -46 -15.5t-42 -59.5q-13 -29 -43 -29z" />
    <glyph glyph-name="Umacron" unicode="&#x16a;" horiz-adv-x="1484" 
d="M1257 578q-38 -182 -64 -269t-73 -153q-69 -99 -180 -142t-285 -43q-413 0 -413 301q0 109 41 301l163 768h-110q-33 0 -33 21q0 17 10 53q8 31 45 31h361q33 0 33 -25q0 -16 -11 -53q-4 -17 -13 -22t-30 -5h-127l-176 -819q-24 -123 -24 -221q0 -217 307 -217
q109 0 194.5 26.5t141.5 100.5q62 81 110 301l179 829h-144q-31 0 -31 21q0 10 9 53q8 31 45 31h360q31 0 31 -25q0 -17 -8 -53q-4 -17 -13 -22t-30 -5h-99zM1227 1634h-506q-27 0 -27 23t11 57q5 17 12.5 24t25.5 7h502q31 0 31 -25q0 -23 -12 -59q-4 -17 -11.5 -22
t-25.5 -5z" />
    <glyph glyph-name="umacron" unicode="&#x16b;" horiz-adv-x="1243" 
d="M1008 0h-187q-39 0 -39 33q0 11 11 57q-118 -115 -342 -115q-53 0 -97.5 9t-85.5 29t-64.5 59.5t-23.5 93.5q0 48 23 166l123 571h-111q-33 0 -33 23q0 4 1.5 9.5l4.5 16.5t5 23q8 31 45 31h188q31 0 31 -23q0 -1 -6 -37l-132 -618q-16 -71 -16 -123q0 -125 195 -125
q147 0 260 72q32 23 45 41q16 20 24 55l142 655h-113q-31 0 -31 23q0 6 9 49q8 31 45 31h184q35 0 35 -27q0 -3 -1 -8.5t-2.5 -14t-2.5 -12.5l-183 -842h119q33 0 33 -22q0 -20 -10 -51q-4 -18 -13 -23.5t-30 -5.5zM969 1260h-469q-27 0 -27 24q0 28 10 57q5 18 13 24.5
t26 6.5h463q31 0 31 -22q0 -31 -10 -64q-5 -15 -12.5 -20.5t-24.5 -5.5z" />
    <glyph glyph-name="Ubreve" unicode="&#x16c;" horiz-adv-x="1484" 
d="M1257 578q-38 -182 -64 -269t-73 -153q-69 -99 -180 -142t-285 -43q-413 0 -413 301q0 109 41 301l163 768h-110q-33 0 -33 21q0 17 10 53q8 31 45 31h361q33 0 33 -25q0 -16 -11 -53q-4 -17 -13 -22t-30 -5h-127l-176 -819q-24 -123 -24 -221q0 -217 307 -217
q109 0 194.5 26.5t141.5 100.5q62 81 110 301l179 829h-144q-31 0 -31 21q0 10 9 53q8 31 45 31h360q31 0 31 -25q0 -17 -8 -53q-4 -17 -13 -22t-30 -5h-99zM1266 1847q24 0 24 -24q0 -31 -16 -72q-38 -92 -109 -141t-196 -49q-262 0 -262 211q0 30 6 51q7 24 30 24h37
q27 0 27 -24q0 -10 1 -26t1 -19q5 -57 42.5 -85t119.5 -28q100 0 150.5 38.5t72.5 115.5q5 15 12 21.5t23 6.5h37z" />
    <glyph glyph-name="ubreve" unicode="&#x16d;" horiz-adv-x="1243" 
d="M1008 0h-187q-39 0 -39 33q0 11 11 57q-118 -115 -342 -115q-53 0 -97.5 9t-85.5 29t-64.5 59.5t-23.5 93.5q0 48 23 166l123 571h-111q-33 0 -33 23q0 4 1.5 9.5l4.5 16.5t5 23q8 31 45 31h188q31 0 31 -23q0 -1 -6 -37l-132 -618q-16 -71 -16 -123q0 -125 195 -125
q147 0 260 72q32 23 45 41q16 20 24 55l142 655h-113q-31 0 -31 23q0 6 9 49q8 31 45 31h184q35 0 35 -27q0 -3 -1 -8.5t-2.5 -14t-2.5 -12.5l-183 -842h119q33 0 33 -22q0 -20 -10 -51q-4 -18 -13 -23.5t-30 -5.5zM993 1470q21 0 21 -24q0 -29 -17 -76q-78 -199 -295 -199
q-123 0 -183 56.5t-60 148.5q0 46 6 70q7 24 33 24h26q25 0 25 -22v-43q3 -65 40.5 -96t121.5 -31q95 0 142 42.5t71 127.5q6 22 30 22h39z" />
    <glyph glyph-name="Uring" unicode="&#x16e;" horiz-adv-x="1484" 
d="M1257 578q-38 -182 -64 -269t-73 -153q-69 -99 -180 -142t-285 -43q-413 0 -413 301q0 109 41 301l163 768h-110q-33 0 -33 21q0 17 10 53q8 31 45 31h361q33 0 33 -25q0 -16 -11 -53q-4 -17 -13 -22t-30 -5h-127l-176 -819q-24 -123 -24 -221q0 -217 307 -217
q109 0 194.5 26.5t141.5 100.5q62 81 110 301l179 829h-144q-31 0 -31 21q0 10 9 53q8 31 45 31h360q31 0 31 -25q0 -17 -8 -53q-4 -17 -13 -22t-30 -5h-99zM1149 1712q0 -94 -55 -149.5t-150 -55.5q-77 0 -122.5 44.5t-45.5 123.5q0 89 56 145t147 56q78 0 124 -43.5
t46 -120.5zM1077 1710q0 51 -28 78t-78 27q-53 0 -90 -36t-37 -98q0 -54 28.5 -83t79.5 -29q56 0 90.5 35.5t34.5 105.5z" />
    <glyph glyph-name="uring" unicode="&#x16f;" horiz-adv-x="1243" 
d="M1008 0h-187q-39 0 -39 33q0 11 11 57q-118 -115 -342 -115q-53 0 -97.5 9t-85.5 29t-64.5 59.5t-23.5 93.5q0 48 23 166l123 571h-111q-33 0 -33 23q0 4 1.5 9.5l4.5 16.5t5 23q8 31 45 31h188q31 0 31 -23q0 -1 -6 -37l-132 -618q-16 -71 -16 -123q0 -125 195 -125
q147 0 260 72q32 23 45 41q16 20 24 55l142 655h-113q-31 0 -31 23q0 6 9 49q8 31 45 31h184q35 0 35 -27q0 -3 -1 -8.5t-2.5 -14t-2.5 -12.5l-183 -842h119q33 0 33 -22q0 -20 -10 -51q-4 -18 -13 -23.5t-30 -5.5zM922 1397q0 -98 -57.5 -156.5t-155.5 -58.5
q-82 0 -128 46.5t-46 129.5q0 94 57.5 152.5t152.5 58.5q83 0 130 -45t47 -127zM848 1395q0 54 -29 82t-82 28q-58 0 -96.5 -37.5t-38.5 -103.5q0 -58 31 -88.5t84 -30.5q60 0 95.5 37.5t35.5 112.5z" />
    <glyph glyph-name="Uhungarumlaut" unicode="&#x170;" horiz-adv-x="1484" 
d="M1257 578q-38 -182 -64 -269t-73 -153q-69 -99 -180 -142t-285 -43q-413 0 -413 301q0 109 41 301l163 768h-110q-33 0 -33 21q0 17 10 53q8 31 45 31h361q33 0 33 -25q0 -16 -11 -53q-4 -17 -13 -22t-30 -5h-127l-176 -819q-24 -123 -24 -221q0 -217 307 -217
q109 0 194.5 26.5t141.5 100.5q62 81 110 301l179 829h-144q-31 0 -31 21q0 10 9 53q8 31 45 31h360q31 0 31 -25q0 -17 -8 -53q-4 -17 -13 -22t-30 -5h-99zM780 1581q-29 -20 -57 -20h-51q-12 0 -18.5 6.5t-6.5 15.5q0 19 17 33l284 223q31 25 58 25h79q12 0 19.5 -7
t7.5 -16q0 -17 -20 -37zM1147 1581q-25 -20 -57 -20h-52q-24 0 -24 22q0 17 16 33l285 223q31 25 57 25h80q12 0 20.5 -7t8.5 -16q0 -19 -23 -37z" />
    <glyph glyph-name="uhungarumlaut" unicode="&#x171;" horiz-adv-x="1243" 
d="M1008 0h-187q-39 0 -39 33q0 11 11 57q-118 -115 -342 -115q-53 0 -97.5 9t-85.5 29t-64.5 59.5t-23.5 93.5q0 48 23 166l123 571h-111q-33 0 -33 23q0 4 1.5 9.5l4.5 16.5t5 23q8 31 45 31h188q31 0 31 -23q0 -1 -6 -37l-132 -618q-16 -71 -16 -123q0 -125 195 -125
q147 0 260 72q32 23 45 41q16 20 24 55l142 655h-113q-31 0 -31 23q0 6 9 49q8 31 45 31h184q35 0 35 -27q0 -3 -1 -8.5t-2.5 -14t-2.5 -12.5l-183 -842h119q33 0 33 -22q0 -20 -10 -51q-4 -18 -13 -23.5t-30 -5.5zM602 1210q-19 -22 -45 -22h-49q-11 0 -17 6.5t-6 15.5
q0 12 13 25l231 274q19 25 47 25h76q25 0 25 -21q0 -13 -19 -32zM903 1210q-22 -22 -45 -22h-49q-11 0 -17 6.5t-6 15.5q0 8 13 25l231 274q17 25 47 25h76q25 0 25 -21q0 -13 -19 -32z" />
    <glyph glyph-name="Uogonek" unicode="&#x172;" horiz-adv-x="1484" 
d="M1257 578q-38 -182 -64 -269t-73 -153q-62 -90 -158 -133.5t-239 -49.5q-178 -126 -178 -254q0 -96 106 -96q25 0 57 5t37 5q19 0 25 -20t6 -43q-3 -23 -26 -29q-49 -16 -132 -16q-194 0 -194 172q0 86 47 152t133 124q-362 15 -362 299q0 109 41 301l163 768h-110
q-33 0 -33 21q0 17 10 53q8 31 45 31h361q33 0 33 -25q0 -16 -11 -53q-4 -17 -13 -22t-30 -5h-127l-176 -819q-24 -123 -24 -221q0 -217 307 -217q109 0 194.5 26.5t141.5 100.5q62 81 110 301l179 829h-144q-31 0 -31 21q0 10 9 53q8 31 45 31h360q31 0 31 -25
q0 -17 -8 -53q-4 -17 -13 -22t-30 -5h-99z" />
    <glyph glyph-name="uogonek" unicode="&#x173;" horiz-adv-x="1243" 
d="M1008 0h-97q-213 -133 -213 -266q0 -90 105 -90q24 0 55 5t35 5q18 0 25 -21q6 -27 6 -41q-2 -20 -25 -26q-52 -17 -129 -17q-186 0 -186 164q0 63 30.5 118t75 93t111.5 78q-19 5 -19 31q0 11 11 57q-118 -115 -342 -115q-53 0 -97.5 9t-85.5 29t-64.5 59.5t-23.5 93.5
q0 48 23 166l123 571h-111q-33 0 -33 23q0 4 1.5 9.5l4.5 16.5t5 23q8 31 45 31h188q31 0 31 -23q0 -1 -6 -37l-132 -618q-16 -71 -16 -123q0 -125 195 -125q147 0 260 72q32 23 45 41q16 20 24 55l142 655h-113q-31 0 -31 23q0 6 9 49q8 31 45 31h184q35 0 35 -27
q0 -3 -1 -8.5t-2.5 -14t-2.5 -12.5l-183 -842h119q33 0 33 -22q0 -20 -10 -51q-4 -18 -13 -23.5t-30 -5.5z" />
    <glyph glyph-name="Wcircumflex" unicode="&#x174;" horiz-adv-x="2019" 
d="M512 -6h-45q-36 0 -39 39l-59 1308h-99q-30 0 -30 21q0 17 8 53q8 31 45 31h362q31 0 31 -25q0 -17 -8 -53q-4 -17 -13 -22t-30 -5h-143q22 -473 34 -799.5t13 -342.5q117 252 591 1151q13 26 24.5 36.5t31.5 10.5h43q17 0 25.5 -10.5t9.5 -36.5q20 -213 39.5 -423.5
t28.5 -304t17.5 -186t12 -140.5t6.5 -97q99 231 530 1142h-141q-31 0 -31 21q0 10 9 53q8 31 45 31h360q33 0 33 -25q0 -26 -8 -53q-4 -17 -13 -22t-30 -5h-94l-623 -1308q-10 -23 -22 -31t-31 -8h-47q-34 0 -37 39q-80 902 -94 1173q-65 -132 -609 -1173q-12 -23 -23 -31
t-30 -8zM1016 1561h-53q-23 0 -23 22q0 16 18 31l252 209q35 28 64 28h47q28 0 49 -24l180 -213q11 -15 11 -27q0 -26 -33 -26h-37q-22 0 -51 26l-158 148l-209 -148q-39 -26 -57 -26z" />
    <glyph glyph-name="wcircumflex" unicode="&#x175;" horiz-adv-x="1607" 
d="M739 1169h-49q-22 0 -22 23q0 15 16 31l254 282q26 29 57 29h54q27 0 38 -25l144 -290q6 -18 6 -27q0 -10 -8.5 -16.5t-20.5 -6.5h-37q-26 0 -43 27l-124 223l-216 -221q-29 -29 -49 -29zM1624 903h-72l-446 -870q-11 -22 -21.5 -30.5t-29.5 -8.5h-43q-31 0 -37 39
q-97 688 -105 778q-63 -123 -434 -778q-20 -39 -53 -39h-39q-36 0 -39 41l-80 868h-86q-33 0 -33 23q0 9 11 49q5 17 14 24t29 7h309q33 0 33 -25q0 -15 -10 -49q-4 -17 -13.5 -23t-29.5 -6h-105q43 -522 55 -747q182 337 422 764q15 28 27.5 39.5t32.5 11.5h37
q17 0 25 -12.5t11 -38.5q94 -635 109 -764q66 143 367 747h-117q-31 0 -31 23q0 10 8 49q8 31 45 31h310q32 0 32 -25q0 -15 -10 -49q-4 -17 -13.5 -23t-29.5 -6z" />
    <glyph glyph-name="Ycircumflex" unicode="&#x176;" horiz-adv-x="1327" 
d="M1462 1341h-112l-588 -702l-117 -535h127q33 0 33 -22q0 -18 -8 -51q-6 -19 -14.5 -25t-28.5 -6h-367q-31 0 -31 25q0 7 9 51q4 17 14 22.5t31 5.5h114l113 533l-291 704h-115q-32 0 -32 21q0 5 10 53q8 31 45 31h358q33 0 33 -25q0 -17 -8 -53q-6 -17 -14 -22t-29 -5
h-111q191 -473 234 -591q143 190 479 591h-98q-33 0 -33 21q0 5 10 53q8 31 45 31h363q30 0 30 -25q0 -17 -8 -53q-4 -17 -13 -22t-30 -5zM659 1561h-53q-22 0 -22 22q0 16 18 31l252 209q35 28 64 28h47q28 0 49 -24l180 -213q10 -13 10 -27q0 -26 -33 -26h-36
q-23 0 -52 26l-157 148l-209 -148q-39 -26 -58 -26z" />
    <glyph glyph-name="ycircumflex" unicode="&#x177;" horiz-adv-x="1048" 
d="M1079 903h-63l-574 -940q-16 -26 -55 -90t-61 -99t-53 -80.5t-54 -72.5q-110 -133 -280 -133q-59 0 -89 6q-32 6 -32 33q0 29 14 57q10 17 33 17q5 0 34 -3.5t48 -3.5q57 0 99.5 21t84.5 72q56 66 199 303l24 41l-159 872h-74q-31 0 -31 23q0 16 8 49q8 31 45 31h310
q32 0 32 -25q0 -4 -10 -49q-4 -17 -13.5 -23t-29.5 -6h-119q115 -662 129 -747q94 166 441 747h-115q-31 0 -31 23q0 20 8 49q8 31 46 31h309q33 0 33 -25q0 -12 -11 -49q-4 -17 -13.5 -23t-29.5 -6zM430 1169h-49q-23 0 -23 23q0 14 17 31l254 282q26 29 57 29h53
q28 0 39 -25l144 -290q6 -18 6 -27q0 -10 -8.5 -16.5t-20.5 -6.5h-37q-26 0 -43 27l-125 223l-215 -221q-29 -29 -49 -29z" />
    <glyph glyph-name="Ydieresis" unicode="&#x178;" horiz-adv-x="1327" 
d="M1462 1341h-112l-588 -702l-117 -535h127q33 0 33 -22q0 -18 -8 -51q-6 -19 -14.5 -25t-28.5 -6h-367q-31 0 -31 25q0 7 9 51q4 17 14 22.5t31 5.5h114l113 533l-291 704h-115q-32 0 -32 21q0 5 10 53q8 31 45 31h358q33 0 33 -25q0 -17 -8 -53q-6 -17 -14 -22t-29 -5
h-111q191 -473 234 -591q143 190 479 591h-98q-33 0 -33 21q0 5 10 53q8 31 45 31h363q30 0 30 -25q0 -17 -8 -53q-4 -17 -13 -22t-30 -5zM782 1700q0 -61 -32 -90q-24 -21 -62 -21q-72 0 -72 64q0 61 29 86q25 22 66 22q71 0 71 -61zM1159 1700q0 -60 -33 -90
q-24 -21 -61 -21q-72 0 -72 64q0 59 31 86q22 22 66 22q34 0 51.5 -13.5t17.5 -47.5z" />
    <glyph glyph-name="Zacute" unicode="&#x179;" horiz-adv-x="1220" 
d="M1044 0h-1009q-35 0 -35 29q0 13 6 37q6 26 27 47q743 846 1079 1224h-715l-37 -153q-9 -29 -34 -29h-47q-17 0 -23 6.5t-6 20.5q0 10 39 217q5 24 16.5 35.5t40.5 11.5h907q15 0 26 -7.5t11 -19.5q0 -8 -6 -35q-6 -32 -27 -55q-918 -1049 -1075 -1223h799l41 160
q9 35 41 35h45q27 0 27 -29q0 -10 -39 -225q-3 -24 -14 -35.5t-38 -11.5zM809 1581q-29 -20 -59 -20h-60q-11 0 -17.5 7t-6.5 15q0 18 18 33l309 225q30 23 56 23h98q12 0 20.5 -7t8.5 -16q0 -19 -23 -37z" />
    <glyph glyph-name="zacute" unicode="&#x17a;" horiz-adv-x="944" 
d="M758 0h-744q-26 0 -26 23q0 13 6 34q2 14 29 45l741 801h-475l-35 -137q-5 -17 -12.5 -23t-26.5 -6h-39q-29 0 -29 23q0 15 39 207q8 39 50 39h677q33 0 33 -23q0 -17 -4 -31q-4 -22 -33 -55l-737 -795h528l45 148q4 17 12.5 23t26.5 6h37q27 0 27 -23q0 -19 -45 -217
q-5 -21 -13.5 -30t-31.5 -9zM623 1210q-22 -22 -50 -22h-51q-24 0 -24 22q0 13 12 25l254 274q22 25 47 25h92q25 0 25 -21q0 -5 -2 -9.5t-4 -7.5t-6.5 -8t-6.5 -7z" />
    <glyph glyph-name="Zdotaccent" unicode="&#x17b;" horiz-adv-x="1220" 
d="M1044 0h-1009q-35 0 -35 29q0 13 6 37q6 26 27 47q743 846 1079 1224h-715l-37 -153q-9 -29 -34 -29h-47q-17 0 -23 6.5t-6 20.5q0 10 39 217q5 24 16.5 35.5t40.5 11.5h907q15 0 26 -7.5t11 -19.5q0 -8 -6 -35q-6 -32 -27 -55q-918 -1049 -1075 -1223h799l41 160
q9 35 41 35h45q27 0 27 -29q0 -10 -39 -225q-3 -24 -14 -35.5t-38 -11.5zM905 1700q0 -60 -33 -90q-25 -21 -61 -21q-72 0 -72 64q0 59 31 86q22 22 66 22q34 0 51.5 -13.5t17.5 -47.5z" />
    <glyph glyph-name="zdotaccent" unicode="&#x17c;" horiz-adv-x="944" 
d="M758 0h-744q-26 0 -26 23q0 13 6 34q2 14 29 45l741 801h-475l-35 -137q-5 -17 -12.5 -23t-26.5 -6h-39q-29 0 -29 23q0 15 39 207q8 39 50 39h677q33 0 33 -23q0 -17 -4 -31q-4 -22 -33 -55l-737 -795h528l45 148q4 17 12.5 23t26.5 6h37q27 0 27 -23q0 -19 -45 -217
q-5 -21 -13.5 -30t-31.5 -9zM702 1382q0 -61 -32 -90q-23 -20 -62 -20q-71 0 -71 61q0 58 30 88q26 23 66 23q69 0 69 -62z" />
    <glyph glyph-name="Zcaron" unicode="&#x17d;" horiz-adv-x="1220" 
d="M1044 0h-1009q-35 0 -35 29q0 13 6 37q6 26 27 47q743 846 1079 1224h-715l-37 -153q-9 -29 -34 -29h-47q-17 0 -23 6.5t-6 20.5q0 10 39 217q5 24 16.5 35.5t40.5 11.5h907q15 0 26 -7.5t11 -19.5q0 -8 -6 -35q-6 -32 -27 -55q-918 -1049 -1075 -1223h799l41 160
q9 35 41 35h45q27 0 27 -29q0 -10 -39 -225q-3 -24 -14 -35.5t-38 -11.5zM1073 1851h53q23 0 23 -20q0 -12 -19 -31l-251 -209q-37 -30 -64 -30h-49q-25 0 -47 26l-180 213q-11 15 -11 27q0 24 33 24h37q24 0 51 -24l158 -148l209 148q36 24 57 24z" />
    <glyph glyph-name="zcaron" unicode="&#x17e;" horiz-adv-x="944" 
d="M758 0h-744q-26 0 -26 23q0 13 6 34q2 14 29 45l741 801h-475l-35 -137q-5 -17 -12.5 -23t-26.5 -6h-39q-29 0 -29 23q0 15 39 207q8 39 50 39h677q33 0 33 -23q0 -17 -4 -31q-4 -22 -33 -55l-737 -795h528l45 148q4 17 12.5 23t26.5 6h37q27 0 27 -23q0 -19 -45 -217
q-5 -21 -13.5 -30t-31.5 -9zM840 1534h49q22 0 22 -21q0 -13 -16 -32l-254 -281q-28 -31 -57 -31h-54q-26 0 -38 27l-144 289q-6 24 -6 28q0 9 8.5 15t20.5 6h37q27 0 43 -25l124 -223l216 219q29 29 49 29z" />
    <glyph glyph-name="longs" unicode="&#x17f;" horiz-adv-x="583" 
d="M379 0h-387q-33 0 -33 23q0 3 10 51q4 17 14 22.5t31 5.5h115l231 1082q25 117 56 184.5t80 108.5q84 71 237 71q79 0 119 -12q14 -8 14 -27q0 -24 -10 -51q-6 -22 -33 -22q-4 0 -40 4t-66 4q-110 0 -164 -60q-24 -27 -41.5 -73.5t-36.5 -134.5l-229 -1074h151
q33 0 33 -22q0 -16 -8 -49q-6 -19 -14.5 -25t-28.5 -6z" />
    <glyph glyph-name="florin" unicode="&#x192;" horiz-adv-x="933" 
d="M440 125q-27 -130 -54.5 -194t-76.5 -105q-82 -74 -243 -74q-72 0 -109 12q-18 5 -18 27t10 55q7 23 33 23q3 0 36 -4t62 -4q111 0 162 61q41 53 77 205l140 676h-178q-29 0 -29 24q0 17 4 41q7 31 47 31h176l33 152q24 111 55.5 176t77.5 108q79 74 246 74q34 0 93 -5
t83 -11q23 -9 23 -31q0 -15 -29 -217q-3 -29 -35 -29h-43q-29 0 -29 27q0 2 1 13.5t3 48t5 89.5q-44 6 -91 6q-122 0 -167 -67q-42 -58 -74 -199l-31 -135h240q28 0 28 -27q0 -22 -6 -43q-7 -26 -43 -26h-237z" />
    <glyph glyph-name="Aringacute" unicode="&#x1fa;" horiz-adv-x="1363" 
d="M1075 1567q0 -126 -108 -166l194 -1297h86q33 0 33 -22q0 -20 -8 -53q-6 -18 -14 -23.5t-29 -5.5h-361q-30 0 -30 23q0 14 8 53q4 17 14 22.5t31 5.5h147l-57 383h-553l-225 -383h141q33 0 33 -22q0 -20 -8 -53q-6 -18 -15 -23.5t-30 -5.5h-365q-33 0 -33 23q0 4 1.5 10
t4.5 19t5 24q4 17 14 22.5t31 5.5h86l749 1303q-69 35 -69 129q0 77 49.5 125.5t128.5 48.5q69 0 109 -38t40 -105zM868 1280q-153 -280 -385 -686h484q-48 324 -99 686zM958 1776q-32 -21 -49 -21h-30q-11 0 -18 6.5t-7 14.5q0 14 12 24l221 185q29 22 54 22h63q13 0 20 -8
t7 -19q0 -15 -17 -28zM1006 1567q0 38 -23.5 60t-62.5 22q-45 0 -75 -28t-30 -77q0 -42 21.5 -66t58.5 -26h8q44 0 73.5 29t29.5 86z" />
    <glyph glyph-name="aringacute" unicode="&#x1fb;" horiz-adv-x="1189" 
d="M969 0h-187q-34 0 -34 31q0 7 6 61q-109 -117 -336 -117q-314 0 -314 310q0 167 61 350.5t173 279.5q130 113 375 113q156 0 235 -57q7 26 16.5 35.5t26.5 9.5h39q29 0 29 -25q0 -11 -4 -35l-185 -854h119q33 0 33 -22q0 -5 -8 -51q-4 -18 -13.5 -23.5t-31.5 -5.5z
M788 252l132 625q-29 21 -91.5 34t-134.5 13q-176 0 -282 -88q-86 -75 -136.5 -228.5t-50.5 -298.5q0 -118 55.5 -174.5t180.5 -56.5q162 0 266 82q30 27 41 43q14 23 20 49zM952 1397q0 -98 -57.5 -156.5t-155.5 -58.5q-82 0 -128 46.5t-46 129.5q0 94 58 152.5t153 58.5
q83 0 129.5 -45t46.5 -127zM881 1395q0 54 -29.5 82t-83.5 28q-58 0 -96.5 -37.5t-38.5 -103.5q0 -58 30.5 -89.5t84.5 -31.5q60 0 96.5 38t36.5 114zM801 1659q-21 -21 -51 -21h-37q-10 0 -16.5 7t-6.5 16q0 15 12 27l261 270q18 24 49 24h67q25 0 25 -20q0 -14 -14 -33z
" />
    <glyph glyph-name="AEacute" unicode="&#x1fc;" horiz-adv-x="2013" 
d="M346 0h-389q-33 0 -33 23q0 5 10 53q4 17 14.5 22.5t31.5 5.5h92l1073 1237h-152q-30 0 -30 23q0 15 10 51q5 17 14 24t29 7h985q20 0 27.5 -7t7.5 -22q0 -11 -39 -233q-5 -29 -33 -29h-49q-17 0 -23 6.5t-6 20.5q0 6 19 159h-514l-115 -534h489q35 0 35 -25
q0 -14 -10 -53q-7 -31 -45 -31h-492l-125 -594h605l41 154q10 33 34 33h50q28 0 28 -27q0 -18 -45 -217q-5 -25 -15 -36t-36 -11h-916q-30 0 -30 23q0 14 8 53q4 17 14 22.5t31 5.5h107l86 398h-531l-336 -398h142q32 0 32 -22q0 -20 -8 -53q-6 -18 -14 -23.5t-29 -5.5z
M649 610h465l154 719q-118 -148 -619 -719zM1559 1581q-29 -20 -60 -20h-59q-11 0 -18 7t-7 15q0 17 19 33l309 225q30 23 55 23h98q12 0 20.5 -7t8.5 -16q0 -19 -22 -37z" />
    <glyph glyph-name="aeacute" unicode="&#x1fd;" horiz-adv-x="1732" 
d="M844 129q-51 -47 -98 -76.5t-132 -53.5t-192 -24q-318 0 -318 312q0 158 61 344t171 282q132 115 375 115q133 0 221 -45l6 18q10 33 37 33h33q24 0 24 -22q0 -9 -8 -49l-16 -78q40 68 136.5 108.5t207.5 40.5q327 0 327 -266q0 -98 -24 -221q-8 -48 -25 -60
q-15 -12 -43 -12h-651q-14 -80 -14 -139q0 -146 71.5 -202t229.5 -56q132 0 260 41q30 12 45 12q16 0 22 -16q13 -35 13 -45q0 -25 -39 -39q-141 -58 -334 -58q-142 0 -226.5 38t-119.5 118zM815 223q-4 66 -4 109q0 117 55 350l45 197q-28 20 -87.5 32.5t-129.5 12.5
q-178 0 -284 -88q-87 -75 -136 -227.5t-49 -299.5q0 -117 55.5 -174t180.5 -57q218 0 354 145zM952 575h590q23 90 23 177q0 92 -48.5 138t-175.5 46q-152 0 -243 -68q-103 -76 -146 -293zM1044 1210q-22 -22 -49 -22h-51q-24 0 -24 22q0 13 12 25l254 274q22 25 47 25h92
q25 0 25 -21q0 -5 -2 -9.5t-4 -7.5t-6.5 -8t-6.5 -7z" />
    <glyph glyph-name="Oslashacute" unicode="&#x1fe;" horiz-adv-x="1398" 
d="M176 -20q-17 -17 -29 -17q-14 0 -41 27q-12 10 -12 22q0 13 12 25l103 119q-53 95 -53 252q0 139 27.5 300t94 331.5t158.5 269.5q147 155 430 155q131 0 223 -20t152 -72l90 107q17 20 29 20q14 0 24 -10q31 -24 31 -37q-3 -16 -12 -25l-105 -122q60 -94 60 -258
q0 -129 -25.5 -289.5t-86.5 -334t-144 -271.5q-82 -95 -192.5 -137t-266.5 -42q-265 0 -379 109zM1231 1030q0 99 -25 166l-858 -1014q43 -53 119 -75.5t195 -22.5q123 0 206 32t146 115q98 126 157.5 374.5t59.5 424.5zM285 422q0 -92 18 -154l854 1006q-80 80 -303 80
q-227 0 -336 -125q-109 -123 -171 -366t-62 -441zM926 1581q-29 -20 -60 -20h-59q-11 0 -18 7t-7 15q0 17 19 33l309 225q30 23 55 23h99q12 0 20 -7t8 -16q0 -19 -22 -37z" />
    <glyph glyph-name="oslashacute" unicode="&#x1ff;" horiz-adv-x="1107" 
d="M143 -45q-14 -14 -24 -14q-15 0 -37 20q-12 12 -12 25q0 12 12 24l74 86q-52 74 -52 203q0 142 48 321t137 279q116 135 352 135q192 0 277 -51l75 90q12 14 25 14q14 0 24 -10q25 -17 25 -33q0 -11 -10 -24l-80 -92q53 -72 53 -197q0 -120 -42 -303.5t-114 -290.5
q-112 -164 -382 -164q-188 0 -279 64zM911 713q0 66 -22 112l-596 -698q62 -49 213 -49q208 0 285 133q51 86 85.5 248.5t34.5 253.5zM225 307q0 -57 17 -110l594 692q-66 41 -211 41q-169 0 -254 -103q-67 -81 -106.5 -248.5t-39.5 -271.5zM678 1210q-22 -22 -49 -22h-51
q-25 0 -25 22q0 13 12 25l254 274q22 25 47 25h92q25 0 25 -21q0 -10 -18 -32z" />
    <glyph glyph-name="uni0218" unicode="&#x218;" horiz-adv-x="1128" 
d="M78 90v221q0 37 33 37h47q27 0 30 -33l13 -170q131 -59 301 -59q90 0 158 13.5t123.5 46t84.5 92t29 145.5q0 30 -3.5 52.5t-17 53t-37.5 55.5t-68.5 53t-106.5 52l-168 66q-117 45 -176.5 131.5t-59.5 202.5q0 424 528 424q180 0 314 -46q19 -6 25 -13.5t6 -22.5
q0 -12 -29 -232q-3 -29 -35 -29h-49q-27 0 -27 29q0 3 1 16.5t4 56.5t6 97q-132 33 -246 33q-88 0 -153 -14.5t-115 -47.5t-75.5 -92.5t-25.5 -144.5q0 -87 49 -148t174 -110l150 -60q138 -55 201 -136t63 -201q0 -435 -539 -435q-220 0 -376 72q-17 7 -25 16t-8 29z
M528 -145q35 0 35 -35q0 -28 -22 -96q-55 -160 -160 -250q-25 -21 -43 -21q-14 0 -39 17q-14 14 -14 26q0 17 20 33q105 112 127 274q7 52 47 52h49z" />
    <glyph glyph-name="uni0219" unicode="&#x219;" horiz-adv-x="847" 
d="M41 63v187q0 22 9.5 30.5t29.5 8.5h31q17 0 23.5 -6.5t8.5 -22.5l13 -151q82 -33 188 -33q94 0 146 15.5t81 47.5q52 52 52 133q0 28 -4 45.5t-19 40t-49.5 42t-89.5 38.5l-133 47q-85 31 -133 89t-48 131t27.5 139t83.5 110q98 76 305 76q120 0 219 -26q31 -7 31 -41
q0 -25 -20 -199q-3 -29 -37 -29h-39q-27 0 -27 29q0 8 0.5 21.5t2 50t3.5 77.5q-72 17 -155 17q-152 0 -209 -45q-66 -54 -66 -158q0 -48 35.5 -85.5t126.5 -72.5l123 -45q92 -33 141 -86t49 -137q0 -142 -88 -233q-49 -50 -126 -72.5t-197 -22.5q-164 0 -260 47
q-29 14 -29 43zM377 -145q35 0 35 -35q0 -25 -23 -96q-55 -160 -160 -250q-25 -21 -43 -21q-14 0 -39 17q-14 14 -14 26q0 16 21 33q105 112 127 274q7 52 47 52h49z" />
    </font>
</defs>
</svg>
