<?xml version="1.0" standalone="no"?>
<!DOCTYPE svg PUBLIC "-//W3C//DTD SVG 1.1//EN" "http://www.w3.org/Graphics/SVG/1.1/DTD/svg11.dtd" >
<svg xmlns="http://www.w3.org/2000/svg" xmlns:xlink="http://www.w3.org/1999/xlink" version="1.1">
<metadata>
Created by FontForge 20170731 at Thu Jun 23 20:53:41 2022
 By Aleksey,,,
Copyright (c) 2014 by Dieter Hofrichter. All rights reserved.
</metadata>
<defs>
<font id="OrgonSlab-LightIt" horiz-adv-x="782" >
  <font-face 
    font-family="Orgon Slab Light"
    font-weight="300"
    font-style="italic"
    font-stretch="normal"
    units-per-em="2048"
    panose-1="2 0 5 3 0 0 0 9 0 3"
    ascent="1536"
    descent="-512"
    x-height="1010"
    cap-height="1446"
    bbox="-385 -559 2470 2011"
    underline-thickness="102"
    underline-position="-307"
    unicode-range="U+0020-FB04"
  />
<missing-glyph horiz-adv-x="1026" 
d="M0 0v1448h1026v-1448h-1026zM514 817l348 526h-698zM573 725l353 -526v1052zM164 102h698l-348 529zM102 1251v-1052l351 526z" />
    <glyph glyph-name="f_f" unicode="ff" horiz-adv-x="1323" 
d="M442 0h-397q-37 0 -37 27q0 5 15 67q4 19 14.5 26t32.5 7h96l162 754h-105q-33 0 -33 26q0 17 11 66q5 20 15 28.5t32 8.5h106l31 135q25 118 56 184t81 105q92 75 256 75q86 0 129 -16q19 -6 19 -29q0 -24 -17 -67q-11 -25 -35 -25q-4 0 -43.5 4t-68.5 4
q-109 0 -160 -57q-45 -54 -76 -195l-24 -118h514l37 176q25 115 57 182t82 107q92 75 254 75q88 0 131 -16q16 -6 16 -29q0 -27 -14 -67q-8 -25 -37 -25q-4 0 -43 4t-69 4q-112 0 -160 -57q-47 -53 -74 -195l-33 -159h185q32 0 32 -31q0 -28 -12 -70q-9 -28 -47 -28h-186
l-164 -754h155q37 0 37 -27q0 -23 -12 -67q-4 -19 -15 -26t-32 -7h-399q-35 0 -35 27q0 6 12 67q8 33 49 33h94l162 754h-514l-162 -754h154q37 0 37 -27q0 -19 -13 -67q-4 -20 -14.5 -26.5t-32.5 -6.5z" />
    <glyph glyph-name="fi" unicode="fi" horiz-adv-x="1284" 
d="M442 0h-397q-37 0 -37 27q0 5 15 67q4 19 14.5 26t32.5 7h96l162 754h-105q-33 0 -33 26q0 17 11 66q5 20 15 28.5t32 8.5h106l39 176q25 115 57 182t82 107q94 75 269 75q89 0 143 -20q19 -6 19 -35q0 -6 -17 -63q-8 -25 -35 -25q-7 0 -50.5 7t-76.5 7q-124 0 -172 -57
q-47 -53 -77 -193l-33 -161h618q35 0 35 -31q0 -17 -6 -47l-174 -805h115q19 0 26.5 -6t7.5 -21q0 -23 -12 -67q-4 -20 -14.5 -26.5t-32.5 -6.5h-356q-35 0 -35 27q0 15 12 67q4 19 14.5 26t32.5 7h96l162 754h-518l-162 -754h154q37 0 37 -27q0 -19 -13 -67
q-4 -20 -14.5 -26.5t-32.5 -6.5zM1239 1382q0 -70 -37 -102q-26 -23 -74 -23q-81 0 -81 72q0 68 32 98q30 27 76 27q84 0 84 -72z" />
    <glyph glyph-name="fl" unicode="fl" horiz-adv-x="1255" 
d="M442 0h-397q-37 0 -37 27q0 5 15 67q4 19 14.5 26t32.5 7h96l162 754h-105q-33 0 -33 26q0 17 11 66q5 20 15 28.5t32 8.5h106l39 174q24 113 58 180t86 109q97 77 305 77q132 0 242 -8.5t151 -17.5q27 -8 27 -39q0 -19 -9 -60l-282 -1298h116q37 0 37 -27q0 -23 -12 -67
q-4 -19 -15 -26t-34 -7h-358q-33 0 -33 27q0 2 12 67q4 19 14.5 26t32.5 7h94l279 1284q-86 12 -281 12q-156 0 -209 -63q-51 -57 -79 -191l-33 -159h188q33 0 33 -31q0 -27 -12 -70q-9 -28 -45 -28h-193l-162 -754h154q37 0 37 -27q0 -19 -13 -67q-4 -20 -14.5 -26.5
t-32.5 -6.5z" />
    <glyph glyph-name="f_f_i" unicode="ffi" horiz-adv-x="1945" 
d="M442 0h-397q-37 0 -37 27q0 5 15 67q4 19 14.5 26t32.5 7h96l162 754h-105q-33 0 -33 26q0 17 11 66q5 20 15 28.5t32 8.5h106l31 135q25 118 56 184t81 105q92 75 256 75q86 0 129 -16q19 -6 19 -29q0 -18 -17 -67q-8 -25 -35 -25q-4 0 -43.5 4t-68.5 4q-111 0 -160 -55
q-45 -54 -76 -197l-24 -118h514l37 176q24 114 57.5 181.5t83.5 107.5q92 75 266 75q82 0 131 -18q19 -10 19 -29q0 -18 -17 -67q-9 -27 -34 -27q-4 0 -45.5 6t-71.5 6q-120 0 -168 -57q-52 -59 -78 -195l-33 -159h619q14 0 24.5 -9.5t10.5 -25.5l-7 -35l-174 -813h113
q37 0 37 -27q0 -20 -12 -67q-6 -20 -16 -26.5t-32 -6.5h-358q-35 0 -35 27q0 14 13 67q8 33 49 33h94l164 754h-518l-164 -754h155q37 0 37 -27q0 -23 -12 -67q-6 -20 -16 -26.5t-31 -6.5h-399q-35 0 -35 27q0 6 12 67q8 33 49 33h94l162 754h-514l-162 -754h154
q37 0 37 -27q0 -16 -13 -67q-4 -20 -14.5 -26.5t-32.5 -6.5zM1898 1382q0 -67 -38 -102q-23 -23 -72 -23q-80 0 -80 72q0 67 33 98q30 27 76 27q40 0 60.5 -16t20.5 -56z" />
    <glyph glyph-name="f_f_l" unicode="ffl" horiz-adv-x="1916" 
d="M442 0h-397q-37 0 -37 27q0 5 15 67q4 19 14.5 26t32.5 7h96l162 754h-105q-33 0 -33 26q0 17 11 66q5 20 15 28.5t32 8.5h106l31 135q25 118 56 184t81 105q92 75 256 75q86 0 129 -16q19 -6 19 -29q0 -18 -17 -67q-8 -25 -35 -25q-4 0 -43.5 4t-68.5 4q-109 0 -160 -57
q-45 -54 -76 -195l-24 -118h514l37 174q24 114 57.5 180.5t85.5 108.5q97 77 305 77q271 0 393 -26q29 -8 29 -39q0 -15 -10 -60l-281 -1298h115q20 0 28.5 -6t8.5 -21q0 -21 -12 -65q-4 -20 -15 -27.5t-33 -7.5h-358q-35 0 -35 27q0 14 12 67q8 33 50 33h94l278 1284
q-86 12 -282 12q-151 0 -207 -63t-80 -191l-33 -159h187q34 0 34 -31q0 -23 -12 -70q-6 -28 -45 -28h-192l-164 -754h155q37 0 37 -27q0 -15 -14 -67q-4 -20 -14 -26.5t-31 -6.5h-399q-35 0 -35 27q0 6 12 67q8 33 49 33h94l162 754h-514l-162 -754h154q37 0 37 -27
q0 -17 -13 -65q-4 -20 -14.5 -27.5t-32.5 -7.5z" />
    <glyph glyph-name="T_h" unicode="Th" horiz-adv-x="2314" 
d="M690 0h-383q-35 0 -35 27q0 2 13 69q8 33 49 33h102l254 1182h-321l-33 -140q-9 -36 -41 -36h-59q-31 0 -31 30q0 16 41 232q5 29 14.5 39t38.5 10h1208l6 33q6 29 17.5 41t32.5 12h65q39 0 39 -29q0 -15 -6 -45l-119 -549q41 66 143.5 95.5t210.5 29.5q53 0 96.5 -8
t81 -27t59 -53.5t21.5 -83.5q0 -64 -22 -174l-123 -561h107q38 0 38 -25q0 -16 -14 -71q-4 -20 -13 -25.5t-32 -5.5h-211q-17 0 -27 8.5t-10 22.5q0 5 6 41l132 610q14 69 14 119q0 57 -40 78.5t-122 21.5q-70 0 -127 -11.5t-79 -21t-54 -26.5q-29 -15 -47 -43
q-12 -15 -21 -58l-133 -614h113q37 0 37 -27q0 -19 -13 -67q-4 -19 -15 -26t-34 -7h-356q-35 0 -35 27q0 15 12 67q8 33 48 33h96l250 1184h-635l-252 -1182h121q20 0 28.5 -6t8.5 -21q0 -21 -13 -69q-4 -20 -14.5 -26.5t-32.5 -6.5z" />
    <glyph glyph-name="Tcaron_h" unicode="&#x164;h" horiz-adv-x="2314" 
d="M690 0h-383q-35 0 -35 27q0 2 13 69q8 33 49 33h102l254 1182h-321l-33 -140q-9 -36 -41 -36h-59q-31 0 -31 30q0 16 41 232q5 29 14.5 39t38.5 10h1208l6 33q6 29 17.5 41t32.5 12h65q39 0 39 -29q0 -15 -6 -45l-119 -549q41 66 143.5 95.5t210.5 29.5q53 0 96.5 -8
t81 -27t59 -53.5t21.5 -83.5q0 -64 -22 -174l-123 -561h107q38 0 38 -25q0 -16 -14 -71q-4 -20 -13 -25.5t-32 -5.5h-211q-17 0 -27 8.5t-10 22.5q0 5 6 41l132 610q14 69 14 119q0 57 -40 78.5t-122 21.5q-70 0 -127 -11.5t-79 -21t-54 -26.5q-29 -15 -47 -43
q-12 -15 -21 -58l-133 -614h113q37 0 37 -27q0 -19 -13 -67q-4 -19 -15 -26t-34 -7h-356q-35 0 -35 27q0 15 12 67q8 33 48 33h96l250 1184h-635l-252 -1182h121q20 0 28.5 -6t8.5 -21q0 -21 -13 -69q-4 -20 -14.5 -26.5t-32.5 -6.5zM1063 1862h70q26 0 26 -25
q0 -20 -18 -35l-250 -207q-39 -34 -72 -34h-69q-35 0 -56 28l-176 215q-10 13 -10 29q0 29 37 29h55q26 0 55 -29l148 -137l196 137q39 29 64 29z" />
    <glyph glyph-name="f_b" unicode="fb" horiz-adv-x="1861" 
d="M442 0h-397q-37 0 -37 27q0 5 15 67q4 19 14.5 26t32.5 7h96l162 754h-105q-33 0 -33 26q0 17 11 66q5 20 15 28.5t32 8.5h106l39 174q24 113 58 180t86 109q97 77 305 77q303 0 387 -26q28 -8 28 -39q0 -26 -6 -47l-110 -525q99 121 336 121q309 0 309 -305
q0 -143 -44.5 -313.5t-127.5 -270.5q-72 -89 -172.5 -122t-249.5 -33q-67 0 -141.5 19.5t-104.5 47.5l-10 -34q-4 -17 -14 -22t-33 -5h-51q-31 0 -31 29q0 16 6 43l287 1343q-86 12 -277 12q-156 0 -209 -63q-51 -57 -79 -191l-33 -159h188q33 0 33 -31q0 -27 -12 -70
q-9 -28 -45 -28h-193l-162 -754h154q37 0 37 -27q0 -19 -13 -67q-4 -20 -14.5 -26.5t-32.5 -6.5zM981 170q23 -20 89 -37.5t122 -17.5q116 0 189 26t120 84q61 72 97 217t36 254q0 101 -53.5 153t-171.5 52q-139 0 -250 -65q-24 -15 -39 -45q-10 -19 -16 -48z" />
    <glyph glyph-name="f_f_b" unicode="ffb" horiz-adv-x="2523" 
d="M442 0h-397q-37 0 -37 27q0 5 15 67q4 19 14.5 26t32.5 7h96l162 754h-105q-33 0 -33 26q0 17 11 66q5 20 15 28.5t32 8.5h106l31 135q25 118 56 184t81 105q92 75 256 75q86 0 129 -16q19 -6 19 -29q0 -10 -15 -67q-8 -25 -37 -25q-4 0 -43.5 4t-68.5 4q-109 0 -160 -57
q-45 -54 -76 -195l-24 -118h514l37 174q24 113 58 180t85 109q97 77 305 77q298 0 389 -26q29 -8 29 -39q0 -23 -8 -51l-111 -521q99 121 338 121q309 0 309 -305q0 -141 -45 -312.5t-127 -271.5q-72 -89 -172.5 -122t-249.5 -33q-67 0 -141 19.5t-104 47.5l-13 -34
q-6 -15 -16 -21t-31 -6h-49q-31 0 -31 29q0 11 7 43l286 1343q-86 12 -278 12q-151 0 -207 -63q-57 -64 -80 -191l-33 -159h185q32 0 32 -31q0 -28 -12 -70q-9 -28 -47 -28h-186l-164 -754h155q37 0 37 -27q0 -23 -12 -67q-4 -19 -15 -26t-32 -7h-399q-35 0 -35 27
q0 6 12 67q8 33 49 33h94l162 754h-514l-162 -754h154q37 0 37 -27q0 -19 -13 -67q-4 -20 -14.5 -26.5t-32.5 -6.5zM1642 170q22 -20 87.5 -37.5t123.5 -17.5q114 0 187.5 26t122.5 84q61 72 97 217t36 254q0 101 -54 153t-174 52q-136 0 -247 -65q-26 -14 -41 -45
q-8 -16 -15 -48z" />
    <glyph glyph-name="f_f_h" unicode="ffh" horiz-adv-x="2574" 
d="M442 0h-397q-37 0 -37 27q0 5 15 67q4 19 14.5 26t32.5 7h96l162 754h-105q-33 0 -33 26q0 17 11 66q5 20 15 28.5t32 8.5h106l31 135q25 118 56 184t81 105q92 75 256 75q86 0 129 -16q19 -6 19 -29q0 -2 -17 -67q-8 -25 -35 -25q-4 0 -43.5 4t-68.5 4q-109 0 -160 -57
q-45 -54 -76 -195l-24 -118h514l37 174q24 113 58 180t85 109q97 77 305 77q271 0 393 -26q29 -12 29 -39q0 -15 -10 -60l-109 -516q41 66 144 95.5t211 29.5q53 0 96 -8t80.5 -27t58.5 -53.5t21 -83.5q0 -69 -21 -174l-123 -561h107q20 0 28.5 -5.5t8.5 -19.5
q0 -20 -13 -71q-4 -19 -14 -25t-33 -6h-211q-35 0 -35 31q0 6 1 13.5t3 15.5l3 12l131 610q12 59 12 119q0 57 -39 78.5t-121 21.5q-70 0 -127 -11.5t-80.5 -21t-54.5 -26.5q-25 -12 -45 -43q-17 -28 -23 -58l-133 -614h113q20 0 28.5 -6t8.5 -21q0 -23 -12 -67
q-4 -20 -14.5 -26.5t-33.5 -6.5h-358q-35 0 -35 27q0 4 1.5 11t5 23t6.5 33q8 33 49 33h96l274 1284q-86 12 -282 12q-151 0 -207 -63q-57 -64 -80 -191l-33 -159h185q32 0 32 -31q0 -28 -12 -70q-9 -28 -47 -28h-186l-164 -754h155q37 0 37 -27q0 -23 -12 -67
q-4 -19 -15 -26t-32 -7h-399q-35 0 -35 27q0 6 12 67q8 33 49 33h94l162 754h-514l-162 -754h154q37 0 37 -27q0 -19 -13 -67q-4 -20 -14.5 -26.5t-32.5 -6.5z" />
    <glyph glyph-name="f_f_j" unicode="ffj" horiz-adv-x="1908" 
d="M442 0h-397q-37 0 -37 27q0 5 15 67q4 19 14.5 26t32.5 7h96l162 754h-105q-33 0 -33 26q0 17 11 66q5 20 15 28.5t32 8.5h106l31 135q25 118 56 184t81 105q92 75 256 75q86 0 129 -16q19 -6 19 -29q0 -12 -17 -65q-9 -27 -35 -27q-4 0 -43.5 4t-68.5 4q-111 0 -160 -55
q-45 -54 -76 -197l-24 -118h514l37 176q24 114 57.5 181.5t83.5 107.5q92 75 264 75q86 0 129 -16q19 -8 19 -31q0 -24 -15 -67q-6 -25 -35 -25q-4 0 -44.5 5t-69.5 5q-120 0 -168 -57q-52 -59 -78 -195l-33 -159h598q39 0 39 -33q0 -21 -4 -37l-237 -1102
q-23 -105 -51.5 -166t-71.5 -98q-104 -84 -308 -84q-51 0 -51 35q0 15 13 65q6 17 17 23t36 6q122 0 182 43q60 45 86 172l225 1047h-501l-164 -754h155q37 0 37 -27q0 -25 -12 -67q-6 -20 -16 -26.5t-31 -6.5h-399q-35 0 -35 27q0 6 12 67q8 33 49 33h94l162 754h-514
l-162 -754h154q37 0 37 -27q0 -16 -13 -67q-4 -20 -14.5 -26.5t-32.5 -6.5zM1884 1382q0 -65 -37 -102q-26 -23 -71 -23q-82 0 -82 72q0 68 32 98q30 27 76 27q40 0 61 -16t21 -56z" />
    <glyph glyph-name="f_f_k" unicode="ffk" horiz-adv-x="2430" 
d="M2410 881h-100q-142 -156 -295 -316q15 -28 39 -78t66 -138t86 -177q13 -27 30 -36t54 -9h57q20 0 28.5 -6t8.5 -23q0 -20 -12 -67q-8 -31 -48 -31h-120q-53 0 -81 22t-48 64l-172 381q-8 22 -24.5 28.5t-47.5 6.5h-113l-82 -375h113q20 0 28.5 -6t8.5 -23q0 -21 -12 -65
q-4 -19 -15 -26t-33 -7h-358q-35 0 -35 27q0 4 1.5 10.5t5 21.5t6.5 33q8 35 47 35h98l274 1284q-86 12 -282 12q-151 0 -207 -63q-57 -64 -80 -191l-33 -159h185q32 0 32 -31q0 -28 -12 -70q-9 -28 -47 -28h-186l-164 -754h155q20 0 28.5 -6t8.5 -23q0 -21 -12 -65
q-4 -19 -15 -26t-32 -7h-399q-35 0 -35 27q0 4 12 65q8 35 49 35h94l162 754h-514l-162 -754h154q20 0 28.5 -6t8.5 -23t-13 -65q-4 -20 -14.5 -26.5t-32.5 -6.5h-397q-37 0 -37 27q0 3 15 65q8 35 47 35h96l162 754h-105q-33 0 -33 26q0 17 11 66q5 20 15 28.5t32 8.5h106
l31 135q25 118 56 184t81 105q92 75 256 75q86 0 129 -16q19 -6 19 -29q0 -5 -3 -16t-7.5 -26.5t-6.5 -24.5q-6 -25 -35 -25q-4 0 -43.5 4t-68.5 4q-109 0 -160 -57q-45 -54 -76 -195l-24 -118h514l37 174q24 113 58 180t85 109q97 77 305 77q309 0 393 -26q29 -8 29 -39
q0 -15 -10 -60l-168 -796h98q71 0 101 35l194 217h-59q-35 0 -35 26q0 16 12 68q8 35 49 35h328q37 0 37 -29q0 -24 -12 -68q-4 -19 -14.5 -25.5t-33.5 -6.5z" />
    <glyph glyph-name="f_h" unicode="fh" horiz-adv-x="1914" 
d="M442 0h-397q-37 0 -37 27q0 3 15 65q8 35 47 35h96l162 754h-105q-33 0 -33 26q0 17 11 66q5 20 15 28.5t32 8.5h106l39 174q24 113 58 180t86 109q97 77 313 77q281 0 383 -26q29 -8 29 -39q0 -19 -9 -60l-110 -516q41 66 143.5 95.5t210.5 29.5q53 0 96.5 -8t81 -27
t59 -53.5t21.5 -83.5q0 -64 -22 -174l-121 -561h104q39 0 39 -25q0 -22 -12 -69q-4 -19 -15 -26t-34 -7h-209q-37 0 -37 31q0 5 6 41l131 610q14 69 14 119q0 57 -39.5 78.5t-121.5 21.5q-155 0 -260 -59q-31 -15 -48 -43q-11 -14 -20 -56l-135 -616h115q36 0 36 -27
q0 -21 -12 -65q-4 -20 -15.5 -27.5t-33.5 -7.5h-358q-33 0 -33 27l12 65q8 35 47 35h96l275 1284q-86 12 -281 12q-156 0 -209 -63q-51 -57 -79 -191l-33 -159h188q33 0 33 -31q0 -27 -12 -70q-9 -28 -45 -28h-193l-162 -754h154q37 0 37 -27q0 -17 -13 -65
q-4 -20 -14.5 -27.5t-32.5 -7.5z" />
    <glyph glyph-name="f_j" unicode="fj" horiz-adv-x="1249" 
d="M442 0h-397q-37 0 -37 27q0 5 15 67q4 19 14.5 26t32.5 7h96l162 754h-105q-33 0 -33 26q0 17 11 66q5 20 15 28.5t32 8.5h106l39 176q25 115 57 182t82 107q94 75 265 75q88 0 131 -16q18 -9 18 -31q0 -23 -14 -67q-9 -25 -37 -25q-4 0 -44.5 5t-70.5 5q-120 0 -168 -57
q-46 -52 -77 -195l-33 -159h602q37 0 37 -33q0 -5 -8 -45l-236 -1094q-23 -105 -51.5 -166t-71.5 -98q-101 -84 -307 -84q-49 0 -49 35q0 27 10 65q6 17 17.5 23t35.5 6q123 0 185 43q31 23 50 62t34 110l225 1047h-502l-162 -754h154q37 0 37 -27q0 -16 -13 -67
q-4 -20 -14.5 -26.5t-32.5 -6.5zM1225 1382q0 -66 -39 -102q-26 -23 -72 -23q-82 0 -82 72q0 67 33 98q30 27 76 27q84 0 84 -72z" />
    <glyph glyph-name="f_k" unicode="fk" horiz-adv-x="1769" 
d="M1749 881h-100l-293 -318q1 -3 63 -133.5t127 -257.5q13 -28 29.5 -36.5t54.5 -8.5h58q19 0 26.5 -6t7.5 -21q0 -22 -12 -69q-5 -31 -47 -31h-119q-54 0 -82.5 22t-48.5 64l-170 381q-10 22 -26 28.5t-46 6.5h-112l-84 -375h115q36 0 36 -27q0 -23 -12 -67
q-4 -19 -15 -26t-34 -7h-358q-35 0 -35 27q0 18 12 67q8 33 49 33h96l275 1284q-86 12 -281 12q-156 0 -209 -63q-51 -57 -79 -191l-33 -159h188q33 0 33 -31q0 -27 -12 -70q-9 -28 -45 -28h-193l-162 -754h154q37 0 37 -27q0 -19 -13 -67q-4 -20 -14.5 -26.5t-32.5 -6.5
h-397q-37 0 -37 27q0 5 15 67q4 19 14.5 26t32.5 7h96l162 754h-105q-33 0 -33 26q0 17 11 66q5 20 15 28.5t32 8.5h106l39 174q24 113 58 180t86 109q97 77 305 77q271 0 393 -26q27 -12 27 -39q0 -19 -9 -60l-170 -796h103q66 0 98 35l199 217h-66q-35 0 -35 26
q0 20 13 68q8 35 49 35h330q34 0 34 -29q0 -24 -12 -68q-4 -20 -14 -26t-33 -6z" />
    <glyph glyph-name="uni0162_h" unicode="&#x162;h" horiz-adv-x="2314" 
d="M506 -131q176 -2 176 -158q0 -122 -68 -171.5t-208 -49.5q-63 0 -113 12q-25 8 -25 33q0 13 11 51q12 29 38 29q11 0 31 -4q33 -10 74 -10q63 0 91 19.5t28 74.5q0 36 -20.5 52.5t-65.5 16.5q-8 0 -26 -1t-21 -1q-35 0 -35 39q0 16 14 60l47 139h-127q-35 0 -35 27
q0 2 13 69q8 33 49 33h102l254 1182h-321l-33 -140q-9 -36 -41 -36h-59q-31 0 -31 30q0 16 41 232q5 29 14.5 39t38.5 10h1208l6 33q6 29 17.5 41t32.5 12h65q39 0 39 -29q0 -15 -6 -45l-119 -549q41 66 143.5 95.5t210.5 29.5q53 0 96.5 -8t81 -27t59 -53.5t21.5 -83.5
q0 -64 -22 -174l-123 -561h107q38 0 38 -25q0 -16 -14 -71q-4 -20 -13 -25.5t-32 -5.5h-211q-17 0 -27 8.5t-10 22.5q0 5 6 41l132 610q14 69 14 119q0 57 -40 78.5t-122 21.5q-70 0 -127 -11.5t-79 -21t-54 -26.5q-29 -15 -47 -43q-12 -15 -21 -58l-133 -614h113
q37 0 37 -27q0 -19 -13 -67q-4 -19 -15 -26t-34 -7h-356q-35 0 -35 27q0 15 12 67q8 33 48 33h96l250 1184h-635l-252 -1182h121q20 0 28.5 -6t8.5 -21q0 -21 -13 -69q-4 -20 -14.5 -26.5t-32.5 -6.5h-143z" />
    <glyph glyph-name="uni021A_h" unicode="&#x21a;h" horiz-adv-x="2314" 
d="M690 0h-383q-35 0 -35 27q0 2 13 69q8 33 49 33h102l254 1182h-321l-33 -140q-9 -36 -41 -36h-59q-31 0 -31 30q0 16 41 232q5 29 14.5 39t38.5 10h1208l6 33q6 29 17.5 41t32.5 12h65q39 0 39 -29q0 -15 -6 -45l-119 -549q41 66 143.5 95.5t210.5 29.5q53 0 96.5 -8
t81 -27t59 -53.5t21.5 -83.5q0 -64 -22 -174l-123 -561h107q38 0 38 -25q0 -16 -14 -71q-4 -20 -13 -25.5t-32 -5.5h-211q-17 0 -27 8.5t-10 22.5q0 5 6 41l132 610q14 69 14 119q0 57 -40 78.5t-122 21.5q-70 0 -127 -11.5t-79 -21t-54 -26.5q-29 -15 -47 -43
q-12 -15 -21 -58l-133 -614h113q37 0 37 -27q0 -19 -13 -67q-4 -19 -15 -26t-34 -7h-356q-35 0 -35 27q0 15 12 67q8 33 48 33h96l250 1184h-635l-252 -1182h121q20 0 28.5 -6t8.5 -21q0 -21 -13 -69q-4 -20 -14.5 -26.5t-32.5 -6.5zM518 -141q39 0 39 -41q0 -39 -20 -97
q-55 -160 -158 -253q-27 -27 -53 -27t-50 20q-18 15 -18 31q0 6 2.5 11.5t4.5 9t7.5 9.5t6.5 7q100 111 122 272q7 58 56 58h61z" />
    <glyph glyph-name=".notdef" horiz-adv-x="1026" 
d="M0 0v1448h1026v-1448h-1026zM514 817l348 526h-698zM573 725l353 -526v1052zM164 102h698l-348 529zM102 1251v-1052l351 526z" />
    <glyph glyph-name=".null" horiz-adv-x="0" 
 />
    <glyph glyph-name="nonmarkingreturn" horiz-adv-x="682" 
 />
    <glyph glyph-name="space" unicode=" " horiz-adv-x="456" 
 />
    <glyph glyph-name="exclam" unicode="!" horiz-adv-x="581" 
d="M408 489q-11 -45 -46 -45h-49q-39 0 -39 31q0 11 5 41q44 224 77.5 394t50.5 254t27 134.5t14 68.5t5 24q9 55 55 55h70q23 0 31.5 -9t8.5 -30q0 -19 -119 -529q-17 -73 -27.5 -117.5t-28.5 -122t-35 -149.5zM367 117q0 -73 -39 -109q-29 -26 -76 -26q-88 0 -88 77
q0 68 37 105q32 29 78 29q43 0 65.5 -17t22.5 -59z" />
    <glyph glyph-name="quotedbl" unicode="&#x22;" horiz-adv-x="706" 
d="M362 973q-9 -39 -43 -39h-30q-31 0 -31 29q0 20 4 38q65 378 72 412q9 53 55 53h51q37 0 37 -30q0 -15 -8 -47q-16 -74 -107 -416zM682 973q-9 -39 -43 -39h-31q-30 0 -30 29q0 20 4 38q22 119 44 247.5t29 166.5q9 51 54 51h51q37 0 37 -30q0 -11 -9 -47
q-19 -83 -106 -416z" />
    <glyph glyph-name="numbersign" unicode="#" horiz-adv-x="1220" 
d="M428 442l-111 -434q-6 -23 -16 -32t-31 -9h-26q-33 0 -33 29q0 17 8 45l105 401h-179q-34 0 -34 31q0 21 6 68q6 39 43 39h196l64 245h-191q-34 0 -34 29q0 24 6 70q3 37 43 37h211l104 407q6 25 16.5 36t32.5 11h29q31 0 31 -26q0 -12 -9 -48l-98 -380h318l106 407
q9 47 47 47h29q33 0 33 -29q0 -4 -9 -45l-96 -380h176q37 0 37 -31q0 -12 -8 -72q-3 -20 -11.5 -26.5t-27.5 -6.5h-203l-63 -245h192q35 0 35 -31q0 -29 -6 -74q-3 -19 -11.5 -26t-27.5 -7h-217l-111 -434q-8 -23 -17 -32t-28 -9h-28q-33 0 -33 31q0 7 8 43l105 401h-322z
M463 580h319l64 245h-320z" />
    <glyph glyph-name="dollar" unicode="$" horiz-adv-x="1122" 
d="M498 -152q-4 -21 -11.5 -31t-27.5 -10h-29q-31 0 -31 27q0 3 3 13t4 14l26 127q-181 6 -309 57q-33 11 -33 45v221q0 37 35 37h57q30 0 33 -35l10 -153q94 -40 234 -43l108 508l-100 41q-203 82 -203 295q0 203 121.5 306t343.5 115l29 138q7 41 39 41h30q31 0 31 -23
q0 -7 -6 -37l-25 -117q154 -3 254 -38q33 -11 33 -43q0 -45 -31 -220q-5 -32 -41 -32h-51q-33 0 -33 30q0 3 1 13.5t4 47.5t6 89q-81 18 -170 22l-111 -514l49 -20q128 -53 193 -121.5t65 -163.5q0 -213 -121 -322.5t-346 -121.5zM418 987q0 -70 40 -118t142 -91l100 475
q-138 -8 -210 -68t-72 -198zM840 395q0 63 -38.5 105t-146.5 88l-100 -469q136 13 210.5 78t74.5 198z" />
    <glyph glyph-name="percent" unicode="%" horiz-adv-x="1734" 
d="M827 1169q0 -111 -40 -277.5t-105 -254.5q-46 -61 -109.5 -87t-154.5 -26q-139 0 -206 53t-67 189q0 114 36.5 261.5t101.5 238.5q91 127 276 127q70 0 116.5 -9t82.5 -33t52.5 -68.5t16.5 -113.5zM705 1153q0 75 -33 107t-125 32q-111 0 -168 -88q-47 -72 -78 -204
t-31 -222q0 -86 34.5 -119.5t125.5 -33.5q58 0 95.5 17.5t66.5 64.5q45 70 79 218t34 228zM510 -31q-14 -21 -23.5 -28t-27.5 -7h-35q-25 0 -25 21q0 14 19 41l921 1415q29 45 58 45h39q24 0 24 -22q0 -8 -28 -54zM1700 629q0 -111 -40.5 -278.5t-105.5 -254.5
q-44 -61 -108 -86.5t-156 -25.5q-139 0 -205.5 52.5t-66.5 188.5q0 115 36 262.5t101 237.5q91 127 277 127q70 0 116 -9t82.5 -32.5t53 -68t16.5 -113.5zM1575 612q0 76 -32.5 108t-125.5 32q-109 0 -166 -88q-48 -72 -79 -203.5t-31 -222.5q0 -86 35.5 -120t126.5 -34
q57 0 94.5 17.5t66.5 64.5q45 68 78 216.5t33 229.5z" />
    <glyph glyph-name="ampersand" unicode="&#x26;" horiz-adv-x="1486" 
d="M1042 139q-78 -83 -193.5 -124.5t-301.5 -41.5q-222 0 -333.5 102t-111.5 273q0 79 20 143.5t52.5 110t86.5 86t109 67.5t132 58q-54 77 -80.5 149.5t-26.5 161.5q0 155 109.5 245.5t298.5 90.5q158 0 238.5 -64.5t80.5 -189.5q0 -65 -24 -122.5t-62 -100t-95 -82
t-111.5 -67t-122.5 -54.5q179 -251 352 -432q78 116 110 309h-131q-30 0 -30 29q0 21 12 68q4 18 14 25t31 7h383q35 0 35 -28q0 -19 -13 -70q-5 -17 -14 -24t-29 -7h-114q-46 -257 -168 -407q75 -79 106.5 -99t67.5 -20h47q24 0 34.5 -7t10.5 -28q0 -24 -14 -69
q-7 -27 -41 -27h-86q-73 0 -101 20q-50 35 -127 119zM954 242q-182 202 -383 473q-50 -22 -79.5 -36t-67 -35t-58.5 -38.5t-44 -43.5t-35 -53.5t-19.5 -64t-7.5 -79.5q0 -117 80.5 -188t241.5 -71q256 0 372 136zM643 870q55 23 90 39.5t87.5 48.5t83 62t54 74.5t23.5 93.5
q0 67 -49.5 108t-145.5 41q-107 0 -177 -52t-70 -152q0 -72 25 -128.5t79 -134.5z" />
    <glyph glyph-name="quotesingle" unicode="'" horiz-adv-x="389" 
d="M362 973q-9 -39 -43 -39h-30q-31 0 -31 29q0 20 4 38q65 378 72 412q9 53 55 53h51q37 0 37 -30q0 -15 -8 -47q-16 -74 -107 -416z" />
    <glyph glyph-name="parenleft" unicode="(" horiz-adv-x="638" 
d="M805 1460q-263 -160 -416 -465t-153 -686q0 -104 17 -192.5t49 -156t63 -114t73 -94.5q8 -11 8 -24q0 -15 -16 -31q-14 -14 -31 -14q-19 0 -45 22q-46 35 -88 86.5t-82 126t-64 179.5t-24 225q0 177 39 353t115 339t201 297t284 209q32 18 49 18q19 0 29 -16
q12 -24 12 -31q0 -19 -20 -31z" />
    <glyph glyph-name="parenright" unicode=")" horiz-adv-x="638" 
d="M-106 -238q263 158 415 464t152 687q0 103 -17.5 191.5t-50 157.5t-63 115.5t-72.5 95.5q-8 8 -8 22q0 13 18 31q12 12 29 12q18 0 43 -18q46 -33 89 -85t83 -127t64 -180.5t24 -224.5q0 -180 -36 -352t-110 -333.5t-199.5 -297t-291.5 -219.5q-36 -18 -51 -18
q-16 0 -29 20q-12 20 -12 31q0 16 23 28z" />
    <glyph glyph-name="asterisk" unicode="*" horiz-adv-x="835" 
d="M541 952q-26 -26 -86 -90t-93 -96q-19 -16 -34 -16q-25 0 -56 34q-16 16 -16 37q0 17 18 35q113 105 197 174q-24 11 -106.5 46t-124.5 57q-31 17 -31 47q0 18 20 51q16 26 43 26q8 0 43 -14q94 -51 205 -117q11 144 27 246q3 27 13.5 39t35.5 12q22 0 43 -6
q35 -9 35 -41q0 -15 -4 -39q-8 -46 -27 -121.5t-25 -103.5q23 4 101.5 20.5t116.5 22.5q48 6 53 6q29 0 37 -37q6 -38 6 -55q0 -33 -41 -39q-53 -8 -264 -24q92 -149 135 -228q8 -16 8 -30q0 -21 -29 -39q-37 -19 -55 -19q-20 0 -35 27q-63 130 -110 235z" />
    <glyph glyph-name="plus" unicode="+" horiz-adv-x="1435" 
d="M723 106q-9 -34 -41 -34h-43q-35 0 -35 32q0 7 4 27l90 412h-434q-15 0 -24 10t-9 25q0 17 7 51q6 37 41 37h438l92 430q9 39 41 39h45q15 0 24 -9t9 -24q0 -13 -4 -33l-86 -403h432q17 0 26 -9.5t9 -25.5q0 -7 -9 -51q-3 -37 -43 -37h-438z" />
    <glyph glyph-name="comma" unicode="," horiz-adv-x="436" 
d="M203 211q41 0 41 -37q0 -20 -13 -70q-31 -111 -108.5 -228.5t-161.5 -176.5q-33 -25 -49 -25q-22 0 -39 17q-16 19 -16 33q0 20 24 40q65 51 125 151.5t82 234.5q10 61 51 61h64z" />
    <glyph glyph-name="hyphen" unicode="-" horiz-adv-x="673" 
d="M547 481h-402q-30 0 -30 27q0 15 14 72q5 19 14.5 26.5t30.5 7.5h397q33 0 33 -26q0 -19 -14 -76q-6 -19 -14.5 -25t-28.5 -6z" />
    <glyph glyph-name="period" unicode="." horiz-adv-x="438" 
d="M248 117q0 -28 -10.5 -59t-30.5 -50q-29 -26 -76 -26q-88 0 -88 77q0 66 39 105q29 29 78 29q88 0 88 -76z" />
    <glyph glyph-name="slash" unicode="/" horiz-adv-x="763" 
d="M63 -164q-11 -22 -22.5 -31.5t-30.5 -9.5h-49q-29 0 -29 25q0 7 17 41l852 1628q14 26 25 37.5t30 11.5h51q29 0 29 -27q0 -7 -23 -55z" />
    <glyph glyph-name="zero" unicode="0" horiz-adv-x="1144" 
d="M1141 1034q0 -111 -22.5 -267.5t-74 -330.5t-118.5 -272q-71 -104 -169 -148.5t-235 -44.5q-104 0 -178 19t-127.5 63.5t-79.5 120.5t-26 188q0 188 55.5 428t152.5 390q77 120 180 168.5t238 48.5q106 0 177 -15.5t124.5 -55.5t78 -111.5t24.5 -180.5zM985 1012
q0 68 -11 112t-39.5 77t-80.5 48t-133 15q-93 0 -160 -36t-121 -124q-76 -124 -125 -347.5t-49 -377.5q0 -151 59.5 -213t211.5 -62q95 0 159.5 31.5t114.5 112.5q73 119 123.5 368.5t50.5 395.5z" />
    <glyph glyph-name="one" unicode="1" horiz-adv-x="1144" 
d="M739 0h-467q-36 0 -36 27q0 10 14 67q8 35 47 35h152l235 1081l-213 -88q-32 -12 -41 -12q-13 0 -22 18q-27 61 -27 76q0 23 33 37l297 127q37 16 71 16h33q43 0 43 -32q0 -11 -4 -35l-256 -1188h166q20 0 28.5 -6t8.5 -23q0 -21 -13 -67q-6 -20 -16.5 -26.5t-32.5 -6.5z
" />
    <glyph glyph-name="two" unicode="2" horiz-adv-x="1144" 
d="M922 0h-875q-33 0 -33 29q0 10 11 61q7 29 26 43q148 105 238.5 171t218.5 168t215 187q192 183 192 394q0 104 -60 162.5t-204 58.5q-111 0 -233 -39q-65 -21 -72 -21q-20 0 -27 25q-16 41 -16 64q0 17 13 27.5t46 21.5q162 57 336 57q379 0 379 -319q0 -272 -217 -480
q-273 -264 -622 -481q218 4 600 4l36 154q8 35 41 35h60q33 0 33 -31q0 -3 -1 -8.5t-3.5 -22t-6.5 -39t-12.5 -69.5t-17.5 -103q-7 -49 -45 -49z" />
    <glyph glyph-name="three" unicode="3" horiz-adv-x="1144" 
d="M743 727q108 -11 167 -76t59 -184q0 -229 -113 -350q-135 -144 -453 -144q-192 0 -297 41q-40 15 -40 45q0 20 24 74q10 21 33 21q9 0 32 -7.5t33 -9.5q107 -28 234 -28q232 0 321 102q74 85 74 248q0 98 -70.5 148t-234.5 50h-43q-37 0 -37 29q0 24 10 66q5 21 15.5 30
t34.5 9h47q178 0 274 79q82 69 82 224q0 92 -59 136t-191 44q-136 0 -231 -35q-62 -20 -68 -20q-21 0 -29 24q-14 41 -14 60q0 29 59 51q153 55 326 55q102 0 174 -20.5t112.5 -60t58.5 -90.5t18 -118q0 -165 -74 -259t-234 -134z" />
    <glyph glyph-name="four" unicode="4" horiz-adv-x="1144" 
d="M954 0h-438q-35 0 -35 27l13 67q8 35 49 35h135l59 266h-583q-41 0 -41 39q0 24 12 64q4 18 31 53l606 784q40 49 74 49h69q31 0 31 -26q0 -14 -27 -53q-384 -498 -602 -775h459l70 328q9 43 43 43h69q33 0 33 -29q0 -10 -4 -38l-64 -304h183q39 0 39 -28q0 -7 -15 -76
q-7 -31 -45 -31h-190l-60 -266h154q19 0 27 -6t8 -23q0 -19 -13 -67q-4 -20 -14.5 -26.5t-32.5 -6.5z" />
    <glyph glyph-name="five" unicode="5" horiz-adv-x="1144" 
d="M1083 1106q-5 -33 -41 -33h-61q-18 0 -24.5 7.5t-6.5 23.5q0 3 1 11t5.5 44.5t10.5 91.5h-455l-119 -426q105 39 240 39q194 0 289.5 -70.5t95.5 -234.5q0 -279 -144.5 -432.5t-455.5 -153.5q-205 0 -320 43q-37 13 -37 41q0 23 21 74q11 25 39 25q5 0 69 -19
q107 -28 246 -28q218 0 320 104t102 309q0 118 -70.5 163.5t-209.5 45.5q-133 0 -265 -41q-28 -8 -49 -8q-16 0 -25.5 9t-9.5 26q0 14 17 76l151 538q15 53 58 53h630q17 0 29 -9t12 -27q0 -23 -43 -242z" />
    <glyph glyph-name="six" unicode="6" horiz-adv-x="1144" 
d="M322 702q129 166 393 166q348 0 348 -311q0 -284 -145 -442q-67 -73 -160.5 -107.5t-235.5 -34.5q-391 0 -391 387q0 130 29.5 290.5t96.5 327t155 259.5q84 87 193.5 129.5t266.5 42.5q164 0 240 -29q21 -9 21 -30t-21 -78q-10 -21 -29 -21q-1 0 -55 9q-85 16 -166 16
q-126 0 -207.5 -33t-142.5 -100q-63 -67 -105 -170.5t-85 -270.5zM274 360q0 -42 6.5 -77t24 -69t45.5 -57t75.5 -37t109.5 -14q202 0 286 111q92 119 92 303q0 97 -58 157t-181 60q-106 0 -199.5 -42.5t-150.5 -112.5q-20 -25 -31 -72q-19 -74 -19 -150z" />
    <glyph glyph-name="seven" unicode="7" horiz-adv-x="1144" 
d="M385 -4h-70q-39 0 -39 29q0 19 21 61q329 598 694 1167q-111 -2 -614 -2l-35 -147q-8 -35 -39 -35h-61q-33 0 -33 31q0 21 37 233q5 25 15.5 38t31.5 13h848q39 0 39 -28q0 -26 -4 -51q-7 -37 -33 -74q-17 -28 -93.5 -152t-101 -164t-90 -148t-102 -171.5t-93.5 -162.5
t-108 -193t-104 -195q-24 -49 -66 -49z" />
    <glyph glyph-name="eight" unicode="8" horiz-adv-x="1144" 
d="M834 723q105 -19 161 -89t56 -177q0 -245 -141.5 -364.5t-401.5 -119.5q-201 0 -306.5 86t-105.5 236q0 187 90.5 299t257.5 143q-82 24 -127 89t-45 147q0 219 129.5 327.5t368.5 108.5q371 0 371 -274q0 -336 -307 -412zM893 444q0 107 -72.5 159t-195.5 52
q-59 0 -110 -8.5t-101.5 -31t-86 -58.5t-57.5 -95t-22 -136q0 -116 77 -169t203 -53q175 0 270 85t95 255zM989 1100q0 178 -241 178q-326 0 -326 -299q0 -95 64.5 -143t168.5 -48q151 0 242.5 83t91.5 229z" />
    <glyph glyph-name="nine" unicode="9" horiz-adv-x="1144" 
d="M930 680q-120 -162 -387 -162q-179 0 -267 84t-88 232q0 132 32.5 239t113.5 195q66 74 160 107.5t235 33.5q389 0 389 -385q0 -134 -26 -292t-89.5 -327t-152.5 -262q-84 -87 -194 -129.5t-269 -42.5q-145 0 -246 27q-26 7 -26 33q0 10 6 36.5t14 43.5q9 22 29 22
q7 0 17 -1.5t22 -3.5t16 -3q97 -19 176 -19q126 0 210 33t143 99q62 70 102.5 174t79.5 268zM973 1024q0 54 -10.5 95t-36.5 78.5t-79 58t-130 20.5q-201 0 -289 -113q-90 -117 -90 -297q0 -99 59.5 -159t186.5 -60q106 0 198 42t142 112q21 25 32 69q17 80 17 154z" />
    <glyph glyph-name="colon" unicode=":" horiz-adv-x="477" 
d="M289 117q0 -28 -10.5 -59t-30.5 -50q-29 -26 -76 -26q-88 0 -88 77q0 66 39 105q29 29 78 29q88 0 88 -76zM463 934q0 -68 -41 -109q-29 -26 -74 -26q-88 0 -88 78q0 65 37 102q27 31 80 31q86 0 86 -76z" />
    <glyph glyph-name="semicolon" unicode=";" horiz-adv-x="477" 
d="M463 934q0 -68 -41 -109q-29 -26 -74 -26q-88 0 -88 78q0 65 37 102q27 31 80 31q86 0 86 -76zM244 211q41 0 41 -37q0 -20 -13 -70q-31 -111 -108.5 -228.5t-161.5 -176.5q-33 -25 -49 -25q-22 0 -39 17q-16 19 -16 33q0 20 24 40q65 51 125 151.5t82 234.5q10 61 51 61
h64z" />
    <glyph glyph-name="less" unicode="&#x3c;" horiz-adv-x="1435" 
d="M1139 137q-6 -31 -27 -31q-10 0 -27 11l-757 401q-25 16 -25 41q0 21 10 70q6 34 35 47l934 416q15 6 29 6q11 0 17.5 -7.5t6.5 -19.5q0 -22 -12 -76q-6 -33 -35 -43l-846 -364l684 -346q23 -12 23 -41q0 -20 -10 -64z" />
    <glyph glyph-name="equal" unicode="=" horiz-adv-x="1435" 
d="M1257 377q-6 -37 -43 -37h-987q-37 0 -37 33q0 4 1.5 11.5t4 19.5t3.5 20q6 35 41 35h989q35 0 35 -33q0 -2 -7 -49zM1343 776q-6 -37 -40 -37h-992q-35 0 -35 33q0 5 11 51q9 35 41 35h989q35 0 35 -33q0 -9 -9 -49z" />
    <glyph glyph-name="greater" unicode="&#x3e;" horiz-adv-x="1435" 
d="M406 1073q6 29 24 29q13 0 25 -6l762 -406q24 -12 24 -39q0 -6 -10 -71q-5 -33 -35 -48l-936 -411q-20 -8 -27 -8q-24 0 -24 26q0 23 10 74q6 32 35 45l846 363l-682 348q-25 13 -25 41q0 13 13 63z" />
    <glyph glyph-name="question" unicode="?" horiz-adv-x="837" 
d="M383 444h-49q-33 0 -33 33q0 32 16 109q21 102 62 156.5t145 113.5q116 66 174 136.5t58 178.5q0 76 -47 122t-150 46q-111 0 -223 -34q-2 0 -16 -4.5t-21 -4.5q-17 0 -29 27q-14 28 -14 57q0 30 33 41q141 54 305 54q169 0 247.5 -72.5t78.5 -183.5q0 -146 -66 -240
t-213 -182q-101 -61 -136.5 -99.5t-55.5 -113.5q-4 -14 -9 -36.5t-9.5 -40.5l-8.5 -34q-7 -29 -39 -29zM412 117q0 -75 -39 -109q-29 -26 -74 -26q-90 0 -90 77q0 66 39 105q32 29 78 29q86 0 86 -76z" />
    <glyph glyph-name="at" unicode="@" horiz-adv-x="1644" 
d="M1004 225q-97 -110 -279 -110q-120 0 -183 61.5t-63 175.5q0 138 67 284.5t179 237.5q116 96 299 99q110 0 178 -41l4 10q11 25 39 25h31q24 0 24 -21q0 -16 -10 -49l-155 -543q-17 -66 -17 -84q0 -24 9 -35.5t34 -11.5q44 0 92 29q121 75 186.5 226t65.5 319
q0 444 -489 444q-169 0 -315 -70t-245 -187t-155.5 -270.5t-56.5 -320.5q0 -263 145.5 -404t433.5 -141q105 0 189.5 10.5t131.5 23.5t122 38q53 17 59 17q19 0 27 -27q6 -30 6 -35q0 -20 -51 -39q-222 -86 -496 -86q-320 0 -496 162.5t-176 472.5q0 145 38.5 283.5
t114.5 257.5t181 209.5t247 142t304 51.5q280 0 433 -132t153 -392q0 -116 -34.5 -235.5t-95.5 -219.5t-155.5 -163.5t-204.5 -63.5q-60 0 -86.5 22.5t-29.5 79.5zM1167 844q-57 33 -159 33q-76 -1 -127 -19.5t-95 -54.5q-85 -73 -135.5 -190t-50.5 -236q0 -166 166 -166
q110 0 201 70q17 12 32 32q15 17 27 58z" />
    <glyph glyph-name="A" unicode="A" horiz-adv-x="1370" 
d="M342 0h-381q-35 0 -35 27q0 14 13 67q8 35 49 35h80l739 1282q23 39 57 39h72q22 0 32.5 -8.5t14.5 -34.5l191 -1278h79q20 0 28.5 -6t8.5 -23q0 -23 -12 -67q-4 -19 -15 -26t-34 -7h-369q-35 0 -35 27q0 5 15 67q8 35 47 35h135l-53 346h-531l-205 -346h132
q19 0 27.5 -6t8.5 -23q0 -23 -12 -67q-6 -20 -15.5 -26.5t-31.5 -6.5zM866 1247q-15 -26 -65.5 -117t-122.5 -218.5t-174 -305.5h452q-51 343 -90 641z" />
    <glyph glyph-name="B" unicode="B" horiz-adv-x="1308" 
d="M514 0h-451q-32 0 -32 27q0 6 12 67q8 35 47 35h105l251 1188h-112q-33 0 -33 26q0 21 10 70q9 33 49 33h428q129 0 211 -10q261 -34 261 -283q0 -331 -275 -395q98 -20 146.5 -89t48.5 -177q0 -103 -24.5 -186.5t-88 -155.5t-162.5 -107q-119 -43 -391 -43zM348 129h201
q206 0 295 35q88 36 131 122t43 193q0 64 -23 111t-67 67q-61 31 -217 31h-244zM494 813h241q138 0 213 33q80 33 118 107.5t38 168.5q0 71 -33 116t-80 60q-61 19 -227 19h-162z" />
    <glyph glyph-name="C" unicode="C" horiz-adv-x="1253" 
d="M1118 1319q-85 18 -246 18q-219 0 -348 -139q-102 -112 -159.5 -331.5t-57.5 -407.5q0 -348 334 -348q116 0 189.5 10t148.5 33q56 18 63 18q11 0 17 -6.5t14 -24.5q14 -40 14 -59q0 -14 -10.5 -24t-42.5 -21q-189 -64 -420 -64q-467 0 -467 463q0 130 27 281.5t88 308.5
t144 254q89 101 212 148t306 47q161 0 313 -35q39 -10 39 -45q0 -32 -39 -244q-5 -31 -39 -31h-63q-33 0 -33 31q0 7 16 168z" />
    <glyph glyph-name="D" unicode="D" horiz-adv-x="1456" 
d="M500 0h-437q-32 0 -32 27q0 6 12 67q8 35 47 35h103l253 1188h-112q-33 0 -33 26q0 24 10 70q9 33 49 33h441q225 0 362 -43q126 -39 192 -148.5t66 -273.5q0 -113 -13 -220.5t-48 -222.5t-88.5 -208t-140.5 -168.5t-199 -112.5q-76 -24 -203.5 -36.5t-228.5 -12.5z
M348 129h193q245 0 364 51q96 40 168.5 128.5t111 200.5t57 223t18.5 220q0 238 -150 316q-95 49 -330 49h-178z" />
    <glyph glyph-name="E" unicode="E" horiz-adv-x="1212" 
d="M987 0h-924q-32 0 -32 27q0 8 12 69q8 35 47 35h103l256 1186h-115q-33 0 -33 26q0 19 10 70q11 33 49 33h842q20 0 27.5 -7.5t7.5 -25.5q0 -6 -41 -246q-5 -32 -37 -32h-67q-31 0 -31 30q0 14 16 152h-475l-106 -498h483q37 0 37 -26q0 -20 -12 -74q-7 -33 -52 -33h-485
l-119 -555h563l39 143q10 37 41 37h64q32 0 32 -28q0 -22 -45 -234q-6 -31 -15.5 -40t-39.5 -9z" />
    <glyph glyph-name="F" unicode="F" horiz-adv-x="1159" 
d="M481 0h-418q-32 0 -32 27q0 8 12 69q4 19 14.5 26t32.5 7h103l256 1188h-115q-33 0 -33 26q0 19 10 70q11 33 49 33h850q35 0 35 -29q0 -12 -43 -250q-5 -32 -39 -32h-63q-18 0 -24.5 7t-6.5 23q0 25 14 152h-481l-119 -545h459q39 0 39 -27q0 -8 -14 -73q-4 -19 -15 -26
t-34 -7h-463l-109 -510h160q35 0 35 -27q0 -21 -13 -69q-4 -20 -14.5 -26.5t-32.5 -6.5z" />
    <glyph glyph-name="G" unicode="G" horiz-adv-x="1368" 
d="M1167 127q-6 -30 -18 -46t-39 -28q-185 -80 -467 -80q-232 0 -362.5 111.5t-130.5 345.5q0 220 69 467.5t197 390.5q86 96 213 140.5t311 44.5q90 0 188 -11t150 -26q22 -7 30.5 -15t8.5 -28q0 -21 -37 -242q-5 -33 -39 -33h-67q-31 0 -31 31q0 19 20 166
q-101 22 -272 22q-236 0 -361 -135q-71 -76 -123 -215t-75 -275.5t-23 -254.5q0 -346 363 -346q214 0 352 53l92 420h-317q-33 0 -33 22q0 29 12 78q4 20 14 26.5t31 6.5h418q43 0 43 -31q0 -23 -6 -47z" />
    <glyph glyph-name="H" unicode="H" horiz-adv-x="1509" 
d="M442 0h-379q-32 0 -32 27q0 8 12 69q4 19 14.5 26t32.5 7h103l253 1188h-112q-33 0 -33 26q0 21 10 70q9 33 49 33h375q37 0 37 -27q0 -17 -14 -69q-4 -20 -14.5 -26.5t-32.5 -6.5h-109l-106 -500h669l109 500h-115q-35 0 -35 26q0 10 13 70q9 33 49 33h375q36 0 36 -27
q0 -25 -12 -69q-4 -19 -15 -26t-34 -7h-109l-256 -1188h119q37 0 37 -27q0 -25 -12 -69q-4 -19 -15 -26t-32 -7h-377q-35 0 -35 27q0 8 12 69q4 19 14.5 26t32.5 7h103l119 557h-670l-121 -557h119q37 0 37 -27q0 -21 -13 -69q-4 -20 -14.5 -26.5t-32.5 -6.5z" />
    <glyph glyph-name="I" unicode="I" horiz-adv-x="684" 
d="M193 129l253 1188h-112q-33 0 -33 26q0 21 10 70q9 33 49 33h375q37 0 37 -27q0 -17 -14 -69q-4 -20 -14.5 -26.5t-32.5 -6.5h-109l-254 -1188h117q37 0 37 -27q0 -21 -13 -69q-4 -20 -14.5 -26.5t-32.5 -6.5h-379q-32 0 -32 27q0 8 12 69q4 19 14.5 26t32.5 7h103z" />
    <glyph glyph-name="J" unicode="J" horiz-adv-x="669" 
d="M358 143q-22 -105 -50 -165t-75 -103q-92 -86 -268 -86q-55 0 -84 6q-24 7 -24 35q0 24 10 66q10 30 43 30q2 0 31 -2t45 -2q88 0 135 41q31 26 50 69.5t36 125.5l250 1159h-133q-37 0 -37 26q0 15 14 70q9 33 47 33h385q37 0 37 -27q0 -13 -12 -69q-4 -19 -15 -26
t-34 -7h-101z" />
    <glyph glyph-name="K" unicode="K" horiz-adv-x="1335" 
d="M467 684l-121 -555h119q37 0 37 -27q0 -21 -13 -69q-4 -20 -14.5 -26.5t-32.5 -6.5h-379q-32 0 -32 27q0 8 12 69q4 19 14.5 26t32.5 7h103l253 1188h-112q-33 0 -33 26q0 21 10 70q9 33 49 33h375q37 0 37 -27q0 -17 -14 -69q-4 -20 -14.5 -26.5t-32.5 -6.5h-107
l-108 -500h116q70 0 99 37l385 463h-72q-35 0 -35 26q0 21 12 70q9 33 50 33h360q35 0 35 -27q0 -25 -12 -69q-4 -20 -14.5 -26.5t-33.5 -6.5h-114q-352 -422 -494 -582q68 -118 293 -563q12 -25 29 -34t49 -9h98q35 0 35 -27q0 -25 -12 -69q-4 -20 -14.5 -26.5t-32.5 -6.5
h-152q-44 0 -71.5 12.5t-40 29t-29.5 52.5l-271 555q-11 22 -27 28.5t-46 6.5h-119z" />
    <glyph glyph-name="L" unicode="L" horiz-adv-x="1159" 
d="M999 0h-936q-32 0 -32 27q0 6 12 67q8 35 47 35h103l256 1188h-115q-33 0 -33 26q0 19 10 70q6 33 49 33h377q37 0 37 -27q0 -13 -12 -69q-4 -20 -14.5 -26.5t-32.5 -6.5h-113l-254 -1188h561l43 150q9 36 39 36h64q35 0 35 -30q0 -2 -48 -236q-5 -26 -14 -37.5
t-29 -11.5z" />
    <glyph glyph-name="M" unicode="M" horiz-adv-x="1783" 
d="M442 0h-376q-35 0 -35 27q0 25 12 69q6 19 16.5 26t32.5 7h101l256 1188h-113q-35 0 -35 26q0 21 12 70q9 33 47 33h289q35 0 45 -39q168 -661 213 -866q22 36 47 75t49 76.5t76 114.5t93.5 139t136.5 204t174 259q25 37 63 37h281q37 0 37 -27q0 -23 -13 -69
q-6 -20 -16.5 -26.5t-32.5 -6.5h-110l-242 -1188h123q35 0 35 -27q0 -6 -13 -69q-4 -20 -14.5 -26.5t-32.5 -6.5h-377q-34 0 -34 27q0 8 12 69q8 33 49 33h100q194 945 236 1128q-111 -184 -590 -890q-20 -33 -57 -33h-37q-38 0 -47 39q-117 450 -219 893
q-65 -334 -238 -1137h119q37 0 37 -27q0 -18 -13 -69q-4 -20 -14.5 -26.5t-32.5 -6.5z" />
    <glyph glyph-name="N" unicode="N" horiz-adv-x="1503" 
d="M442 0h-379q-32 0 -32 27q0 8 12 69q4 19 14.5 26t32.5 7h107l249 1188h-112q-33 0 -33 26q0 21 10 70q9 33 49 33h222q12 0 23 -8t16 -19q379 -895 471 -1136q38 213 219 1034h-123q-35 0 -35 26q0 8 12 70q9 33 47 33h375q37 0 37 -27q0 -25 -12 -69q-4 -19 -15 -26
t-32 -7h-103l-272 -1278q-7 -43 -51 -43h-52q-39 0 -53 35q-403 964 -467 1140q-49 -252 -221 -1042h119q37 0 37 -27q0 -23 -13 -69q-6 -20 -15.5 -26.5t-31.5 -6.5z" />
    <glyph glyph-name="O" unicode="O" horiz-adv-x="1404" 
d="M1368 1044q0 -128 -25.5 -287t-87 -332t-145.5 -271q-83 -96 -195.5 -138.5t-271.5 -42.5q-91 0 -162 11.5t-135 41.5t-105.5 78.5t-66 126t-24.5 181.5q0 139 26.5 298t92 328t157.5 267q153 161 440 161q96 0 166.5 -9t137 -36t107.5 -73t66 -122t25 -182zM1208 1022
q0 93 -19.5 153t-65 94.5t-109 48t-160.5 13.5q-215 0 -322 -123q-71 -81 -124 -228.5t-76 -289t-23 -258.5q0 -95 20.5 -157.5t66 -98.5t109.5 -50.5t159 -14.5q118 0 197 30t140 111q92 122 149.5 363.5t57.5 406.5z" />
    <glyph glyph-name="P" unicode="P" horiz-adv-x="1304" 
d="M467 0h-404q-32 0 -32 27q0 11 12 69q4 19 14.5 26t32.5 7h103l253 1188h-112q-33 0 -33 26q0 21 10 70q9 33 49 33h457q247 0 352 -51q74 -36 111 -103.5t37 -154.5q0 -188 -84 -316t-260 -176q-114 -31 -311 -31h-209l-107 -485h146q34 0 34 -27q0 -25 -12 -69
q-4 -20 -14.5 -26.5t-32.5 -6.5zM479 743h217q184 0 271 35q95 36 141.5 125.5t46.5 204.5q0 128 -92 178q-67 31 -262 31h-199z" />
    <glyph glyph-name="Q" unicode="Q" horiz-adv-x="1404" 
d="M1368 1044q0 -97 -17.5 -224t-53.5 -270.5t-104 -271t-155 -192.5l326 -211q20 -13 20 -31q0 -13 -47 -80q-15 -18 -28 -18q-12 0 -29 10l-387 258q-99 -41 -248 -41q-92 0 -163 11.5t-135.5 41.5t-106 78.5t-66 126t-24.5 181.5q0 139 27 298t93 328t158 267
q151 161 440 161q95 0 165 -9t136.5 -36t108 -73t66 -122t24.5 -182zM1208 1022q0 93 -19.5 153t-65 94.5t-109 48t-160.5 13.5q-215 0 -322 -123q-71 -80 -124 -227.5t-76 -289.5t-23 -259q0 -95 20.5 -157.5t66 -98.5t109.5 -50.5t159 -14.5q120 0 199.5 30t140.5 111
q92 122 148 362.5t56 407.5z" />
    <glyph glyph-name="R" unicode="R" horiz-adv-x="1345" 
d="M442 0h-379q-32 0 -32 27q0 8 12 69q4 19 14.5 26t32.5 7h103l256 1188h-115q-33 0 -33 26q0 24 10 70q6 33 49 33h451q225 0 330 -45q75 -32 115 -105t40 -159q0 -190 -96.5 -316.5t-284.5 -165.5l195 -483q10 -27 24 -35t48 -8h84q39 0 39 -29q0 -12 -15 -67
q-4 -19 -15 -26t-32 -7h-149q-56 0 -79.5 16.5t-37.5 57.5l-213 563q-37 -4 -123 -4h-184l-111 -504h119q37 0 37 -27q0 -15 -13 -69q-4 -20 -14.5 -26.5t-32.5 -6.5zM483 762h205q173 0 266 35q93 34 137 114.5t44 190.5q0 64 -26.5 113.5t-68.5 68.5q-68 33 -249 33h-189z
" />
    <glyph glyph-name="S" unicode="S" horiz-adv-x="1140" 
d="M74 88v236q0 43 37 43h61q32 0 35 -37l12 -166q125 -53 289 -53q85 0 148.5 12.5t115 43t78.5 85.5t27 135q0 35 -6.5 62t-27 60.5t-67 64.5t-117.5 59l-165 65q-240 92 -240 336q0 225 141 332t402 107q192 0 317 -46q20 -8 27.5 -15.5t7.5 -22.5q0 -13 -33 -246
q-5 -33 -39 -33h-65q-18 0 -24.5 7.5t-6.5 23.5q0 7 10 168q-117 26 -235 26q-168 0 -254 -61t-86 -213q0 -83 45 -140t164 -102l149 -59q140 -55 203 -135t63 -201q0 -451 -551 -451q-225 0 -383 68q-32 14 -32 47z" />
    <glyph glyph-name="T" unicode="T" horiz-adv-x="1167" 
d="M690 0h-383q-35 0 -35 27q0 2 13 69q8 33 49 33h102l254 1188h-313l-35 -146q-9 -36 -41 -36h-65q-31 0 -31 30q0 16 41 232q5 29 14.5 39t38.5 10h987q35 0 35 -29q0 -11 -41 -250q-5 -32 -39 -32h-65q-31 0 -31 30q0 29 14 152h-315l-252 -1188h121q20 0 28.5 -6
t8.5 -21q0 -21 -13 -69q-4 -20 -14.5 -26.5t-32.5 -6.5z" />
    <glyph glyph-name="U" unicode="U" horiz-adv-x="1484" 
d="M1268 578q-22 -101 -32 -143.5t-27.5 -104.5t-35.5 -100t-43 -72q-73 -100 -185.5 -143.5t-291.5 -43.5q-424 0 -424 305q0 105 41 297l158 744h-104q-35 0 -35 26q0 8 12 70q9 33 49 33h375q37 0 37 -27q0 -25 -12 -69q-4 -19 -15.5 -26t-34.5 -7h-116l-170 -793
q-25 -122 -25 -209q0 -204 291 -204q106 0 185 23t132 91q65 82 109 285l172 807h-133q-33 0 -33 26q0 21 12 70q9 33 47 33h371q20 0 28.5 -6t8.5 -21q0 -13 -12 -69q-4 -20 -14.5 -26.5t-32.5 -6.5h-93z" />
    <glyph glyph-name="V" unicode="V" horiz-adv-x="1355" 
d="M602 -4h-70q-40 0 -43 43l-174 1278h-86q-36 0 -36 26q0 15 14 70q9 33 47 33h375q37 0 37 -27q0 -21 -13 -69q-6 -20 -16 -26.5t-31 -6.5h-133q107 -809 139 -1098q91 176 615 1098h-123q-35 0 -35 26q0 8 12 70q9 33 49 33h373q20 0 28.5 -6t8.5 -21q0 -25 -12 -69
q-4 -20 -14.5 -26.5t-32.5 -6.5h-84l-733 -1280q-13 -24 -26.5 -32.5t-35.5 -8.5z" />
    <glyph glyph-name="W" unicode="W" horiz-adv-x="2017" 
d="M524 -4h-69q-40 0 -43 43l-54 1278h-92q-35 0 -35 26q0 19 13 70q9 33 49 33h375q37 0 37 -27q0 -21 -13 -69q-4 -19 -15 -26t-34 -7h-133q14 -325 22 -549.5t12 -357t5 -168.5q61 133 159 325.5t404 782.5q15 30 27 41.5t35 11.5h61q20 0 29 -11t12 -38
q83 -973 90 -1112q106 246 496 1075h-131q-35 0 -35 26q0 13 14 70q9 33 47 33h375q35 0 35 -27q0 -21 -13 -69q-4 -20 -14 -26.5t-31 -6.5h-88l-606 -1280q-10 -23 -23 -32t-34 -9h-70q-40 0 -43 43q-68 855 -84 1126q-122 -257 -577 -1128q-21 -41 -60 -41z" />
    <glyph glyph-name="X" unicode="X" horiz-adv-x="1388" 
d="M1221 0h-381q-35 0 -35 27q0 13 12 69q8 33 49 33h117q-182 363 -250 512q-61 -68 -190.5 -216.5t-261.5 -295.5h112q35 0 35 -27q0 -25 -12 -69q-4 -20 -14 -26.5t-31 -6.5h-391q-35 0 -35 27q0 20 12 69q8 33 49 33h86l561 635l-268 553h-96q-35 0 -35 26q0 21 12 70
q9 33 49 33h373q37 0 37 -27q0 -25 -12 -69q-4 -20 -14.5 -26.5t-32.5 -6.5h-113q184 -377 221 -459q211 244 408 459h-109q-35 0 -35 26q0 3 13 70q9 33 49 33h375q20 0 28 -6t8 -21q0 -25 -12 -69q-6 -20 -15.5 -26.5t-31.5 -6.5h-86l-512 -580l299 -608h92q35 0 35 -27
q0 -25 -12 -69q-4 -20 -14.5 -26.5t-32.5 -6.5z" />
    <glyph glyph-name="Y" unicode="Y" horiz-adv-x="1329" 
d="M1436 1317h-93l-569 -684l-108 -504h118q35 0 35 -27q0 -25 -12 -69q-4 -20 -14.5 -26.5t-32.5 -6.5h-381q-35 0 -35 27q0 20 12 69q6 19 17 26t33 7h106l109 500l-281 688h-98q-37 0 -37 26q0 13 14 70q9 33 47 33h371q20 0 28.5 -6t8.5 -21q0 -27 -12 -69
q-6 -20 -16 -26.5t-32 -6.5h-104q133 -331 211 -543q154 209 436 543h-98q-35 0 -35 26q0 21 12 70q9 33 47 33h377q37 0 37 -27t-12 -69q-6 -20 -16.5 -26.5t-32.5 -6.5z" />
    <glyph glyph-name="Z" unicode="Z" horiz-adv-x="1234" 
d="M1055 0h-1018q-39 0 -39 35q0 11 6 45q10 33 35 61q343 387 589 666t328 373t121 137h-667l-37 -150q-8 -32 -39 -32h-64q-32 0 -32 30q0 16 43 232q5 24 17.5 36.5t41.5 12.5h915q43 0 43 -33q0 -3 -6 -43q-8 -43 -39 -78q-885 -1003 -1030 -1163h756l37 154q9 39 45 39
h59q31 0 31 -31q0 -19 -41 -242q-5 -25 -16 -37t-39 -12z" />
    <glyph glyph-name="bracketleft" unicode="[" horiz-adv-x="579" 
d="M356 -287h-309q-24 0 -24 25q0 13 4 29l362 1710q7 32 37 32h313q23 0 23 -20q0 -16 -8 -47q-3 -23 -35 -23h-211l-342 -1616h211q22 0 22 -20q0 -7 -8 -47q-5 -23 -35 -23z" />
    <glyph glyph-name="backslash" unicode="\" horiz-adv-x="854" 
d="M760 -139q8 -28 8 -37q0 -11 -9 -20t-26 -9h-39q-19 0 -29 8.5t-16 28.5l-430 1624q-10 45 -10 49q0 15 10 24t27 9h43q16 0 24.5 -11t14.5 -38z" />
    <glyph glyph-name="bracketright" unicode="]" horiz-adv-x="579" 
d="M295 1509h309q11 0 18 -7t7 -17q0 -5 -6 -29l-363 -1710q-2 -14 -12 -23.5t-23 -9.5h-313q-25 0 -25 19q0 2 9 47q3 22 34 22h213l342 1618h-211q-24 0 -24 19q0 13 8 49q5 22 37 22z" />
    <glyph glyph-name="asciicircum" unicode="^" horiz-adv-x="1449" 
d="M1214 637q5 -25 5 -29q0 -33 -35 -33h-51q-32 0 -41 35l-164 631l-447 -639q-20 -27 -47 -27h-61q-15 0 -24 8t-9 19q0 16 8 27l510 725q22 28 53 28h72q36 0 45 -34z" />
    <glyph glyph-name="underscore" unicode="_" horiz-adv-x="1009" 
d="M-76 -160h1010v-112h-1010v112z" />
    <glyph glyph-name="grave" unicode="`" horiz-adv-x="403" 
d="M246 1212l-226 265q-16 20 -16 36q0 25 31 25h108q28 0 50 -31l194 -264q12 -18 12 -33q0 -22 -28 -22h-72q-32 0 -53 24z" />
    <glyph glyph-name="a" unicode="a" horiz-adv-x="1198" 
d="M975 0h-201q-39 0 -39 35q0 7 6 55q-105 -115 -331 -115q-314 0 -314 314q0 167 61.5 349.5t174.5 279.5q126 110 370 110q163 0 234 -53q9 27 18.5 36t28.5 9h55q35 0 35 -29q0 -21 -6 -45l-178 -819h110q35 0 35 -27q0 -5 -12 -67q-4 -20 -14.5 -26.5t-32.5 -6.5z
M776 266l125 592q-30 19 -87.5 31t-121.5 12q-175 0 -268 -84q-81 -71 -127.5 -214t-46.5 -281q0 -112 51 -165t168 -53q155 0 248 74q30 24 39 41q14 22 20 47z" />
    <glyph glyph-name="b" unicode="b" horiz-adv-x="1146" 
d="M229 57l-12 -34q-6 -15 -15.5 -21t-29.5 -6h-51q-31 0 -31 29q0 7 8 43l285 1337h-104q-33 0 -33 27q0 2 12 67q9 33 47 33h205q37 0 37 -27q0 -1 -8 -51l-115 -543q50 63 139.5 93t196.5 30q309 0 309 -305q0 -141 -45 -312.5t-127 -271.5q-72 -89 -172.5 -122
t-249.5 -33q-67 0 -141 19.5t-105 47.5zM264 170q22 -20 88 -37.5t123 -17.5q115 0 187 25.5t122 84.5q61 72 97.5 217t36.5 254q0 102 -53.5 153.5t-172.5 51.5q-142 0 -250 -65q-24 -15 -39 -45q-10 -19 -16 -48z" />
    <glyph glyph-name="c" unicode="c" horiz-adv-x="933" 
d="M784 905q-58 10 -131 10q-164 0 -252 -94q-72 -77 -111.5 -224.5t-39.5 -262.5q0 -232 242 -232q113 0 215 31q40 12 53 12q17 0 24 -20q15 -60 15 -64q0 -16 -9.5 -25.5t-31.5 -17.5q-129 -45 -297 -45q-365 0 -365 330q0 147 48 322.5t145 277.5q132 141 393 141
q146 0 219 -24q33 -9 33 -39q0 -14 -37 -223q-5 -35 -41 -35h-55q-33 0 -33 27q0 14 16 155z" />
    <glyph glyph-name="d" unicode="d" horiz-adv-x="1169" 
d="M979 0h-207q-37 0 -37 27q0 7 2.5 30t3.5 33q-104 -115 -331 -115q-314 0 -314 314q0 163 59.5 349t170.5 280q129 110 379 110q144 0 221 -41l92 418h-105q-32 0 -32 27q0 12 10 67q5 33 49 33h199q23 0 32 -7t9 -26q0 -15 -6 -45l-285 -1327h112q20 0 28.5 -5.5
t8.5 -19.5q0 -22 -12 -71q-4 -19 -14 -25t-33 -6zM776 266l125 596q-28 17 -87.5 29t-123.5 12q-169 0 -268 -86q-80 -71 -126 -214t-46 -281q0 -111 51.5 -164.5t167.5 -53.5q75 0 131.5 16.5t114.5 55.5q26 20 41 43q14 24 20 47z" />
    <glyph glyph-name="e" unicode="e" horiz-adv-x="1042" 
d="M258 467q-12 -64 -12 -127q0 -136 65 -186t213 -50q129 0 260 43q43 13 50 13q16 0 26 -21q17 -42 17 -67q0 -30 -39 -43q-137 -56 -357 -56q-209 0 -297 86.5t-88 266.5q0 85 18.5 186t66 214.5t116.5 182.5q129 129 365 129q176 0 252.5 -70t76.5 -204q0 -81 -24 -225
q-8 -49 -27 -62q-12 -10 -47 -10h-635zM279 588h550q23 98 23 160q0 84 -46 125.5t-165 41.5q-149 0 -221 -61q-91 -75 -141 -266z" />
    <glyph glyph-name="f" unicode="f" horiz-adv-x="663" 
d="M442 0h-397q-37 0 -37 27q0 5 15 67q4 19 14.5 26t32.5 7h96l162 754h-105q-33 0 -33 24q0 19 11 68q5 20 15 28.5t32 8.5h106l39 176q25 118 56 184t81 105q92 75 256 75q86 0 129 -16q19 -6 19 -29q0 -21 -16 -67q-8 -25 -35 -25q-4 0 -44 4t-69 4q-109 0 -160 -57
q-45 -53 -75 -193l-33 -161h184q33 0 33 -31q0 -30 -12 -70q-8 -28 -45 -28h-189l-162 -754h154q37 0 37 -27q0 -19 -13 -67q-4 -20 -14.5 -26.5t-32.5 -6.5z" />
    <glyph glyph-name="g" unicode="g" horiz-adv-x="1021" 
d="M147 31q-60 20 -86 57t-26 100q0 91 44.5 158.5t129.5 95.5q-47 57 -47 160q0 268 186 377q103 57 273 57q105 0 176 -26h270q37 0 37 -31q0 -30 -6 -61q-8 -37 -49 -37h-140q39 -51 39 -125q0 -94 -30 -180.5t-91 -143.5q-111 -100 -321 -100q-99 0 -166 26
q-47 15 -57 15q-27 0 -52 -19q-26 -18 -41.5 -54.5t-15.5 -72.5q0 -67 47 -82q47 -12 301 -12q229 0 321.5 -49.5t92.5 -179.5q0 -120 -36.5 -201.5t-110 -127t-169.5 -64.5t-231 -19q-101 0 -178.5 16t-122.5 41.5t-73.5 61.5t-38 70t-9.5 73q0 104 43 171t137 106z
M786 -139q0 68 -55 102t-199 37q-86 2 -182 2q-65 0 -92 -10q-147 -52 -147 -203q0 -172 297 -172q46 0 80 1.5t76 7t71.5 16t60 28.5t49 43.5t30 63t11.5 84.5zM813 752q0 92 -54 127.5t-163 35.5q-112 0 -170 -32q-63 -34 -93 -106.5t-30 -158.5q0 -51 17 -85.5
t49.5 -51.5t68.5 -23.5t84 -6.5q143 0 213 65q78 75 78 236z" />
    <glyph glyph-name="h" unicode="h" horiz-adv-x="1224" 
d="M377 0h-359q-34 0 -34 27q0 14 12 67q4 19 14.5 26t32.5 7h96l273 1278h-101q-35 0 -35 27q0 11 13 67q9 33 49 33h201q39 0 39 -29q0 -5 -7 -45l-118 -549q41 66 143.5 95.5t210.5 29.5q53 0 96.5 -8t81 -27t59 -53.5t21.5 -83.5q0 -59 -23 -174l-120 -561h104
q39 0 39 -25q0 -27 -12 -71q-6 -19 -15.5 -25t-31.5 -6h-211q-37 0 -37 31q0 5 6 41l131 610q14 69 14 119q0 57 -39 78.5t-122 21.5q-156 0 -261 -59q-29 -15 -47 -43q-11 -14 -20 -56l-133 -616h112q37 0 37 -27q0 -23 -12 -67q-4 -19 -15 -26t-32 -7z" />
    <glyph glyph-name="i" unicode="i" horiz-adv-x="620" 
d="M401 0h-356q-37 0 -37 27q0 12 15 67q4 19 14.5 26t32.5 7h96l162 754h-105q-35 0 -35 26q0 4 1.5 11t5 23.5t6.5 33.5q8 35 49 35h209q35 0 35 -31q0 -2 -7 -37l-174 -815h111q20 0 28.5 -6t8.5 -21q0 -23 -12 -67q-6 -20 -16 -26.5t-32 -6.5zM567 1386q0 -78 -39 -112
q-29 -23 -75 -23q-91 0 -91 76q0 77 35 109q32 26 82 26q43 0 65.5 -16.5t22.5 -59.5z" />
    <glyph glyph-name="j" unicode="j" horiz-adv-x="548" 
d="M209 -162q-22 -106 -50 -166.5t-73 -97.5q-101 -84 -305 -84q-51 0 -51 35q0 23 12 63q4 19 16 26t37 7q125 0 182 41q60 45 86 172l226 1047h-107q-35 0 -35 26q0 4 1.5 11t5 22.5t6.5 32.5q9 37 49 37h207q35 0 35 -29q0 -15 -5 -35zM524 1386q0 -78 -39 -112
q-29 -23 -75 -23q-91 0 -91 76q0 77 35 109q33 26 82 26q43 0 65.5 -16.5t22.5 -59.5z" />
    <glyph glyph-name="k" unicode="k" horiz-adv-x="1079" 
d="M375 0h-357q-36 0 -36 27q0 7 14 67q4 19 14.5 26t32.5 7h96l273 1278h-103q-35 0 -35 25q0 13 13 69q9 33 47 33h205q19 0 27.5 -7.5t8.5 -25.5q0 -13 -4 -33l-178 -837h101q68 0 98 35l194 217h-59q-33 0 -33 26q0 12 13 68q8 35 47 35h329q35 0 35 -29q0 -24 -12 -68
q-4 -19 -14 -25.5t-31 -6.5h-113q-96 -105 -176.5 -194t-105.5 -116q1 -2 62.5 -137t127.5 -262q13 -28 29.5 -36.5t54.5 -8.5h57q35 0 35 -27q0 -22 -12 -69q-5 -31 -45 -31h-121q-53 0 -82 22t-49 64l-170 381q-10 22 -26 28.5t-46 6.5h-112l-82 -375h112q37 0 37 -27
q0 -12 -12 -67q-6 -20 -16.5 -26.5t-32.5 -6.5z" />
    <glyph glyph-name="l" unicode="l" horiz-adv-x="575" 
d="M381 0h-358q-35 0 -35 27q0 15 12 67q8 33 49 33h94l277 1278h-105q-34 0 -34 27q0 20 12 67q8 33 49 33h209q17 0 24 -7t7 -24q0 -13 -9 -49l-282 -1325h112q37 0 37 -27q0 -18 -12 -67q-4 -20 -14.5 -26.5t-32.5 -6.5z" />
    <glyph glyph-name="m" unicode="m" horiz-adv-x="1863" 
d="M401 0h-356q-37 0 -37 27q0 3 15 67q4 19 14.5 26t32.5 7h96l162 754h-107q-35 0 -35 26q0 1 13 68q5 19 14.5 27t30.5 8h209q20 0 28 -7t8 -24q0 -5 -14 -76q38 66 140 98.5t210 32.5q89 0 161.5 -31.5t86.5 -97.5q46 61 152 95t209 34q270 0 270 -168q0 -65 -21 -170
l-124 -569h108q35 0 35 -27q0 -20 -12 -67q-4 -20 -14.5 -26.5t-33.5 -6.5h-215q-32 0 -32 25q0 14 6 38l133 619q14 60 14 117q0 102 -157 102q-162 0 -254 -57q-25 -14 -47 -47q-10 -21 -27 -92l-125 -578h106q35 0 35 -27q0 -12 -12 -67q-4 -20 -14.5 -26.5t-32.5 -6.5
h-211q-35 0 -35 29q0 12 6 39l131 614q19 84 19 121q0 30 -13.5 50.5t-38 30.5t-50.5 13.5t-60 3.5q-137 0 -254 -57q-16 -8 -41 -33q-16 -16 -24 -55l-138 -629h113q37 0 37 -27q0 -23 -12 -67q-4 -20 -14.5 -26.5t-33.5 -6.5z" />
    <glyph glyph-name="n" unicode="n" horiz-adv-x="1249" 
d="M401 0h-356q-37 0 -37 27q0 11 15 65q8 35 47 35h96l162 754h-105q-35 0 -35 26q0 4 1.5 11t5 23.5t6.5 33.5q8 35 49 35h201q21 0 28.5 -7.5t7.5 -25.5q0 -27 -12 -74q36 67 141.5 99t217.5 32q53 0 96 -8t80.5 -27t58.5 -53.5t21 -83.5q0 -69 -21 -174l-123 -561h107
q20 0 28.5 -5.5t8.5 -19.5q0 -20 -13 -71q-4 -19 -13.5 -25t-31.5 -6h-215q-33 0 -33 29q0 6 4 30l134 623q14 69 14 119q0 56 -40.5 78t-117.5 22q-153 0 -260 -55q-28 -14 -47 -39q-18 -22 -27 -64l-133 -616h113q20 0 28.5 -6t8.5 -21q0 -23 -12 -67q-4 -20 -14.5 -26.5
t-33.5 -6.5z" />
    <glyph glyph-name="o" unicode="o" horiz-adv-x="1116" 
d="M1040 729q0 -125 -42.5 -307t-118.5 -289q-113 -160 -385 -160q-71 0 -126.5 8t-108.5 29.5t-87.5 57.5t-55 95.5t-20.5 139.5q0 140 50 318.5t139 279.5q124 137 358 137q72 0 124 -5.5t107 -24t88.5 -51t55.5 -90.5t22 -138zM891 705q0 64 -19 105.5t-57.5 62t-82 27.5
t-107.5 7q-156 0 -236 -98q-63 -79 -101 -237.5t-38 -256.5q0 -123 62.5 -168t197.5 -45q184 0 260 125q49 81 85 238.5t36 239.5z" />
    <glyph glyph-name="p" unicode="p" horiz-adv-x="1173" 
d="M293 -500h-375q-37 0 -37 27q0 5 15 67q4 19 14.5 26t32.5 7h90l268 1254h-102q-35 0 -35 26q0 1 12 66q9 37 49 37h195q39 0 39 -29q0 -39 -10 -72q48 62 136.5 93.5t200.5 31.5q312 0 312 -305q0 -137 -42 -301t-120 -266q-75 -97 -174.5 -134.5t-251.5 -37.5
q-74 0 -146 17t-94 40l-92 -420h137q37 0 37 -26q0 -16 -14 -68q-4 -20 -13.5 -26.5t-31.5 -6.5zM293 168q25 -19 89.5 -36t121.5 -17q117 0 189.5 26.5t121.5 87.5q60 74 94.5 214t34.5 253q0 102 -54.5 153.5t-174.5 51.5q-142 0 -240 -61q-26 -18 -37 -39
q-13 -27 -20 -60z" />
    <glyph glyph-name="q" unicode="q" horiz-adv-x="1153" 
d="M856 -500h-377q-33 0 -33 27q0 4 1.5 11t5 22.5t6.5 31.5q8 35 47 35h131l96 451q-61 -56 -137.5 -79.5t-183.5 -23.5q-316 0 -316 312q0 159 56.5 341t162.5 281q131 123 387 123q73 0 139 -14t95 -39l8 25q7 19 17 24.5t32 5.5h49q35 0 35 -24q0 -7 -4 -27l-289 -1356
h95q19 0 27.5 -5.5t8.5 -20.5q0 -21 -12 -68q-4 -20 -14.5 -26.5t-32.5 -6.5zM776 272l125 590q-27 17 -87.5 29t-125.5 12q-175 0 -270 -92q-79 -74 -123.5 -216t-44.5 -276q0 -109 52 -162t169 -53q152 0 244 70q25 19 37 37q19 30 24 61z" />
    <glyph glyph-name="r" unicode="r" horiz-adv-x="806" 
d="M442 0h-397q-37 0 -37 27q0 3 15 67q4 19 14.5 26t32.5 7h96l162 754h-105q-35 0 -35 26q0 4 1.5 11t5 23.5t6.5 33.5q8 35 49 35h203q34 0 34 -31q0 -23 -12 -76q27 57 116 94t185 37q39 0 62 -6q22 -6 22 -33q0 -8 -6.5 -44.5t-11.5 -49.5q-9 -24 -39 -24q-4 0 -37 2
t-53 2q-128 0 -199 -43q-35 -19 -47 -47q-18 -33 -27 -72l-129 -592h154q37 0 37 -27q0 -14 -13 -67q-6 -20 -15.5 -26.5t-31.5 -6.5z" />
    <glyph glyph-name="s" unicode="s" horiz-adv-x="862" 
d="M37 66v196q0 41 43 41h45q20 0 28.5 -7.5t10.5 -25.5l10 -143q80 -29 182 -29q154 0 209 58q45 51 45 118q0 24 -4 40.5t-18 36t-46 37.5t-83 36l-129 47q-90 33 -139.5 90.5t-49.5 134.5q0 168 117 260q100 78 311 78q113 0 226 -26q32 -10 32 -43q0 -27 -20 -209
q-3 -33 -43 -33h-53q-29 0 -29 33q0 45 6 139q-69 14 -145 14q-142 0 -191 -41q-61 -49 -61 -143q0 -43 32.5 -75.5t116.5 -63.5l123 -45q195 -70 195 -230q0 -149 -92 -241q-50 -50 -128 -73.5t-200 -23.5q-71 0 -146.5 12t-123.5 33q-31 14 -31 48z" />
    <glyph glyph-name="t" unicode="t" horiz-adv-x="634" 
d="M442 881l-127 -590q-14 -72 -14 -105q0 -40 25.5 -57.5t76.5 -17.5q29 0 66.5 6t40.5 6q11 0 19.5 -7.5t9.5 -17.5q4 -36 4 -61q0 -29 -47 -39q-75 -16 -166 -16q-183 0 -183 163q0 48 17 131l133 605h-113q-30 0 -30 24q0 19 12 68q10 37 43 37h113q51 214 57 235
q13 47 45 47h59q33 0 33 -28q0 -9 -4 -37l-45 -217h192q37 0 37 -29q0 -15 -12 -70q-4 -19 -15 -24.5t-32 -5.5h-195z" />
    <glyph glyph-name="u" unicode="u" horiz-adv-x="1249" 
d="M1014 0h-203q-41 0 -41 35q0 13 8 53q-118 -113 -336 -113q-53 0 -98.5 9t-87 29t-65 58.5t-23.5 92.5q0 59 22 166l119 551h-100q-35 0 -35 26q0 16 12 68q8 35 50 35h206q33 0 33 -29q0 -1 -6 -37l-129 -608q-16 -82 -16 -115q0 -115 184 -115q145 0 237 62
q33 21 48 43q16 24 24 63l131 607h-102q-33 0 -33 26q0 16 12 68q8 35 47 35h205q35 0 35 -31q0 -15 -4 -35l-178 -817h108q37 0 37 -27q0 -20 -12 -67q-4 -19 -15 -26t-34 -7z" />
    <glyph glyph-name="v" unicode="v" horiz-adv-x="1056" 
d="M1071 881h-55l-516 -846q-13 -22 -25 -29.5t-31 -7.5h-59q-42 0 -45 37l-158 846h-61q-35 0 -35 26q0 16 12 68q8 35 49 35h316q35 0 35 -29q0 -25 -11 -68q-8 -32 -49 -32h-106q60 -347 119 -699q48 91 76 143t109.5 192t215.5 364h-102q-35 0 -35 26q0 19 12 68
q8 35 49 35h318q36 0 36 -29q0 -25 -12 -68q-6 -20 -15.5 -26t-31.5 -6z" />
    <glyph glyph-name="w" unicode="w" horiz-adv-x="1611" 
d="M1620 881h-66l-434 -846q-19 -39 -55 -39h-66q-20 0 -29 9.5t-12 31.5q-66 487 -96 747q-80 -157 -411 -749q-22 -39 -56 -39h-61q-40 0 -43 43l-76 842h-82q-35 0 -35 26q0 23 13 68q8 35 49 35h317q37 0 37 -29q0 -21 -12 -68q-4 -18 -15.5 -25t-33.5 -7h-93
q52 -652 54 -680q122 232 393 721q15 28 28.5 40.5t36.5 12.5h52q34 0 41 -55q86 -564 102 -719q171 365 328 680h-97q-32 0 -32 26q0 16 12 68q8 35 47 35h320q36 0 36 -29q0 -21 -12 -68q-4 -19 -15 -25.5t-34 -6.5z" />
    <glyph glyph-name="x" unicode="x" horiz-adv-x="1097" 
d="M928 0h-342q-35 0 -35 27q0 25 12 67q8 33 49 33h101q-54 101 -107 201t-63 118q-111 -121 -299 -319h112q19 0 26 -6t7 -21q0 -12 -12 -67q-4 -20 -14.5 -26.5t-32.5 -6.5h-340q-37 0 -37 27q0 15 14 67q8 33 49 33h66l387 403l-190 351h-80q-33 0 -33 26q0 16 12 68
q8 35 47 35h310q36 0 36 -29q0 -24 -12 -68q-4 -19 -14.5 -25.5t-32.5 -6.5h-78q43 -79 89.5 -169.5t58.5 -111.5q57 68 260 281h-74q-35 0 -35 26q0 16 12 68q8 35 50 35h305q37 0 37 -29q0 -20 -13 -68q-6 -20 -15.5 -26t-31.5 -6h-71l-351 -367l213 -387h84q35 0 35 -27
q0 -23 -12 -67q-4 -20 -14.5 -26.5t-32.5 -6.5z" />
    <glyph glyph-name="y" unicode="y" horiz-adv-x="1058" 
d="M1077 881h-59l-563 -928q-7 -11 -38 -62t-41 -67t-36 -56.5t-40 -60.5t-34 -46.5t-37 -45.5q-108 -127 -284 -127q-74 0 -101 8q-30 9 -30 33q0 42 18 78q10 18 35 18q4 0 35 -3t51 -3q54 0 95.5 17.5t80.5 62.5q62 74 190 287l23 37l-156 858h-67q-35 0 -35 26
q0 28 12 68q11 35 49 35h320q37 0 37 -29q0 -20 -13 -68q-6 -20 -15.5 -26t-33.5 -6h-110q109 -636 119 -699q20 35 72.5 127.5t131.5 226.5t207 345h-104q-35 0 -35 26q0 16 12 68q8 35 47 35h320q37 0 37 -29q0 -23 -13 -68q-6 -19 -16 -25.5t-31 -6.5z" />
    <glyph glyph-name="z" unicode="z" horiz-adv-x="958" 
d="M770 0h-758q-28 0 -28 27q0 14 8 45q6 26 33 53l708 756h-432l-35 -129q-4 -18 -13 -24.5t-28 -6.5h-55q-33 0 -33 27q0 9 39 217q5 25 16.5 35t36.5 10h695q34 0 34 -29q0 -18 -4 -43q-7 -30 -43 -66l-698 -745h481l43 137q6 20 15 26.5t30 6.5h52q30 0 30 -27
q0 -25 -45 -227q-5 -24 -14.5 -33.5t-34.5 -9.5z" />
    <glyph glyph-name="braceleft" unicode="{" horiz-adv-x="641" 
d="M240 612q63 -17 97 -56t34 -118q0 -42 -17 -119l-63 -305q-15 -65 -15 -110q0 -44 23 -70q14 -15 39.5 -24t46.5 -11.5t61 -5.5q23 -3 23 -26q0 -25 -6 -43q-9 -25 -37 -25q-170 4 -229 51q-58 45 -58 129q0 53 19 137l61 295q17 83 17 119q0 65 -32 98.5t-98 44.5
q-24 3 -24 25q0 19 6 37q7 32 35 37q100 17 150.5 70.5t74.5 172.5l60 279q38 179 96 240q48 51 120 70.5t183 19.5q31 0 31 -27q0 -17 -7 -41q-8 -29 -36 -29q-144 0 -195 -67q-30 -37 -55 -154l-66 -295q-16 -76 -39 -128t-55 -85t-64.5 -51.5t-80.5 -34.5z" />
    <glyph glyph-name="bar" unicode="|" horiz-adv-x="456" 
d="M141 -262q-5 -22 -14.5 -32.5t-32.5 -10.5h-51q-33 0 -33 29q0 6 6 36l373 1747q5 22 14.5 32.5t30.5 10.5h53q33 0 33 -26q0 -5 -6 -35z" />
    <glyph glyph-name="braceright" unicode="}" horiz-adv-x="679" 
d="M481 610q-65 17 -99 55.5t-34 116.5q0 41 17 121l63 303q14 63 14 111q0 44 -22 69q-38 40 -146 44q-26 0 -26 24q0 22 8 43q10 27 37 27q84 -2 140 -12t91 -39q56 -46 56 -132q0 -48 -17 -135l-63 -297q-15 -71 -15 -116q0 -67 31 -102t96 -44q25 -3 25 -22t-4 -39
q-10 -30 -35 -35q-99 -17 -149 -71t-76 -175l-60 -276q-40 -175 -98 -238q-48 -53 -119.5 -72.5t-183.5 -19.5q-29 0 -29 27q0 17 6 41q5 26 37 26q139 0 193 68q32 43 57 157l64 291q16 76 39 128.5t55.5 85.5t65 51.5t81.5 35.5z" />
    <glyph glyph-name="asciitilde" unicode="~" horiz-adv-x="1435" 
d="M324 506q-18 -21 -33 -21q-19 0 -45 23q-19 19 -19 39q0 15 13 28q84 96 155 136.5t148 40.5q48 0 98.5 -19.5t142.5 -75.5q115 -69 195 -69q58 0 106 28.5t105 100.5q18 22 35 22q14 0 35 -14q20 -15 26 -24t6 -21q0 -14 -10 -31q-68 -92 -140 -138t-165 -46
q-104 0 -236 80q-137 82 -204 82q-54 0 -103.5 -28t-109.5 -93z" />
    <glyph glyph-name="exclamdown" unicode="&#xa1;" horiz-adv-x="581" 
d="M209 526q9 45 47 45h47q39 0 39 -32q0 -5 -6 -41l-172 -873q-12 -55 -58 -55h-69q-22 0 -31.5 9t-9.5 30q0 17 98 430q66 281 115 487zM250 899q0 71 41 109q24 24 74 24q88 0 88 -78q0 -62 -37 -102q-27 -31 -80 -31q-86 0 -86 78z" />
    <glyph glyph-name="cent" unicode="&#xa2;" horiz-adv-x="999" 
d="M492 -152q-7 -41 -41 -41h-27q-31 0 -31 25q0 9 4 29l29 135q-146 9 -222.5 83.5t-76.5 229.5q0 89 19 194.5t67 222t117 185.5q114 114 319 129l31 142q3 19 11.5 29t27.5 10h29q28 0 28 -23q0 -7 -6 -37l-27 -119q137 -3 213 -24q31 -9 31 -41q0 -44 -37 -215
q-8 -33 -43 -33h-43q-33 0 -33 27q0 2 0.5 6t1.5 14t2.5 23.5l4.5 40.5t6 59q-40 8 -129 12l-168 -788q110 3 203 31q40 12 51 12q19 0 26 -21q13 -35 13 -59q0 -26 -41 -41q-118 -45 -279 -49zM283 338q0 -94 39 -147t131 -66l168 782q-116 -14 -189 -90
q-70 -76 -109.5 -223t-39.5 -256z" />
    <glyph glyph-name="sterling" unicode="&#xa3;" horiz-adv-x="1167" 
d="M1008 0h-877q-35 0 -35 25t10 63q8 27 31 37q59 29 104 59t89.5 72.5t69 97.5t24.5 119q0 63 -6 115h-176q-33 0 -33 22q0 20 8 56q4 20 13.5 26t29.5 6h146q-13 128 -13 213q0 236 133.5 368t397.5 132q167 0 276 -35q25 -6 25 -35q0 -28 -29 -223q-5 -33 -39 -33h-59
q-33 0 -33 31q0 23 10 146q-78 20 -172 20q-350 -3 -350 -367q0 -135 10 -217h414q14 0 20.5 -1t11.5 -7t5 -18q0 -13 -10 -58q-5 -26 -43 -26h-392q6 -46 6 -90q0 -122 -57.5 -208.5t-181.5 -154.5h694q20 0 28.5 -6t8.5 -23q0 -16 -12 -75q-7 -31 -47 -31z" />
    <glyph glyph-name="currency" unicode="&#xa4;" horiz-adv-x="1107" 
d="M1014 252q-14 -14 -29 -14t-29 14l-106 102q-102 -75 -242 -75q-137 0 -243 75l-99 -102q-16 -16 -30 -16t-31 14l-19 18q-14 17 -14 29q0 15 14 33l107 106q-80 104 -80 244q0 133 80 242l-107 104q-14 11 -14 31q0 14 16 30l17 17q13 16 28 16q13 0 29 -16l105 -105
q104 82 241 82q141 0 240 -80l104 103q16 16 31 16q16 0 29 -16l16 -17q14 -14 14 -28q0 -17 -16 -33l-104 -102q82 -102 82 -244q0 -138 -82 -244l110 -106q12 -10 12 -31q0 -12 -14 -31zM893 680q0 128 -80.5 209.5t-204.5 81.5q-122 0 -204 -82t-82 -207q0 -131 81 -213
t205 -82t204.5 81.5t80.5 211.5z" />
    <glyph glyph-name="yen" unicode="&#xa5;" horiz-adv-x="1212" 
d="M686 0h-381q-35 0 -35 27q0 16 13 69q8 33 49 33h106l64 299h-293q-31 0 -31 23t6 41q6 19 15 24.5t30 5.5h295l17 76l-41 100h-240q-33 0 -33 23q0 22 9 43q4 19 13.5 25t31.5 6h180l-195 460h-90q-35 0 -35 27q0 17 13 70q8 32 47 32h372q37 0 37 -26q0 -14 -12 -70
q-6 -20 -16.5 -26.5t-32.5 -6.5h-113q168 -412 203 -512q116 151 422 512h-115q-35 0 -35 27q0 17 13 70q8 32 47 32h377q19 0 27.5 -5.5t8.5 -20.5q0 -26 -12 -70q-4 -20 -14.5 -26.5t-32.5 -6.5h-84l-393 -460h192q33 0 33 -25q0 -23 -6 -43q-8 -29 -41 -29h-254l-84 -96
l-16 -80h317q33 0 33 -22q0 -14 -6 -39q-7 -33 -45 -33h-320l-63 -299h123q37 0 37 -27q0 -14 -15 -69q-4 -20 -14.5 -26.5t-32.5 -6.5z" />
    <glyph glyph-name="brokenbar" unicode="&#xa6;" horiz-adv-x="456" 
d="M385 885q-10 -43 -47 -43h-51q-18 0 -24.5 7t-6.5 21q0 15 4 35l113 522q7 43 45 43h53q33 0 33 -26q0 -7 -6 -37zM197 6q-5 -22 -15 -32.5t-32 -10.5h-52q-18 0 -24 7t-6 22t4 35l112 522q7 43 45 43h54q32 0 32 -27q0 -7 -6 -37z" />
    <glyph glyph-name="section" unicode="&#xa7;" horiz-adv-x="1005" 
d="M700 231q43 -35 63.5 -80.5t20.5 -113.5q0 -72 -21.5 -134t-69 -116t-135.5 -85.5t-208 -31.5q-183 0 -295 56q-41 21 -41 53q0 75 17 219q1 15 12.5 25t26.5 10h51q15 0 25 -9t10 -24v-158q53 -25 100.5 -34t116.5 -9q127 0 191.5 57.5t64.5 163.5q0 59 -43 103.5
t-166 114.5l-80 47q-114 65 -161.5 133t-47.5 149q0 76 25.5 135t68.5 93.5t90 53.5t99 25q-37 25 -60.5 75.5t-23.5 103.5q0 44 8 87.5t34 96t67.5 91t116.5 65t173 26.5q159 0 252 -41q37 -13 37 -49q0 -12 -23 -221q-5 -33 -39 -33h-51q-35 0 -35 31q0 53 2 162
q-77 22 -167 22q-121 0 -174.5 -59.5t-53.5 -151.5q0 -52 36 -98.5t130 -103.5l68 -41q136 -84 188.5 -147t52.5 -144q0 -251 -252 -314zM805 502q0 57 -25 96t-88 80q-81 55 -162 96q-25 14 -51 14q-32 0 -59 -8q-146 -39 -146 -184q0 -49 24 -88.5t89 -79.5
q84 -54 193 -106q18 -11 38 -11q27 0 56 13q131 56 131 178z" />
    <glyph glyph-name="dieresis" unicode="&#xa8;" horiz-adv-x="403" 
d="M113 1382q0 -70 -35 -100q-25 -25 -72 -25q-82 0 -82 72q0 65 33 98q30 27 76 27q80 0 80 -72zM475 1382q0 -70 -35 -100q-25 -25 -71 -25q-82 0 -82 72q0 68 32 98q30 27 76 27q80 0 80 -72z" />
    <glyph glyph-name="copyright" unicode="&#xa9;" horiz-adv-x="1699" 
d="M1628 707q0 -208 -89 -375t-255.5 -264t-382.5 -97q-162 0 -299 56.5t-230 155t-145.5 234t-52.5 290.5q0 208 89.5 375.5t255.5 264.5t380 97q221 0 388.5 -97t254 -263.5t86.5 -376.5zM1550 707q0 189 -78.5 339t-228 237t-344.5 87q-193 0 -341.5 -87t-227 -237.5
t-78.5 -338.5t78 -337.5t227 -237t344 -87.5q194 0 343 87t227.5 237t78.5 338zM1108 1044q-83 9 -117 9q-170 0 -250 -99q-114 -139 -114 -362q0 -104 56 -168t171 -64q119 0 199 29q33 10 45 10q18 0 24 -22q13 -39 13 -55q0 -21 -39 -33q-122 -43 -271 -43t-240 88
t-91 248q0 107 34 227.5t109 208.5q122 145 375 145q106 0 196 -20q27 -7 27 -37q0 -14 -27 -180q-3 -31 -34 -31h-50q-26 0 -26 29q0 10 10 120z" />
    <glyph glyph-name="ordfeminine" unicode="&#xaa;" horiz-adv-x="780" 
d="M530 600q-37 -37 -83.5 -55.5t-118.5 -18.5q-197 0 -197 191q0 102 36.5 214.5t106.5 170.5q80 67 236 67q93 0 143 -32q6 26 31 26h53q27 0 27 -20q0 -1 -6 -31l-107 -481h68q18 0 25.5 -4t7.5 -17q0 -8 -9 -49q-3 -13 -9 -17.5t-23 -4.5h-160q-27 0 -27 20
q0 6 2.5 20.5t3.5 20.5zM557 731l70 316q-31 22 -117 22q-108 0 -156 -45q-45 -41 -71.5 -123.5t-26.5 -159.5q0 -61 29 -88.5t94 -27.5q80 0 139 47q21 16 25 24q12 23 14 35z" />
    <glyph glyph-name="guillemotleft" unicode="&#xab;" horiz-adv-x="980" 
d="M250 543l186 -342q15 -27 15 -41q0 -9 -9.5 -17t-21.5 -8h-51q-19 0 -29.5 9.5t-24.5 33.5l-188 324q-14 24 -14 45q0 28 24 49l326 311q18 16 27 23.5t22.5 13.5t28.5 6h57q25 0 25 -22q0 -19 -33 -49zM633 543l188 -342q15 -27 15 -41q0 -9 -10 -17t-23 -8h-49
q-20 0 -31 9.5t-25 33.5l-188 324q-14 25 -14 45q0 22 24 49l328 311q18 16 27 23.5t22 13.5t27 6h57q27 0 27 -22q0 -18 -35 -49z" />
    <glyph glyph-name="logicalnot" unicode="&#xac;" horiz-adv-x="1435" 
d="M1188 106q-3 -34 -41 -34h-43q-35 0 -35 28q0 11 6 35l88 408h-905q-17 0 -27 10t-10 25q0 11 8 51q10 37 41 37h990q36 0 36 -35q0 -3 -6 -33z" />
    <glyph glyph-name="uni00AD" unicode="&#xad;" horiz-adv-x="673" 
d="M547 481h-402q-30 0 -30 27q0 15 14 72q5 19 14.5 26.5t30.5 7.5h397q33 0 33 -26q0 -19 -14 -76q-6 -19 -14.5 -25t-28.5 -6z" />
    <glyph glyph-name="registered" unicode="&#xae;" horiz-adv-x="1699" 
d="M1628 707q0 -208 -89 -375t-255.5 -264t-382.5 -97q-162 0 -299 56.5t-230 155t-145.5 234t-52.5 290.5q0 208 89.5 375.5t255.5 264.5t380 97q221 0 388.5 -97t254 -263.5t86.5 -376.5zM1550 707q0 189 -78.5 339t-228 237t-344.5 87q-193 0 -341.5 -87t-227 -237.5
t-78.5 -338.5t78 -337.5t227 -237t344 -87.5q194 0 343 87t227.5 237t78.5 338zM758 279h-277q-22 0 -22 22q0 10 8 49q6 29 41 29h65l144 680h-86q-25 0 -25 24q0 2 1.5 8.5t4 17.5t4.5 19q9 31 43 31h297q158 0 226 -35q43 -22 67.5 -68.5t24.5 -105.5q0 -220 -217 -282
l102 -258q10 -31 39 -31h68q26 0 26 -25q0 -1 -8 -47q-6 -28 -39 -28h-100q-71 0 -92 63l-111 305q-27 -2 -82 -2h-108l-60 -266h84q31 0 31 -25q0 -7 -10 -49q-5 -26 -39 -26zM772 745h115q107 0 151 17q54 20 84.5 65.5t30.5 102.5q0 88 -61 110q-43 19 -144 19h-110z" />
    <glyph glyph-name="macron" unicode="&#xaf;" horiz-adv-x="403" 
d="M424 1253h-467q-31 0 -31 27t13 74q5 19 13.5 25.5t29.5 6.5h462q33 0 33 -26q0 -38 -12 -76q-4 -18 -13 -24.5t-28 -6.5z" />
    <glyph glyph-name="degree" unicode="&#xb0;" horiz-adv-x="688" 
d="M791 1204q0 -141 -81.5 -225t-222.5 -84q-120 0 -191 67.5t-71 190.5q0 140 83 222.5t224 82.5q122 0 190.5 -65.5t68.5 -188.5zM694 1196q0 89 -44 134.5t-128 45.5q-92 0 -146 -56.5t-54 -168.5q0 -83 47.5 -128.5t128.5 -45.5q89 0 142.5 56.5t53.5 162.5z" />
    <glyph glyph-name="plusminus" unicode="&#xb1;" horiz-adv-x="1435" 
d="M756 305q-3 -37 -41 -37h-45q-33 0 -33 31q0 11 4 31l88 401h-430q-35 0 -35 31q0 18 8 51q6 37 41 37h439l88 412q3 18 15 31.5t28 13.5h43q18 0 26.5 -6t8.5 -23q0 -12 -5 -37l-86 -391h433q34 0 34 -33q0 -15 -8 -51q-6 -35 -41 -35h-440zM1165 0h-993q-33 0 -33 33
q0 26 8 53q9 35 41 35h994q32 0 32 -35q0 -3 -8 -49q-3 -37 -41 -37z" />
    <glyph glyph-name="twosuperior" unicode="&#xb2;" 
d="M745 860h-571q-11 0 -17.5 6.5t-6.5 14.5q0 20 8 53q9 21 22 29q265 169 416 299q59 51 91 105t32 122q0 63 -36.5 96t-125.5 33q-68 0 -147 -21q-40 -12 -48 -12q-17 0 -20 17q-10 34 -10 51q0 22 39 35q108 32 223 32q138 0 194 -54.5t56 -147.5q0 -94 -35 -165.5
t-107 -135.5q-133 -118 -358 -252q70 2 346 2l27 108q9 29 37 29h41q24 0 24 -21q0 -16 -35 -190q-5 -33 -39 -33z" />
    <glyph glyph-name="threesuperior" unicode="&#xb3;" 
d="M641 1305q145 -15 145 -160q0 -143 -79 -219q-89 -82 -293 -82q-132 0 -197 24q-27 11 -27 29q0 15 21 59q7 15 25 15q5 0 20.5 -3.5t22.5 -4.5q87 -17 149 -17q143 0 195 55q43 46 43 140q0 54 -42 80t-143 26h-28q-27 0 -27 23q0 22 8 53q10 29 35 29h33q111 0 164 43
q49 34 49 125q0 51 -35 74.5t-117 23.5q-72 0 -143 -19q-36 -12 -43 -12t-13 5.5t-8 11.5q-10 38 -10 51q0 22 41 35q107 30 213 30q131 0 183.5 -45.5t52.5 -130.5q0 -101 -45.5 -158.5t-149.5 -80.5z" />
    <glyph glyph-name="acute" unicode="&#xb4;" horiz-adv-x="403" 
d="M127 1212q-21 -24 -59 -24h-68q-14 0 -21.5 7t-7.5 17q0 16 15 31l247 268q27 27 54 27h114q31 0 31 -25q0 -14 -20 -34z" />
    <glyph glyph-name="mu" unicode="&#xb5;" horiz-adv-x="1116" 
d="M225 43l-86 -420q-5 -21 -15 -31t-32 -10h-72q-32 0 -32 27q0 1 6 43l282 1319q5 21 15 32t31 11h69q33 0 33 -27q0 -5 -6 -35l-131 -616q-19 -87 -19 -127q0 -98 181 -98q180 0 284 49q29 12 41 28q16 21 25 62l155 721q5 22 14.5 32.5t30.5 10.5h70q33 0 33 -29
q0 -7 -4 -27l-197 -921q-9 -41 -49 -41h-61q-35 0 -35 29q0 1 8 51q-108 -92 -346 -92q-152 0 -193 59z" />
    <glyph glyph-name="paragraph" unicode="&#xb6;" horiz-adv-x="1146" 
d="M487 -225q-4 -13 -7 -19.5t-11.5 -12t-22.5 -5.5h-28q-29 0 -29 24q0 9 4 25l152 702q-192 0 -282.5 93.5t-90.5 244.5q0 173 64 308t188 213q157 98 412 98h270q45 0 45 -35q0 -15 -6 -45l-340 -1591q-4 -18 -11.5 -27.5t-27.5 -9.5h-29q-26 0 -26 24q0 13 4 25
l332 1565h-226z" />
    <glyph glyph-name="periodcentered" unicode="&#xb7;" horiz-adv-x="438" 
d="M332 580q0 -71 -41 -109q-30 -27 -74 -27q-88 0 -88 78q0 63 37 103q26 30 80 30q42 0 64 -16.5t22 -58.5z" />
    <glyph glyph-name="cedilla" unicode="&#xb8;" horiz-adv-x="403" 
d="M227 -125q170 -5 170 -151q0 -118 -65 -165.5t-201 -47.5q-69 0 -106 12q-23 6 -23 28q0 17 10 52q8 26 37 26q7 0 31 -4q36 -8 67 -8q62 0 88.5 18.5t26.5 71.5q0 68 -82 68q-6 0 -24 -1t-21 -1q-33 0 -33 34q0 17 15 60l51 153h106z" />
    <glyph glyph-name="onesuperior" unicode="&#xb9;" 
d="M666 860h-365q-27 0 -27 25q0 7 11 47q5 18 13.5 24.5t29.5 6.5h112l146 620l-131 -51q-13 -8 -27 -8q-11 0 -18 14q-15 44 -15 53q0 15 23 25l188 78q23 10 45 10h45q27 0 27 -21q0 -14 -4 -30l-160 -690h121q33 0 33 -25q0 -6 -11 -49q-3 -17 -10 -23t-26 -6z" />
    <glyph glyph-name="ordmasculine" unicode="&#xba;" horiz-adv-x="735" 
d="M745 983q0 -78 -27 -188t-77 -174q-74 -97 -252 -97q-58 0 -100.5 8.5t-80.5 30t-57.5 64t-19.5 104.5q0 87 30 192.5t89 168.5q79 84 231 84q48 0 81.5 -3t70.5 -14.5t59.5 -32t37.5 -56.5t15 -87zM623 963q0 66 -37.5 87t-114.5 21q-93 0 -137 -55q-37 -44 -58.5 -131
t-21.5 -142q0 -68 36 -92t111 -24q107 0 154 67q28 43 48 132t20 137z" />
    <glyph glyph-name="guillemotright" unicode="&#xbb;" horiz-adv-x="980" 
d="M770 545l-188 342q-13 23 -13 39q0 9 9 16.5t22 7.5h49q20 0 31 -9.5t25 -33.5l190 -323q12 -21 12 -45q0 -29 -24 -50l-328 -309q-19 -18 -27 -24.5t-21.5 -13.5t-27.5 -7h-57q-11 0 -18 6.5t-7 16.5q0 16 33 49zM385 545l-186 342q-13 23 -13 39q0 9 9 16.5t22 7.5h49
q18 0 28.5 -9.5t24.5 -33.5l191 -323q12 -21 12 -45q0 -26 -24 -50l-326 -309q-19 -18 -27 -24.5t-21.5 -13.5t-27.5 -7h-59q-9 0 -16 6.5t-7 16.5q0 16 33 49z" />
    <glyph glyph-name="onequarter" unicode="&#xbc;" horiz-adv-x="1734" 
d="M498 -31q-14 -20 -24.5 -27.5t-27.5 -7.5h-36q-23 0 -23 21q0 17 21 41l919 1415q29 45 57 45h39q23 0 23 -22q0 -10 -27 -54zM621 541h-365q-27 0 -27 24q0 7 11 47q5 18 13.5 24.5t29.5 6.5h112l144 614l-125 -51q-20 -8 -31 -8q-13 0 -16 14q-19 47 -19 60q0 7 4 11.5
t7.5 6.5t13.5 6l188 78q23 10 45 10h47q23 0 23 -20q0 -15 -4 -31l-158 -690h121q33 0 33 -25q0 -6 -11 -49q-5 -18 -10.5 -23t-25.5 -5zM1511 0h-327q-25 0 -25 25q0 18 8 47q5 17 14 23.5t31 6.5h97l30 131h-370q-16 0 -21.5 5.5t-5.5 17.5q0 29 6 53q4 14 25 39l391 465
q28 31 51 31h62q22 0 22 -17q0 -11 -18 -32q-117 -141 -196 -234.5t-124 -147t-67 -79.5h268l47 192q8 31 31 31h57q27 0 27 -18q0 -12 -6 -39l-41 -166h112q29 0 29 -17t-14 -63q-5 -21 -31 -21h-119l-31 -131h105q31 0 31 -24q0 -6 -11 -49q-3 -18 -10 -23.5t-27 -5.5z
" />
    <glyph glyph-name="onehalf" unicode="&#xbd;" horiz-adv-x="1734" 
d="M489 -31q-14 -21 -24 -28t-27 -7h-37q-22 0 -22 21q0 18 20 41l920 1415q29 45 57 45h39q23 0 23 -22q0 -10 -27 -54zM606 541h-364q-27 0 -27 24q0 11 10 47q5 18 13.5 24.5t29.5 6.5h113l143 614l-125 -51q-20 -8 -30 -8q-13 0 -17 14q-18 45 -18 60q0 14 24 24l189 78
q23 10 45 10h47q23 0 23 -20q0 -11 -5 -31l-157 -690h121q32 0 32 -25q0 -10 -10 -49q-5 -18 -11 -23t-26 -5zM1554 0h-571q-11 0 -18 6t-7 14q0 17 9 54q8 20 22 28q265 169 416 299q123 107 123 228q0 63 -36.5 96t-125.5 33q-68 0 -147 -21q-40 -12 -48 -12q-17 0 -20 16
q-10 34 -10 52q0 21 39 34q112 33 223 33q250 0 250 -203q0 -94 -35 -165.5t-107 -135.5q-133 -118 -358 -252q70 2 346 2l27 109q9 29 37 29h41q24 0 24 -21q0 -16 -35 -190q-5 -33 -39 -33z" />
    <glyph glyph-name="threequarters" unicode="&#xbe;" horiz-adv-x="1734" 
d="M563 -31q-14 -21 -24 -28t-27 -7h-37q-22 0 -22 21q0 18 20 41l920 1415q29 45 57 45h39q22 0 22 -22q0 -11 -26 -54zM633 985q145 -15 145 -160q0 -146 -78 -219q-89 -82 -294 -82q-134 0 -197 27q-27 11 -27 29q0 9 21 57q7 14 24 14q5 0 20.5 -3.5t22.5 -4.5
q82 -16 150 -16q143 0 192 55q45 48 45 139q0 55 -41.5 81t-142.5 26h-31q-24 0 -24 22q0 23 8 54q6 28 35 28h33q103 0 163 43q50 39 50 125q0 51 -35 74.5t-117 23.5q-79 0 -141 -18q-36 -12 -45 -12q-13 0 -21 16q-10 29 -10 51t39 35q107 31 215 31q131 0 183 -45.5
t52 -130.5q0 -101 -45.5 -159t-148.5 -81zM1556 0h-327q-25 0 -25 25q0 18 8 47q5 17 14 23.5t31 6.5h97l30 131h-370q-16 0 -21.5 5.5t-5.5 17.5q0 29 6 53q4 14 25 39l391 465q28 31 51 31h62q22 0 22 -17q0 -11 -18 -32q-117 -141 -196 -234.5t-124 -147t-67 -79.5h268
l47 192q8 31 31 31h57q27 0 27 -18q0 -12 -6 -39l-41 -166h112q29 0 29 -17t-14 -63q-5 -21 -31 -21h-119l-31 -131h105q31 0 31 -24q0 -6 -11 -49q-3 -18 -10 -23.5t-27 -5.5z" />
    <glyph glyph-name="questiondown" unicode="&#xbf;" horiz-adv-x="837" 
d="M471 569h51q15 0 23 -9t8 -23q0 -30 -16 -107q-21 -102 -62 -157.5t-143 -114.5q-117 -67 -175.5 -137t-58.5 -179q0 -76 47.5 -121t151.5 -45q111 0 223 33q32 8 35 8q20 0 31 -28q10 -30 10 -54q0 -31 -35 -43q-145 -51 -301 -51q-87 0 -152 21t-101 57.5t-53 81
t-17 96.5q0 100 32 176t89.5 132t154.5 114q101 61 137 99.5t56 113.5q5 18 13 53.5t13 55.5q9 28 39 28zM442 899q0 73 39 109q27 24 76 24q88 0 88 -78q0 -65 -37 -102q-31 -31 -80 -31q-86 0 -86 78z" />
    <glyph glyph-name="Agrave" unicode="&#xc0;" horiz-adv-x="1370" 
d="M342 0h-381q-35 0 -35 27q0 14 13 67q8 35 49 35h80l739 1282q23 39 57 39h72q22 0 32.5 -8.5t14.5 -34.5l191 -1278h79q20 0 28.5 -6t8.5 -23q0 -23 -12 -67q-4 -19 -15 -26t-34 -7h-369q-35 0 -35 27q0 5 15 67q8 35 47 35h135l-53 346h-531l-205 -346h132
q19 0 27.5 -6t8.5 -23q0 -23 -12 -67q-6 -20 -15.5 -26.5t-31.5 -6.5zM866 1247q-15 -26 -65.5 -117t-122.5 -218.5t-174 -305.5h452q-51 343 -90 641zM891 1581l-281 221q-24 16 -24 37q0 11 9 19t23 8h115q34 0 64 -27l243 -219q19 -19 19 -35q0 -24 -29 -24h-74
q-34 0 -65 20z" />
    <glyph glyph-name="Aacute" unicode="&#xc1;" horiz-adv-x="1370" 
d="M342 0h-381q-35 0 -35 27q0 14 13 67q8 35 49 35h80l739 1282q23 39 57 39h72q22 0 32.5 -8.5t14.5 -34.5l191 -1278h79q20 0 28.5 -6t8.5 -23q0 -23 -12 -67q-4 -19 -15 -26t-34 -7h-369q-35 0 -35 27q0 5 15 67q8 35 47 35h135l-53 346h-531l-205 -346h132
q19 0 27.5 -6t8.5 -23q0 -23 -12 -67q-6 -20 -15.5 -26.5t-31.5 -6.5zM866 1247q-15 -26 -65.5 -117t-122.5 -218.5t-174 -305.5h452q-51 343 -90 641zM903 1563q-26 -21 -63 -21h-82q-29 0 -29 25q0 20 21 35l299 219q37 26 63 26h127q31 0 31 -24t-23 -39z" />
    <glyph glyph-name="Acircumflex" unicode="&#xc2;" horiz-adv-x="1370" 
d="M342 0h-381q-35 0 -35 27q0 14 13 67q8 35 49 35h80l739 1282q23 39 57 39h72q22 0 32.5 -8.5t14.5 -34.5l191 -1278h79q20 0 28.5 -6t8.5 -23q0 -23 -12 -67q-4 -19 -15 -26t-34 -7h-369q-35 0 -35 27q0 5 15 67q8 35 47 35h135l-53 346h-531l-205 -346h132
q19 0 27.5 -6t8.5 -23q0 -23 -12 -67q-6 -20 -15.5 -26.5t-31.5 -6.5zM866 1247q-15 -26 -65.5 -117t-122.5 -218.5t-174 -305.5h452q-51 343 -90 641zM684 1561h-70q-26 0 -26 24q0 18 18 33l250 209q45 35 72 35h69q29 0 56 -31l176 -213q10 -13 10 -29q0 -28 -37 -28h-53
q-31 0 -57 26l-148 139l-196 -137q-24 -17 -36 -22.5t-28 -5.5z" />
    <glyph glyph-name="Atilde" unicode="&#xc3;" horiz-adv-x="1370" 
d="M342 0h-381q-35 0 -35 27q0 14 13 67q8 35 49 35h80l739 1282q23 39 57 39h72q22 0 32.5 -8.5t14.5 -34.5l191 -1278h79q20 0 28.5 -6t8.5 -23q0 -23 -12 -67q-4 -19 -15 -26t-34 -7h-369q-35 0 -35 27q0 5 15 67q8 35 47 35h135l-53 346h-531l-205 -346h132
q19 0 27.5 -6t8.5 -23q0 -23 -12 -67q-6 -20 -15.5 -26.5t-31.5 -6.5zM866 1247q-15 -26 -65.5 -117t-122.5 -218.5t-174 -305.5h452q-51 343 -90 641zM664 1581h-48q-30 0 -30 27q0 16 14 51q43 84 89.5 126t111.5 42q45 0 147 -60q79 -47 119 -47q28 0 46.5 15t43.5 63
q12 21 22.5 30t28.5 9h45q35 0 35 -27q0 -19 -16 -51q-42 -90 -90.5 -133t-110.5 -43q-37 0 -70.5 10t-87.5 41q-76 47 -112 47q-26 0 -46 -15t-42 -56q-15 -29 -49 -29z" />
    <glyph glyph-name="Adieresis" unicode="&#xc4;" horiz-adv-x="1370" 
d="M342 0h-381q-35 0 -35 27q0 14 13 67q8 35 49 35h80l739 1282q23 39 57 39h72q22 0 32.5 -8.5t14.5 -34.5l191 -1278h79q20 0 28.5 -6t8.5 -23q0 -23 -12 -67q-4 -19 -15 -26t-34 -7h-369q-35 0 -35 27q0 5 15 67q8 35 47 35h135l-53 346h-531l-205 -346h132
q19 0 27.5 -6t8.5 -23q0 -23 -12 -67q-6 -20 -15.5 -26.5t-31.5 -6.5zM866 1247q-15 -26 -65.5 -117t-122.5 -218.5t-174 -305.5h452q-51 343 -90 641zM834 1710q0 -70 -35 -100q-25 -25 -72 -25q-82 0 -82 72q0 65 33 98q27 27 76 27q80 0 80 -72zM1217 1710
q0 -70 -35 -100q-28 -25 -72 -25q-84 0 -84 72q0 65 33 98q27 27 76 27q82 0 82 -72z" />
    <glyph glyph-name="Aring" unicode="&#xc5;" horiz-adv-x="1370" 
d="M342 0h-381q-35 0 -35 27q0 14 13 67q8 35 49 35h80l739 1282q23 39 57 39h72q22 0 32.5 -8.5t14.5 -34.5l191 -1278h79q20 0 28.5 -6t8.5 -23q0 -23 -12 -67q-4 -19 -15 -26t-34 -7h-369q-35 0 -35 27q0 5 15 67q8 35 47 35h135l-53 346h-531l-205 -346h132
q19 0 27.5 -6t8.5 -23q0 -23 -12 -67q-6 -20 -15.5 -26.5t-31.5 -6.5zM866 1247q-15 -26 -65.5 -117t-122.5 -218.5t-174 -305.5h452q-51 343 -90 641zM1135 1714q0 -95 -55 -151t-150 -56q-78 0 -123 44.5t-45 123.5q0 91 55.5 148t145.5 57q80 0 126 -44t46 -122z
M1061 1712q0 49 -28 76t-79 27q-52 0 -88.5 -35.5t-36.5 -96.5q0 -53 29.5 -82.5t79.5 -29.5q55 0 89 36t34 105z" />
    <glyph glyph-name="AE" unicode="&#xc6;" horiz-adv-x="2025" 
d="M365 0h-404q-35 0 -35 27q0 14 13 67q8 35 47 35h86l1030 1188h-141q-35 0 -35 26q0 8 12 70q9 33 47 33h1026q22 0 29.5 -8t7.5 -23q0 -25 -41 -248q-5 -32 -37 -32h-67q-31 0 -31 30q0 18 16 152h-479l-104 -498h471q36 0 36 -26q0 -20 -12 -74q-4 -19 -15 -26t-34 -7
h-475l-119 -557h565l41 145q10 37 39 37h66q33 0 33 -28q0 -20 -48 -234q-5 -25 -15.5 -37t-35.5 -12h-925q-35 0 -35 27q0 6 12 67q8 35 49 35h101l77 356h-516l-307 -356h131q20 0 28.5 -6t8.5 -23q0 -23 -12 -67q-6 -20 -16.5 -26.5t-32.5 -6.5zM672 621h438l145 684
q-149 -189 -583 -684z" />
    <glyph glyph-name="Ccedilla" unicode="&#xc7;" horiz-adv-x="1253" 
d="M602 -131q176 -2 176 -158q0 -122 -68 -171.5t-208 -49.5q-63 0 -113 12q-24 8 -24 33q0 16 10 51q12 29 39 29q10 0 30 -4q33 -10 74 -10q63 0 91 19.5t28 74.5q0 36 -20.5 52.5t-65.5 16.5q-8 0 -26 -1t-21 -1q-35 0 -35 39q0 16 14 60l41 119q-377 40 -377 456
q0 130 27 281.5t88 308.5t144 254q89 101 212 148t306 47q161 0 313 -35q39 -10 39 -45q0 -32 -39 -244q-5 -31 -39 -31h-63q-33 0 -33 31q0 7 16 168q-85 18 -246 18q-219 0 -348 -139q-102 -112 -159.5 -331.5t-57.5 -407.5q0 -348 334 -348q116 0 189.5 10t148.5 33
q56 18 63 18q11 0 17 -6.5t14 -24.5q14 -40 14 -59q0 -14 -10.5 -24t-42.5 -21q-180 -61 -399 -64z" />
    <glyph glyph-name="Egrave" unicode="&#xc8;" horiz-adv-x="1212" 
d="M987 0h-924q-32 0 -32 27q0 8 12 69q8 35 47 35h103l256 1186h-115q-33 0 -33 26q0 19 10 70q11 33 49 33h842q20 0 27.5 -7.5t7.5 -25.5q0 -6 -41 -246q-5 -32 -37 -32h-67q-31 0 -31 30q0 14 16 152h-475l-106 -498h483q37 0 37 -26q0 -20 -12 -74q-7 -33 -52 -33h-485
l-119 -555h563l39 143q10 37 41 37h64q32 0 32 -28q0 -22 -45 -234q-6 -31 -15.5 -40t-39.5 -9zM799 1581l-281 221q-24 16 -24 37q0 11 9 19t23 8h115q34 0 64 -27l243 -219q19 -19 19 -35q0 -24 -29 -24h-74q-34 0 -65 20z" />
    <glyph glyph-name="Eacute" unicode="&#xc9;" horiz-adv-x="1212" 
d="M987 0h-924q-32 0 -32 27q0 8 12 69q8 35 47 35h103l256 1186h-115q-33 0 -33 26q0 19 10 70q11 33 49 33h842q20 0 27.5 -7.5t7.5 -25.5q0 -6 -41 -246q-5 -32 -37 -32h-67q-31 0 -31 30q0 14 16 152h-475l-106 -498h483q37 0 37 -26q0 -20 -12 -74q-7 -33 -52 -33h-485
l-119 -555h563l39 143q10 37 41 37h64q32 0 32 -28q0 -22 -45 -234q-6 -31 -15.5 -40t-39.5 -9zM846 1563q-26 -21 -64 -21h-82q-28 0 -28 25q0 21 20 35l299 219q37 26 64 26h127q30 0 30 -24t-22 -39z" />
    <glyph glyph-name="Ecircumflex" unicode="&#xca;" horiz-adv-x="1212" 
d="M987 0h-924q-32 0 -32 27q0 8 12 69q8 35 47 35h103l256 1186h-115q-33 0 -33 26q0 19 10 70q11 33 49 33h842q20 0 27.5 -7.5t7.5 -25.5q0 -6 -41 -246q-5 -32 -37 -32h-67q-31 0 -31 30q0 14 16 152h-475l-106 -498h483q37 0 37 -26q0 -20 -12 -74q-7 -33 -52 -33h-485
l-119 -555h563l39 143q10 37 41 37h64q32 0 32 -28q0 -22 -45 -234q-6 -31 -15.5 -40t-39.5 -9zM600 1561h-70q-26 0 -26 24q0 18 18 33l250 209q45 35 72 35h69q29 0 56 -31l176 -213q10 -13 10 -29q0 -28 -37 -28h-53q-31 0 -57 26l-148 139l-196 -137q-24 -17 -36 -22.5
t-28 -5.5z" />
    <glyph glyph-name="Edieresis" unicode="&#xcb;" horiz-adv-x="1212" 
d="M987 0h-924q-32 0 -32 27q0 8 12 69q8 35 47 35h103l256 1186h-115q-33 0 -33 26q0 19 10 70q11 33 49 33h842q20 0 27.5 -7.5t7.5 -25.5q0 -6 -41 -246q-5 -32 -37 -32h-67q-31 0 -31 30q0 14 16 152h-475l-106 -498h483q37 0 37 -26q0 -20 -12 -74q-7 -33 -52 -33h-485
l-119 -555h563l39 143q10 37 41 37h64q32 0 32 -28q0 -22 -45 -234q-6 -31 -15.5 -40t-39.5 -9zM743 1710q0 -71 -34 -100q-25 -25 -72 -25q-82 0 -82 72q0 65 33 98q27 27 76 27q39 0 59 -16.5t20 -55.5zM1126 1710q0 -71 -34 -100q-28 -25 -72 -25q-84 0 -84 72
q0 65 33 98q27 27 75 27q82 0 82 -72z" />
    <glyph glyph-name="Igrave" unicode="&#xcc;" horiz-adv-x="684" 
d="M193 129l253 1188h-112q-33 0 -33 26q0 21 10 70q9 33 49 33h375q37 0 37 -27q0 -17 -14 -69q-4 -20 -14.5 -26.5t-32.5 -6.5h-109l-254 -1188h117q37 0 37 -27q0 -21 -13 -69q-4 -20 -14.5 -26.5t-32.5 -6.5h-379q-32 0 -32 27q0 8 12 69q4 19 14.5 26t32.5 7h103z
M553 1581l-281 221q-24 16 -24 37q0 11 9 19t24 8h114q34 0 64 -27l243 -219q19 -19 19 -35q0 -24 -29 -24h-74q-34 0 -65 20z" />
    <glyph glyph-name="Iacute" unicode="&#xcd;" horiz-adv-x="684" 
d="M193 129l253 1188h-112q-33 0 -33 26q0 21 10 70q9 33 49 33h375q37 0 37 -27q0 -17 -14 -69q-4 -20 -14.5 -26.5t-32.5 -6.5h-109l-254 -1188h117q37 0 37 -27q0 -21 -13 -69q-4 -20 -14.5 -26.5t-32.5 -6.5h-379q-32 0 -32 27q0 8 12 69q4 19 14.5 26t32.5 7h103z
M547 1581q-25 -20 -64 -20h-82q-28 0 -28 24q0 21 20 35l299 219q39 27 64 27h127q30 0 30 -25q0 -24 -22 -39z" />
    <glyph glyph-name="Icircumflex" unicode="&#xce;" horiz-adv-x="684" 
d="M193 129l253 1188h-112q-33 0 -33 26q0 21 10 70q9 33 49 33h375q37 0 37 -27q0 -17 -14 -69q-4 -20 -14.5 -26.5t-32.5 -6.5h-109l-254 -1188h117q37 0 37 -27q0 -21 -13 -69q-4 -20 -14.5 -26.5t-32.5 -6.5h-379q-32 0 -32 27q0 8 12 69q4 19 14.5 26t32.5 7h103z
M350 1561h-69q-27 0 -27 24q0 18 18 33l250 209q45 35 72 35h70q28 0 55 -31l176 -213q10 -13 10 -29q0 -28 -37 -28h-53q-31 0 -57 26l-148 139l-196 -137q-24 -17 -36 -22.5t-28 -5.5z" />
    <glyph glyph-name="Idieresis" unicode="&#xcf;" horiz-adv-x="684" 
d="M193 129l253 1188h-112q-33 0 -33 26q0 21 10 70q9 33 49 33h375q37 0 37 -27q0 -17 -14 -69q-4 -20 -14.5 -26.5t-32.5 -6.5h-109l-254 -1188h117q37 0 37 -27q0 -21 -13 -69q-4 -20 -14.5 -26.5t-32.5 -6.5h-379q-32 0 -32 27q0 8 12 69q4 19 14.5 26t32.5 7h103z
M504 1710q0 -70 -35 -100q-25 -25 -72 -25q-82 0 -82 72q0 65 33 98q27 27 76 27q80 0 80 -72zM887 1710q0 -70 -35 -100q-28 -25 -72 -25q-84 0 -84 72q0 65 33 98q27 27 76 27q82 0 82 -72z" />
    <glyph glyph-name="Eth" unicode="&#xd0;" horiz-adv-x="1456" 
d="M500 0h-437q-32 0 -32 27q0 6 12 67q8 35 47 35h103l118 559h-186q-33 0 -33 27q0 9 14 67q5 19 13 26t28 7h191l108 502h-112q-33 0 -33 26q0 24 10 70q9 33 49 33h441q225 0 362 -43q126 -39 192 -148.5t66 -273.5q0 -113 -13 -220.5t-48 -222.5t-88.5 -208
t-140.5 -168.5t-199 -112.5q-76 -24 -203.5 -36.5t-228.5 -12.5zM348 129h193q245 0 364 51q96 40 168.5 128.5t111 200.5t57 223t18.5 220q0 238 -150 316q-95 49 -330 49h-178l-108 -502h301q18 0 25 -6.5t7 -20.5q0 -17 -14 -69q-6 -19 -15 -25t-30 -6h-301z" />
    <glyph glyph-name="Ntilde" unicode="&#xd1;" horiz-adv-x="1503" 
d="M442 0h-379q-32 0 -32 27q0 8 12 69q4 19 14.5 26t32.5 7h107l249 1188h-112q-33 0 -33 26q0 21 10 70q9 33 49 33h222q12 0 23 -8t16 -19q379 -895 471 -1136q38 213 219 1034h-123q-35 0 -35 26q0 8 12 70q9 33 47 33h375q37 0 37 -27q0 -25 -12 -69q-4 -19 -15 -26
t-32 -7h-103l-272 -1278q-7 -43 -51 -43h-52q-39 0 -53 35q-403 964 -467 1140q-49 -252 -221 -1042h119q37 0 37 -27q0 -23 -13 -69q-6 -20 -15.5 -26.5t-31.5 -6.5zM762 1581h-47q-31 0 -31 27q0 16 14 51q43 84 89.5 126t111.5 42q46 0 148 -60q79 -47 118 -47
q28 0 46.5 15t43.5 63q22 39 52 39h45q34 0 34 -27q0 -19 -16 -51q-42 -90 -90.5 -133t-110.5 -43q-37 0 -69.5 10t-87.5 41q-76 47 -113 47q-26 0 -46 -15t-42 -56q-15 -29 -49 -29z" />
    <glyph glyph-name="Ograve" unicode="&#xd2;" horiz-adv-x="1404" 
d="M1368 1044q0 -128 -25.5 -287t-87 -332t-145.5 -271q-83 -96 -195.5 -138.5t-271.5 -42.5q-91 0 -162 11.5t-135 41.5t-105.5 78.5t-66 126t-24.5 181.5q0 139 26.5 298t92 328t157.5 267q153 161 440 161q96 0 166.5 -9t137 -36t107.5 -73t66 -122t25 -182zM1208 1022
q0 93 -19.5 153t-65 94.5t-109 48t-160.5 13.5q-215 0 -322 -123q-71 -81 -124 -228.5t-76 -289t-23 -258.5q0 -95 20.5 -157.5t66 -98.5t109.5 -50.5t159 -14.5q118 0 197 30t140 111q92 122 149.5 363.5t57.5 406.5zM907 1581l-280 221q-25 17 -25 37q0 11 9 19t24 8h115
q33 0 63 -27l244 -219q18 -18 18 -35q0 -24 -28 -24h-74q-35 0 -66 20z" />
    <glyph glyph-name="Oacute" unicode="&#xd3;" horiz-adv-x="1404" 
d="M1368 1044q0 -128 -25.5 -287t-87 -332t-145.5 -271q-83 -96 -195.5 -138.5t-271.5 -42.5q-91 0 -162 11.5t-135 41.5t-105.5 78.5t-66 126t-24.5 181.5q0 139 26.5 298t92 328t157.5 267q153 161 440 161q96 0 166.5 -9t137 -36t107.5 -73t66 -122t25 -182zM1208 1022
q0 93 -19.5 153t-65 94.5t-109 48t-160.5 13.5q-215 0 -322 -123q-71 -81 -124 -228.5t-76 -289t-23 -258.5q0 -95 20.5 -157.5t66 -98.5t109.5 -50.5t159 -14.5q118 0 197 30t140 111q92 122 149.5 363.5t57.5 406.5zM952 1581q-25 -20 -63 -20h-82q-29 0 -29 24
q0 20 21 35l299 219q39 27 63 27h127q31 0 31 -25q0 -24 -23 -39z" />
    <glyph glyph-name="Ocircumflex" unicode="&#xd4;" horiz-adv-x="1404" 
d="M1368 1044q0 -128 -25.5 -287t-87 -332t-145.5 -271q-83 -96 -195.5 -138.5t-271.5 -42.5q-91 0 -162 11.5t-135 41.5t-105.5 78.5t-66 126t-24.5 181.5q0 139 26.5 298t92 328t157.5 267q153 161 440 161q96 0 166.5 -9t137 -36t107.5 -73t66 -122t25 -182zM1208 1022
q0 93 -19.5 153t-65 94.5t-109 48t-160.5 13.5q-215 0 -322 -123q-71 -81 -124 -228.5t-76 -289t-23 -258.5q0 -95 20.5 -157.5t66 -98.5t109.5 -50.5t159 -14.5q118 0 197 30t140 111q92 122 149.5 363.5t57.5 406.5zM690 1561h-69q-27 0 -27 24q0 18 18 33l250 209
q45 35 72 35h70q28 0 55 -31l176 -213q10 -13 10 -29q0 -28 -37 -28h-53q-31 0 -57 26l-148 139l-196 -137q-24 -17 -36 -22.5t-28 -5.5z" />
    <glyph glyph-name="Otilde" unicode="&#xd5;" horiz-adv-x="1404" 
d="M1368 1044q0 -128 -25.5 -287t-87 -332t-145.5 -271q-83 -96 -195.5 -138.5t-271.5 -42.5q-91 0 -162 11.5t-135 41.5t-105.5 78.5t-66 126t-24.5 181.5q0 139 26.5 298t92 328t157.5 267q153 161 440 161q96 0 166.5 -9t137 -36t107.5 -73t66 -122t25 -182zM1208 1022
q0 93 -19.5 153t-65 94.5t-109 48t-160.5 13.5q-215 0 -322 -123q-71 -81 -124 -228.5t-76 -289t-23 -258.5q0 -95 20.5 -157.5t66 -98.5t109.5 -50.5t159 -14.5q118 0 197 30t140 111q92 122 149.5 363.5t57.5 406.5zM690 1581h-47q-31 0 -31 27q0 14 15 51q43 85 89 126.5
t111 41.5q46 0 148 -60q79 -47 119 -47q28 0 46.5 15t43.5 63q12 21 22.5 30t28.5 9h45q35 0 35 -27q0 -17 -17 -51q-42 -90 -90 -133t-110 -43q-37 0 -70.5 10t-87.5 41q-76 47 -113 47q-26 0 -46 -15t-42 -56q-15 -29 -49 -29z" />
    <glyph glyph-name="Odieresis" unicode="&#xd6;" horiz-adv-x="1404" 
d="M1368 1044q0 -128 -25.5 -287t-87 -332t-145.5 -271q-83 -96 -195.5 -138.5t-271.5 -42.5q-91 0 -162 11.5t-135 41.5t-105.5 78.5t-66 126t-24.5 181.5q0 139 26.5 298t92 328t157.5 267q153 161 440 161q96 0 166.5 -9t137 -36t107.5 -73t66 -122t25 -182zM1208 1022
q0 93 -19.5 153t-65 94.5t-109 48t-160.5 13.5q-215 0 -322 -123q-71 -81 -124 -228.5t-76 -289t-23 -258.5q0 -95 20.5 -157.5t66 -98.5t109.5 -50.5t159 -14.5q118 0 197 30t140 111q92 122 149.5 363.5t57.5 406.5zM854 1710q0 -70 -35 -100q-25 -25 -71 -25
q-82 0 -82 72q0 66 32 98q27 27 76 27q80 0 80 -72zM1237 1710q0 -70 -35 -100q-28 -25 -72 -25q-83 0 -83 72q0 66 32 98q27 27 76 27q82 0 82 -72z" />
    <glyph glyph-name="multiply" unicode="&#xd7;" horiz-adv-x="1435" 
d="M1159 287q12 -15 12 -31q0 -13 -14 -27l-35 -36q-20 -13 -30 -13q-11 0 -27 13l-295 321l-358 -326q-12 -12 -29 -12q-11 0 -25 17l-26 28q-13 16 -13 29q0 16 17 33l358 325l-299 324q-12 12 -12 29q0 16 18 30l33 33q10 10 29 10q16 0 26 -12l297 -326l367 330
q10 10 25 10q17 0 26 -14l27 -33q10 -10 10 -24q0 -16 -12 -31l-371 -328z" />
    <glyph glyph-name="Oslash" unicode="&#xd8;" horiz-adv-x="1404" 
d="M178 -23q-12 -14 -28 -14q-12 0 -46 29q-12 10 -12 22q0 13 14 27l99 115q-55 94 -55 256q0 139 26.5 298t92 328t157.5 267q153 161 440 161q264 0 375 -86l88 103q18 18 31 18q12 0 22 -10q35 -23 35 -41q0 -12 -12 -27l-98 -114q61 -99 61 -265q0 -128 -25.5 -287
t-87 -332t-145.5 -271q-83 -96 -195.5 -138.5t-271.5 -42.5q-261 0 -379 107zM1208 1022q0 86 -18 147l-821 -966q41 -50 112.5 -71t182.5 -21q118 0 197 30t140 111q92 122 149.5 363.5t57.5 406.5zM309 432q0 -80 15 -135l813 960q-77 74 -283 74q-215 0 -322 -123
q-71 -81 -124 -228.5t-76 -289t-23 -258.5z" />
    <glyph glyph-name="Ugrave" unicode="&#xd9;" horiz-adv-x="1484" 
d="M1268 578q-22 -101 -32 -143.5t-27.5 -104.5t-35.5 -100t-43 -72q-73 -100 -185.5 -143.5t-291.5 -43.5q-424 0 -424 305q0 105 41 297l158 744h-104q-35 0 -35 26q0 8 12 70q9 33 49 33h375q37 0 37 -27q0 -25 -12 -69q-4 -19 -15.5 -26t-34.5 -7h-116l-170 -793
q-25 -122 -25 -209q0 -204 291 -204q106 0 185 23t132 91q65 82 109 285l172 807h-133q-33 0 -33 26q0 21 12 70q9 33 47 33h371q20 0 28.5 -6t8.5 -21q0 -13 -12 -69q-4 -20 -14.5 -26.5t-32.5 -6.5h-93zM922 1581l-281 221q-25 17 -25 37q0 11 9 19t24 8h115q33 0 63 -27
l244 -219q19 -19 19 -35q0 -24 -29 -24h-74q-34 0 -65 20z" />
    <glyph glyph-name="Uacute" unicode="&#xda;" horiz-adv-x="1484" 
d="M1268 578q-22 -101 -32 -143.5t-27.5 -104.5t-35.5 -100t-43 -72q-73 -100 -185.5 -143.5t-291.5 -43.5q-424 0 -424 305q0 105 41 297l158 744h-104q-35 0 -35 26q0 8 12 70q9 33 49 33h375q37 0 37 -27q0 -25 -12 -69q-4 -19 -15.5 -26t-34.5 -7h-116l-170 -793
q-25 -122 -25 -209q0 -204 291 -204q106 0 185 23t132 91q65 82 109 285l172 807h-133q-33 0 -33 26q0 21 12 70q9 33 47 33h371q20 0 28.5 -6t8.5 -21q0 -13 -12 -69q-4 -20 -14.5 -26.5t-32.5 -6.5h-93zM958 1581q-25 -20 -63 -20h-82q-29 0 -29 24q0 20 21 35l299 219
q39 27 63 27h127q31 0 31 -25q0 -24 -22 -39z" />
    <glyph glyph-name="Ucircumflex" unicode="&#xdb;" horiz-adv-x="1484" 
d="M1268 578q-22 -101 -32 -143.5t-27.5 -104.5t-35.5 -100t-43 -72q-73 -100 -185.5 -143.5t-291.5 -43.5q-424 0 -424 305q0 105 41 297l158 744h-104q-35 0 -35 26q0 8 12 70q9 33 49 33h375q37 0 37 -27q0 -25 -12 -69q-4 -19 -15.5 -26t-34.5 -7h-116l-170 -793
q-25 -122 -25 -209q0 -204 291 -204q106 0 185 23t132 91q65 82 109 285l172 807h-133q-33 0 -33 26q0 21 12 70q9 33 47 33h371q20 0 28.5 -6t8.5 -21q0 -13 -12 -69q-4 -20 -14.5 -26.5t-32.5 -6.5h-93zM741 1561h-69q-27 0 -27 24q0 17 19 33l249 209q45 35 72 35h70
q28 0 55 -31l176 -213q10 -13 10 -29q0 -28 -36 -28h-54q-31 0 -57 26l-148 139l-196 -137q-24 -17 -36 -22.5t-28 -5.5z" />
    <glyph glyph-name="Udieresis" unicode="&#xdc;" horiz-adv-x="1484" 
d="M1268 578q-22 -101 -32 -143.5t-27.5 -104.5t-35.5 -100t-43 -72q-73 -100 -185.5 -143.5t-291.5 -43.5q-424 0 -424 305q0 105 41 297l158 744h-104q-35 0 -35 26q0 8 12 70q9 33 49 33h375q37 0 37 -27q0 -25 -12 -69q-4 -19 -15.5 -26t-34.5 -7h-116l-170 -793
q-25 -122 -25 -209q0 -204 291 -204q106 0 185 23t132 91q65 82 109 285l172 807h-133q-33 0 -33 26q0 21 12 70q9 33 47 33h371q20 0 28.5 -6t8.5 -21q0 -13 -12 -69q-4 -20 -14.5 -26.5t-32.5 -6.5h-93zM889 1710q0 -70 -35 -100q-25 -25 -72 -25q-82 0 -82 72q0 65 33 98
q27 27 76 27q80 0 80 -72zM1272 1710q0 -70 -35 -100q-28 -25 -72 -25q-84 0 -84 72q0 65 33 98q27 27 76 27q82 0 82 -72z" />
    <glyph glyph-name="Yacute" unicode="&#xdd;" horiz-adv-x="1329" 
d="M1436 1317h-93l-569 -684l-108 -504h118q35 0 35 -27q0 -25 -12 -69q-4 -20 -14.5 -26.5t-32.5 -6.5h-381q-35 0 -35 27q0 20 12 69q6 19 17 26t33 7h106l109 500l-281 688h-98q-37 0 -37 26q0 13 14 70q9 33 47 33h371q20 0 28.5 -6t8.5 -21q0 -27 -12 -69
q-6 -20 -16 -26.5t-32 -6.5h-104q133 -331 211 -543q154 209 436 543h-98q-35 0 -35 26q0 21 12 70q9 33 47 33h377q37 0 37 -27t-12 -69q-6 -20 -16.5 -26.5t-32.5 -6.5zM864 1579q-25 -20 -63 -20h-82q-29 0 -29 24q0 20 21 35l299 219q39 27 63 27h127q31 0 31 -25
q0 -24 -23 -39z" />
    <glyph glyph-name="Thorn" unicode="&#xde;" horiz-adv-x="1304" 
d="M709 1317h-107l-39 -174h191q243 0 352 -53q73 -34 110 -100.5t37 -151.5q0 -190 -84.5 -320t-261.5 -178q-106 -29 -311 -29h-209l-39 -182h115q37 0 37 -27q0 -12 -13 -69q-4 -20 -14.5 -26.5t-32.5 -6.5h-379q-32 0 -32 27q0 8 12 69q4 19 14.5 26t32.5 7h107
l251 1188h-114q-33 0 -33 26q0 19 10 70q11 33 49 33h375q37 0 37 -27q0 -17 -14 -69q-4 -20 -14.5 -26.5t-32.5 -6.5zM414 440h217q183 0 270 35q95 36 142 125.5t47 202.5q0 127 -93 174q-67 31 -262 31h-200z" />
    <glyph glyph-name="germandbls" unicode="&#xdf;" horiz-adv-x="1148" 
d="M227 0h-209q-36 0 -36 27q0 8 14 65q5 19 14.5 27t30.5 8h100l187 877q19 85 28.5 123t29 95t40.5 89q62 93 146.5 132.5t222.5 39.5q319 0 319 -279q0 -160 -73 -270t-224 -139q118 -13 175 -79t57 -171q0 -268 -111 -416q-61 -80 -147.5 -113.5t-210.5 -33.5
q-109 0 -166 18q-21 6 -21 31q0 22 17 71q12 23 36 23q4 0 10 -1l15 -2.5t14 -2.5q44 -10 115 -10q88 0 140.5 24t88.5 84q72 119 72 305q0 48 -12.5 82t-43.5 61.5t-88.5 41.5t-142.5 14h-30q-29 0 -29 20q0 27 12 74q4 19 14.5 26t30.5 7h31q134 0 215 72q107 93 107 272
q0 85 -46.5 127.5t-146.5 42.5q-150 0 -215 -94q-44 -66 -80 -248l-207 -975q-8 -45 -43 -45z" />
    <glyph glyph-name="agrave" unicode="&#xe0;" horiz-adv-x="1198" 
d="M975 0h-201q-39 0 -39 35q0 7 6 55q-105 -115 -331 -115q-314 0 -314 314q0 167 61.5 349.5t174.5 279.5q126 110 370 110q163 0 234 -53q9 27 18.5 36t28.5 9h55q35 0 35 -29q0 -21 -6 -45l-178 -819h110q35 0 35 -27q0 -5 -12 -67q-4 -20 -14.5 -26.5t-32.5 -6.5z
M776 266l125 592q-30 19 -87.5 31t-121.5 12q-175 0 -268 -84q-81 -71 -127.5 -214t-46.5 -281q0 -112 51 -165t168 -53q155 0 248 74q30 24 39 41q14 22 20 47zM696 1212l-225 265q-16 20 -16 36q0 25 30 25h109q27 0 49 -31l195 -264q12 -18 12 -33q0 -9 -8 -15.5
t-21 -6.5h-71q-33 0 -54 24z" />
    <glyph glyph-name="aacute" unicode="&#xe1;" horiz-adv-x="1198" 
d="M975 0h-201q-39 0 -39 35q0 7 6 55q-105 -115 -331 -115q-314 0 -314 314q0 167 61.5 349.5t174.5 279.5q126 110 370 110q163 0 234 -53q9 27 18.5 36t28.5 9h55q35 0 35 -29q0 -21 -6 -45l-178 -819h110q35 0 35 -27q0 -5 -12 -67q-4 -20 -14.5 -26.5t-32.5 -6.5z
M776 266l125 592q-30 19 -87.5 31t-121.5 12q-175 0 -268 -84q-81 -71 -127.5 -214t-46.5 -281q0 -112 51 -165t168 -53q155 0 248 74q30 24 39 41q14 22 20 47zM764 1212q-21 -24 -59 -24h-68q-14 0 -21.5 7t-7.5 17q0 16 15 31l247 268q27 27 54 27h114q31 0 31 -25
q0 -14 -20 -34z" />
    <glyph glyph-name="acircumflex" unicode="&#xe2;" horiz-adv-x="1198" 
d="M975 0h-201q-39 0 -39 35q0 7 6 55q-105 -115 -331 -115q-314 0 -314 314q0 167 61.5 349.5t174.5 279.5q126 110 370 110q163 0 234 -53q9 27 18.5 36t28.5 9h55q35 0 35 -29q0 -21 -6 -45l-178 -819h110q35 0 35 -27q0 -5 -12 -67q-4 -20 -14.5 -26.5t-32.5 -6.5z
M776 266l125 592q-30 19 -87.5 31t-121.5 12q-175 0 -268 -84q-81 -71 -127.5 -214t-46.5 -281q0 -112 51 -165t168 -53q155 0 248 74q30 24 39 41q14 22 20 47zM555 1174h-70q-24 0 -24 22q0 17 18 35l248 272q27 35 61 35h78q30 0 47 -31l140 -280q8 -16 8 -27
q0 -26 -37 -26h-57q-33 0 -47 26l-113 205l-197 -203q-28 -28 -55 -28z" />
    <glyph glyph-name="atilde" unicode="&#xe3;" horiz-adv-x="1198" 
d="M975 0h-201q-39 0 -39 35q0 7 6 55q-105 -115 -331 -115q-314 0 -314 314q0 167 61.5 349.5t174.5 279.5q126 110 370 110q163 0 234 -53q9 27 18.5 36t28.5 9h55q35 0 35 -29q0 -21 -6 -45l-178 -819h110q35 0 35 -27q0 -5 -12 -67q-4 -20 -14.5 -26.5t-32.5 -6.5z
M776 266l125 592q-30 19 -87.5 31t-121.5 12q-175 0 -268 -84q-81 -71 -127.5 -214t-46.5 -281q0 -112 51 -165t168 -53q155 0 248 74q30 24 39 41q14 22 20 47zM502 1229h-47q-31 0 -31 24q0 25 16 52q41 84 86 126t109 42q18 0 40.5 -8.5t37.5 -16.5t61 -35
q74 -45 113 -45q26 0 44.5 15.5t43.5 62.5q19 37 51 37h43q35 0 35 -25q0 -19 -17 -53q-78 -176 -192 -176q-36 0 -68 10.5t-86 42.5q-80 47 -106 47q-24 0 -43 -15.5t-41 -56.5q-9 -17 -18.5 -22.5t-30.5 -5.5z" />
    <glyph glyph-name="adieresis" unicode="&#xe4;" horiz-adv-x="1198" 
d="M975 0h-201q-39 0 -39 35q0 7 6 55q-105 -115 -331 -115q-314 0 -314 314q0 167 61.5 349.5t174.5 279.5q126 110 370 110q163 0 234 -53q9 27 18.5 36t28.5 9h55q35 0 35 -29q0 -21 -6 -45l-178 -819h110q35 0 35 -27q0 -5 -12 -67q-4 -20 -14.5 -26.5t-32.5 -6.5z
M776 266l125 592q-30 19 -87.5 31t-121.5 12q-175 0 -268 -84q-81 -71 -127.5 -214t-46.5 -281q0 -112 51 -165t168 -53q155 0 248 74q30 24 39 41q14 22 20 47zM707 1382q0 -70 -35 -100q-25 -25 -72 -25q-82 0 -82 72q0 65 33 98q30 27 76 27q80 0 80 -72zM1069 1382
q0 -70 -35 -100q-25 -25 -71 -25q-82 0 -82 72q0 68 32 98q30 27 76 27q80 0 80 -72z" />
    <glyph glyph-name="aring" unicode="&#xe5;" horiz-adv-x="1198" 
d="M975 0h-201q-39 0 -39 35q0 7 6 55q-105 -115 -331 -115q-314 0 -314 314q0 167 61.5 349.5t174.5 279.5q126 110 370 110q163 0 234 -53q9 27 18.5 36t28.5 9h55q35 0 35 -29q0 -21 -6 -45l-178 -819h110q35 0 35 -27q0 -5 -12 -67q-4 -20 -14.5 -26.5t-32.5 -6.5z
M776 266l125 592q-30 19 -87.5 31t-121.5 12q-175 0 -268 -84q-81 -71 -127.5 -214t-46.5 -281q0 -112 51 -165t168 -53q155 0 248 74q30 24 39 41q14 22 20 47zM971 1397q0 -100 -57.5 -158.5t-155.5 -58.5q-82 0 -129 46.5t-47 129.5q0 95 59 155t154 60q82 0 129 -45.5
t47 -128.5zM895 1395q0 106 -111 106q-55 0 -93 -37t-38 -100q0 -56 30 -86.5t83 -30.5q59 0 94 37t35 111z" />
    <glyph glyph-name="ae" unicode="&#xe6;" horiz-adv-x="1730" 
d="M838 121q-82 -69 -178 -107.5t-244 -38.5q-320 0 -320 314q0 100 23.5 214.5t79 232.5t131.5 182q137 114 372 114q127 0 216 -47l6 19q7 18 15.5 26t27.5 8h41q30 0 30 -26q0 -9 -6 -45l-14 -68q39 62 131 99.5t197 37.5q175 0 253 -69.5t78 -202.5q0 -93 -22 -225
q-8 -49 -27 -62q-15 -10 -47 -10h-633q-12 -80 -12 -127q0 -135 68 -186.5t217 -51.5q137 0 256 39q43 13 49 13q14 0 24 -21q15 -37 15 -57q0 -17 -9 -26t-30 -19q-137 -56 -348 -56q-139 0 -222 35.5t-118 110.5zM803 238q-4 54 -4 90q0 136 51 346l43 186q-57 41 -201 41
q-173 0 -270 -84q-81 -72 -126.5 -214t-45.5 -281q0 -111 51.5 -164.5t167.5 -53.5q208 0 334 134zM969 588h549q20 85 20 160q0 85 -45 128.5t-164 43.5q-140 0 -225 -64q-95 -72 -135 -268z" />
    <glyph glyph-name="ccedilla" unicode="&#xe7;" horiz-adv-x="933" 
d="M432 -125q170 -5 170 -151q0 -118 -65 -165.5t-201 -47.5q-70 0 -107 12q-22 5 -22 28q0 17 10 52q8 26 37 26q7 0 31 -4q36 -8 67 -8q62 0 88.5 18.5t26.5 71.5q0 68 -82 68q-7 0 -24 -1t-21 -1q-33 0 -33 34q0 17 15 60l36 115q-262 40 -262 321q0 147 48 322.5
t145 277.5q132 141 393 141q146 0 219 -24q33 -9 33 -39q0 -14 -37 -223q-5 -35 -41 -35h-55q-33 0 -33 27q0 14 16 155q-58 10 -131 10q-164 0 -252 -94q-72 -77 -111.5 -224.5t-39.5 -262.5q0 -232 242 -232q113 0 215 31q40 12 53 12q17 0 24 -20q15 -60 15 -64
q0 -16 -9.5 -25.5t-31.5 -17.5q-129 -45 -295 -45z" />
    <glyph glyph-name="egrave" unicode="&#xe8;" horiz-adv-x="1042" 
d="M258 467q-12 -64 -12 -127q0 -136 65 -186t213 -50q129 0 260 43q43 13 50 13q16 0 26 -21q17 -42 17 -67q0 -30 -39 -43q-137 -56 -357 -56q-209 0 -297 86.5t-88 266.5q0 85 18.5 186t66 214.5t116.5 182.5q129 129 365 129q176 0 252.5 -70t76.5 -204q0 -81 -24 -225
q-8 -49 -27 -62q-12 -10 -47 -10h-635zM279 588h550q23 98 23 160q0 84 -46 125.5t-165 41.5q-149 0 -221 -61q-91 -75 -141 -266zM614 1212l-225 265q-16 20 -16 36q0 25 30 25h109q27 0 49 -31l195 -264q12 -18 12 -33q0 -9 -8 -15.5t-21 -6.5h-71q-33 0 -54 24z" />
    <glyph glyph-name="eacute" unicode="&#xe9;" horiz-adv-x="1042" 
d="M258 467q-12 -64 -12 -127q0 -136 65 -186t213 -50q129 0 260 43q43 13 50 13q16 0 26 -21q17 -42 17 -67q0 -30 -39 -43q-137 -56 -357 -56q-209 0 -297 86.5t-88 266.5q0 85 18.5 186t66 214.5t116.5 182.5q129 129 365 129q176 0 252.5 -70t76.5 -204q0 -81 -24 -225
q-8 -49 -27 -62q-12 -10 -47 -10h-635zM279 588h550q23 98 23 160q0 84 -46 125.5t-165 41.5q-149 0 -221 -61q-91 -75 -141 -266zM688 1212q-21 -24 -59 -24h-68q-14 0 -21.5 7t-7.5 17q0 16 15 31l248 268q27 27 53 27h115q30 0 30 -25q0 -14 -20 -34z" />
    <glyph glyph-name="ecircumflex" unicode="&#xea;" horiz-adv-x="1042" 
d="M258 467q-12 -64 -12 -127q0 -136 65 -186t213 -50q129 0 260 43q43 13 50 13q16 0 26 -21q17 -42 17 -67q0 -30 -39 -43q-137 -56 -357 -56q-209 0 -297 86.5t-88 266.5q0 85 18.5 186t66 214.5t116.5 182.5q129 129 365 129q176 0 252.5 -70t76.5 -204q0 -81 -24 -225
q-8 -49 -27 -62q-12 -10 -47 -10h-635zM279 588h550q23 98 23 160q0 84 -46 125.5t-165 41.5q-149 0 -221 -61q-91 -75 -141 -266zM485 1174h-69q-25 0 -25 22q0 16 19 35l247 272q27 35 62 35h78q30 0 47 -31l139 -280q8 -16 8 -27q0 -26 -37 -26h-57q-33 0 -47 26
l-113 205l-196 -203q-28 -28 -56 -28z" />
    <glyph glyph-name="edieresis" unicode="&#xeb;" horiz-adv-x="1042" 
d="M258 467q-12 -64 -12 -127q0 -136 65 -186t213 -50q129 0 260 43q43 13 50 13q16 0 26 -21q17 -42 17 -67q0 -30 -39 -43q-137 -56 -357 -56q-209 0 -297 86.5t-88 266.5q0 85 18.5 186t66 214.5t116.5 182.5q129 129 365 129q176 0 252.5 -70t76.5 -204q0 -81 -24 -225
q-8 -49 -27 -62q-12 -10 -47 -10h-635zM279 588h550q23 98 23 160q0 84 -46 125.5t-165 41.5q-149 0 -221 -61q-91 -75 -141 -266zM623 1382q0 -70 -35 -100q-25 -25 -72 -25q-82 0 -82 72q0 65 33 98q30 27 76 27q80 0 80 -72zM985 1382q0 -70 -35 -100q-25 -25 -71 -25
q-82 0 -82 72q0 68 32 98q30 27 76 27q80 0 80 -72z" />
    <glyph glyph-name="igrave" unicode="&#xec;" horiz-adv-x="620" 
d="M358 1212l-225 265q-16 20 -16 36q0 25 30 25h109q27 0 49 -31l195 -264q12 -18 12 -33q0 -9 -8 -15.5t-21 -6.5h-71q-33 0 -54 24zM401 0h-356q-37 0 -37 27q0 10 15 65q8 35 47 35h96l162 754h-105q-35 0 -35 26q0 5 1.5 12t5 23t6.5 33q8 35 49 35h209q35 0 35 -31
q0 -2 -7 -37l-174 -815h111q21 0 29 -6t8 -23q0 -16 -12 -65q-4 -20 -14.5 -26.5t-33.5 -6.5z" />
    <glyph glyph-name="iacute" unicode="&#xed;" horiz-adv-x="620" 
d="M414 1212q-21 -24 -60 -24h-67q-14 0 -21.5 7t-7.5 17q0 17 14 31l248 268q27 27 53 27h115q31 0 31 -25q0 -13 -21 -34zM401 0h-356q-37 0 -37 27q0 10 15 65q8 35 47 35h96l162 754h-105q-35 0 -35 26q0 5 1.5 12t5 23t6.5 33q8 35 49 35h209q35 0 35 -31q0 -2 -7 -37
l-174 -815h111q21 0 29 -6t8 -23q0 -16 -12 -65q-4 -20 -14.5 -26.5t-33.5 -6.5z" />
    <glyph glyph-name="icircumflex" unicode="&#xee;" horiz-adv-x="620" 
d="M401 0h-356q-37 0 -37 27q0 10 15 65q8 35 47 35h96l162 754h-105q-35 0 -35 26q0 5 1.5 12t5 23t6.5 33q8 35 49 35h209q35 0 35 -31q0 -2 -7 -37l-174 -815h111q21 0 29 -6t8 -23q0 -16 -12 -65q-4 -20 -14.5 -26.5t-33.5 -6.5zM203 1174h-70q-24 0 -24 22q0 17 18 35
l248 272q27 35 61 35h78q30 0 47 -31l139 -280q9 -18 9 -27q0 -26 -37 -26h-58q-33 0 -47 26l-112 205l-197 -203q-28 -28 -55 -28z" />
    <glyph glyph-name="idieresis" unicode="&#xef;" horiz-adv-x="620" 
d="M342 1382q0 -70 -35 -100q-25 -25 -71 -25q-82 0 -82 72q0 66 32 98q30 27 76 27q80 0 80 -72zM705 1382q0 -70 -35 -100q-25 -25 -72 -25q-82 0 -82 72q0 67 33 98q30 27 76 27q80 0 80 -72zM401 0h-356q-37 0 -37 27q0 10 15 65q8 35 47 35h96l162 754h-105
q-35 0 -35 26q0 5 1.5 12t5 23t6.5 33q8 35 49 35h209q35 0 35 -31q0 -2 -7 -37l-174 -815h111q21 0 29 -6t8 -23q0 -16 -12 -65q-4 -20 -14.5 -26.5t-33.5 -6.5z" />
    <glyph glyph-name="eth" unicode="&#xf0;" horiz-adv-x="1130" 
d="M1110 1421l-149 -88q104 -142 104 -399q0 -215 -41 -438t-135 -361q-108 -160 -391 -160q-72 0 -127.5 7.5t-109 29t-88.5 57.5t-56 95t-21 139q0 143 46.5 315t136.5 273q119 135 362 135q97 0 176 -23t109 -77q-3 226 -86 331l-187 -108q-26 -16 -39 -16t-26 22
q-23 35 -23 49q0 18 25 31l168 98q-53 36 -115 54.5t-158 27.5q-30 3 -30 31q0 29 12 59q7 25 37 25q42 0 65 -2q197 -20 318 -117l162 96q19 13 34 13q14 0 23 -15q27 -39 27 -53q0 -17 -23 -31zM897 702q0 63 -19.5 104.5t-59 61.5t-83.5 27.5t-108 7.5q-164 0 -242 -96
q-63 -78 -99 -235t-36 -257q0 -122 64.5 -167.5t199.5 -45.5q194 0 266 121q49 82 83 238t34 241z" />
    <glyph glyph-name="ntilde" unicode="&#xf1;" horiz-adv-x="1249" 
d="M401 0h-356q-37 0 -37 27q0 11 15 65q8 35 47 35h96l162 754h-105q-35 0 -35 26q0 4 1.5 11t5 23.5t6.5 33.5q8 35 49 35h201q21 0 28.5 -7.5t7.5 -25.5q0 -27 -12 -74q36 67 141.5 99t217.5 32q53 0 96 -8t80.5 -27t58.5 -53.5t21 -83.5q0 -69 -21 -174l-123 -561h107
q20 0 28.5 -5.5t8.5 -19.5q0 -20 -13 -71q-4 -19 -13.5 -25t-31.5 -6h-215q-33 0 -33 29q0 6 4 30l134 623q14 69 14 119q0 56 -40.5 78t-117.5 22q-153 0 -260 -55q-28 -14 -47 -39q-18 -22 -27 -64l-133 -616h113q20 0 28.5 -6t8.5 -21q0 -23 -12 -67q-4 -20 -14.5 -26.5
t-33.5 -6.5zM506 1229h-47q-31 0 -31 24q0 25 16 52q41 84 86 126t109 42q18 0 40.5 -8.5t37.5 -16.5t61 -35q74 -45 113 -45q26 0 44.5 15.5t43.5 62.5q19 37 51 37h43q35 0 35 -25q0 -21 -16 -53q-78 -176 -193 -176q-36 0 -68 10.5t-86 42.5q-80 47 -106 47
q-24 0 -43 -15.5t-41 -56.5q-9 -17 -18.5 -22.5t-30.5 -5.5z" />
    <glyph glyph-name="ograve" unicode="&#xf2;" horiz-adv-x="1116" 
d="M1040 729q0 -125 -42.5 -307t-118.5 -289q-113 -160 -385 -160q-71 0 -126.5 8t-108.5 29.5t-87.5 57.5t-55 95.5t-20.5 139.5q0 140 50 318.5t139 279.5q124 137 358 137q72 0 124 -5.5t107 -24t88.5 -51t55.5 -90.5t22 -138zM891 705q0 64 -19 105.5t-57.5 62t-82 27.5
t-107.5 7q-156 0 -236 -98q-63 -79 -101 -237.5t-38 -256.5q0 -123 62.5 -168t197.5 -45q184 0 260 125q49 81 85 238.5t36 239.5zM668 1212l-226 265q-16 20 -16 36q0 25 31 25h108q27 0 49 -31l195 -264q12 -18 12 -33q0 -22 -28 -22h-72q-32 0 -53 24z" />
    <glyph glyph-name="oacute" unicode="&#xf3;" horiz-adv-x="1116" 
d="M1040 729q0 -125 -42.5 -307t-118.5 -289q-113 -160 -385 -160q-71 0 -126.5 8t-108.5 29.5t-87.5 57.5t-55 95.5t-20.5 139.5q0 140 50 318.5t139 279.5q124 137 358 137q72 0 124 -5.5t107 -24t88.5 -51t55.5 -90.5t22 -138zM891 705q0 64 -19 105.5t-57.5 62t-82 27.5
t-107.5 7q-156 0 -236 -98q-63 -79 -101 -237.5t-38 -256.5q0 -123 62.5 -168t197.5 -45q184 0 260 125q49 81 85 238.5t36 239.5zM717 1212q-21 -24 -60 -24h-67q-14 0 -21.5 7t-7.5 17q0 17 14 31l248 268q27 27 54 27h114q31 0 31 -25q0 -13 -21 -34z" />
    <glyph glyph-name="ocircumflex" unicode="&#xf4;" horiz-adv-x="1116" 
d="M1040 729q0 -125 -42.5 -307t-118.5 -289q-113 -160 -385 -160q-71 0 -126.5 8t-108.5 29.5t-87.5 57.5t-55 95.5t-20.5 139.5q0 140 50 318.5t139 279.5q124 137 358 137q72 0 124 -5.5t107 -24t88.5 -51t55.5 -90.5t22 -138zM891 705q0 64 -19 105.5t-57.5 62t-82 27.5
t-107.5 7q-156 0 -236 -98q-63 -79 -101 -237.5t-38 -256.5q0 -123 62.5 -168t197.5 -45q184 0 260 125q49 81 85 238.5t36 239.5zM506 1174h-70q-24 0 -24 22q0 17 18 35l248 272q27 35 61 35h78q30 0 47 -31l140 -280q8 -16 8 -27q0 -26 -37 -26h-57q-34 0 -48 26
l-112 205l-197 -203q-28 -28 -55 -28z" />
    <glyph glyph-name="otilde" unicode="&#xf5;" horiz-adv-x="1116" 
d="M1040 729q0 -125 -42.5 -307t-118.5 -289q-113 -160 -385 -160q-71 0 -126.5 8t-108.5 29.5t-87.5 57.5t-55 95.5t-20.5 139.5q0 140 50 318.5t139 279.5q124 137 358 137q72 0 124 -5.5t107 -24t88.5 -51t55.5 -90.5t22 -138zM891 705q0 64 -19 105.5t-57.5 62t-82 27.5
t-107.5 7q-156 0 -236 -98q-63 -79 -101 -237.5t-38 -256.5q0 -123 62.5 -168t197.5 -45q184 0 260 125q49 81 85 238.5t36 239.5zM479 1229h-47q-31 0 -31 24t17 52q41 85 85.5 126.5t108.5 41.5q18 0 40.5 -8.5t39 -17.5t60.5 -34q74 -45 112 -45q26 0 44.5 15.5
t43.5 62.5q19 37 52 37h43q34 0 34 -25q0 -21 -16 -53q-78 -176 -193 -176q-36 0 -67 10.5t-86 42.5q-80 47 -107 47q-24 0 -43 -15.5t-41 -56.5q-9 -17 -18.5 -22.5t-30.5 -5.5z" />
    <glyph glyph-name="odieresis" unicode="&#xf6;" horiz-adv-x="1116" 
d="M1040 729q0 -125 -42.5 -307t-118.5 -289q-113 -160 -385 -160q-71 0 -126.5 8t-108.5 29.5t-87.5 57.5t-55 95.5t-20.5 139.5q0 140 50 318.5t139 279.5q124 137 358 137q72 0 124 -5.5t107 -24t88.5 -51t55.5 -90.5t22 -138zM891 705q0 64 -19 105.5t-57.5 62t-82 27.5
t-107.5 7q-156 0 -236 -98q-63 -79 -101 -237.5t-38 -256.5q0 -123 62.5 -168t197.5 -45q184 0 260 125q49 81 85 238.5t36 239.5zM659 1382q0 -71 -34 -100q-25 -25 -72 -25q-82 0 -82 72q0 65 33 98q30 27 76 27q39 0 59 -16.5t20 -55.5zM1022 1382q0 -70 -35 -100
q-25 -25 -72 -25q-81 0 -81 72q0 68 32 98q30 27 76 27q80 0 80 -72z" />
    <glyph glyph-name="divide" unicode="&#xf7;" horiz-adv-x="1435" 
d="M920 961q0 -48 -26 -82.5t-75 -34.5q-32 0 -53 18.5t-21 55.5q0 54 26.5 83t70.5 29q31 0 54.5 -17.5t23.5 -51.5zM1253 545h-989q-33 0 -33 35q0 5 7 49q9 37 41 37h989q35 0 35 -33q0 -19 -7 -53q-9 -35 -43 -35zM774 285q0 -48 -26 -81.5t-74 -33.5q-32 0 -53 17.5
t-21 54.5q0 53 26 82.5t70 29.5q32 0 55 -16.5t23 -52.5z" />
    <glyph glyph-name="oslash" unicode="&#xf8;" horiz-adv-x="1116" 
d="M145 -47q-1 -1 -5 -5.5t-6 -6t-6 -3t-9 -1.5q-16 0 -39 26q-14 14 -14 25q0 9 12 24l72 84q-54 76 -54 207q0 143 48.5 320t138.5 278q121 137 360 137q187 0 275 -49l75 88q10 15 25 15q10 0 24 -11q27 -21 27 -37q0 -11 -10 -24l-76 -88q57 -69 57 -203
q0 -125 -42 -306.5t-117 -289.5q-113 -160 -387 -160q-183 0 -279 60zM891 705q0 55 -19 98l-561 -656q58 -45 199 -45q92 0 158 27t106 94q50 82 83.5 239t33.5 243zM250 315q0 -48 10 -90l555 645q-56 37 -190 37q-159 0 -240 -96q-64 -77 -99.5 -235t-35.5 -261z" />
    <glyph glyph-name="ugrave" unicode="&#xf9;" horiz-adv-x="1249" 
d="M1014 0h-203q-41 0 -41 35q0 13 8 53q-118 -113 -336 -113q-53 0 -98.5 9t-87 29t-65 58.5t-23.5 92.5q0 59 22 166l119 551h-100q-35 0 -35 26q0 16 12 68q8 35 50 35h206q33 0 33 -29q0 -1 -6 -37l-129 -608q-16 -82 -16 -115q0 -115 184 -115q145 0 237 62
q33 21 48 43q16 24 24 63l131 607h-102q-33 0 -33 26q0 16 12 68q8 35 47 35h205q35 0 35 -31q0 -15 -4 -35l-178 -817h108q37 0 37 -27q0 -20 -12 -67q-4 -19 -15 -26t-34 -7zM666 1217l-226 264q-16 20 -16 37q0 24 31 24h108q27 0 49 -31l195 -264q12 -18 12 -33
q0 -22 -28 -22h-72q-31 0 -53 25z" />
    <glyph glyph-name="uacute" unicode="&#xfa;" horiz-adv-x="1249" 
d="M1014 0h-203q-41 0 -41 35q0 13 8 53q-118 -113 -336 -113q-53 0 -98.5 9t-87 29t-65 58.5t-23.5 92.5q0 59 22 166l119 551h-100q-35 0 -35 26q0 16 12 68q8 35 50 35h206q33 0 33 -29q0 -1 -6 -37l-129 -608q-16 -82 -16 -115q0 -115 184 -115q145 0 237 62
q33 21 48 43q16 24 24 63l131 607h-102q-33 0 -33 26q0 16 12 68q8 35 47 35h205q35 0 35 -31q0 -15 -4 -35l-178 -817h108q37 0 37 -27q0 -20 -12 -67q-4 -19 -15 -26t-34 -7zM729 1212q-21 -24 -59 -24h-68q-14 0 -21.5 7t-7.5 17q0 16 15 31l248 268q27 27 53 27h115
q30 0 30 -25q0 -14 -20 -34z" />
    <glyph glyph-name="ucircumflex" unicode="&#xfb;" horiz-adv-x="1249" 
d="M1014 0h-203q-41 0 -41 35q0 13 8 53q-118 -113 -336 -113q-53 0 -98.5 9t-87 29t-65 58.5t-23.5 92.5q0 59 22 166l119 551h-100q-35 0 -35 26q0 16 12 68q8 35 50 35h206q33 0 33 -29q0 -1 -6 -37l-129 -608q-16 -82 -16 -115q0 -115 184 -115q145 0 237 62
q33 21 48 43q16 24 24 63l131 607h-102q-33 0 -33 26q0 16 12 68q8 35 47 35h205q35 0 35 -31q0 -15 -4 -35l-178 -817h108q37 0 37 -27q0 -20 -12 -67q-4 -19 -15 -26t-34 -7zM520 1174h-69q-25 0 -25 22q0 17 18 35l248 272q27 35 62 35h77q31 0 48 -31l139 -280
q8 -16 8 -27q0 -26 -37 -26h-57q-33 0 -47 26l-113 205l-197 -203q-28 -28 -55 -28z" />
    <glyph glyph-name="udieresis" unicode="&#xfc;" horiz-adv-x="1249" 
d="M1014 0h-203q-41 0 -41 35q0 13 8 53q-118 -113 -336 -113q-53 0 -98.5 9t-87 29t-65 58.5t-23.5 92.5q0 59 22 166l119 551h-100q-35 0 -35 26q0 16 12 68q8 35 50 35h206q33 0 33 -29q0 -1 -6 -37l-129 -608q-16 -82 -16 -115q0 -115 184 -115q145 0 237 62
q33 21 48 43q16 24 24 63l131 607h-102q-33 0 -33 26q0 16 12 68q8 35 47 35h205q35 0 35 -31q0 -15 -4 -35l-178 -817h108q37 0 37 -27q0 -20 -12 -67q-4 -19 -15 -26t-34 -7zM662 1382q0 -70 -35 -100q-25 -25 -72 -25q-82 0 -82 72q0 65 33 98q30 27 76 27q80 0 80 -72z
M1024 1382q0 -70 -35 -100q-25 -25 -71 -25q-82 0 -82 72q0 68 32 98q30 27 76 27q80 0 80 -72z" />
    <glyph glyph-name="yacute" unicode="&#xfd;" horiz-adv-x="1058" 
d="M1077 881h-59l-563 -928q-7 -11 -38 -62t-41 -67t-36 -56.5t-40 -60.5t-34 -46.5t-37 -45.5q-108 -127 -284 -127q-74 0 -101 8q-30 9 -30 33q0 42 18 78q10 18 35 18q4 0 35 -3t51 -3q54 0 95.5 17.5t80.5 62.5q62 74 190 287l23 37l-156 858h-67q-35 0 -35 26
q0 28 12 68q11 35 49 35h320q37 0 37 -29q0 -20 -13 -68q-6 -20 -15.5 -26t-33.5 -6h-110q109 -636 119 -699q20 35 72.5 127.5t131.5 226.5t207 345h-104q-35 0 -35 26q0 16 12 68q8 35 47 35h320q37 0 37 -29q0 -23 -13 -68q-6 -19 -16 -25.5t-31 -6.5zM680 1212
q-21 -24 -59 -24h-68q-14 0 -21.5 7t-7.5 17q0 16 15 31l247 268q27 27 54 27h114q31 0 31 -25q0 -14 -20 -34z" />
    <glyph glyph-name="thorn" unicode="&#xfe;" horiz-adv-x="1173" 
d="M268 -500h-374q-35 0 -35 27q0 5 12 67q8 33 49 33h88l381 1778h-104q-35 0 -35 27q0 12 12 67q8 33 49 33h201q24 0 32.5 -7.5t8.5 -23.5q0 -17 -4 -37l-117 -530q116 98 332 98q153 0 232 -73t79 -230q0 -134 -43 -300t-119 -269q-71 -98 -172.5 -134t-259.5 -36
q-73 0 -140 16.5t-95 38.5l-92 -418h139q19 0 27 -5.5t8 -20.5q0 -20 -13 -68q-4 -20 -14.5 -26.5t-32.5 -6.5zM272 166q24 -19 86.5 -35t122.5 -16q118 0 190.5 26.5t119.5 87.5q59 76 95 216.5t36 250.5q0 103 -53.5 154t-174.5 51q-139 0 -241 -55q-29 -13 -39 -33
q-8 -15 -15 -45z" />
    <glyph glyph-name="ydieresis" unicode="&#xff;" horiz-adv-x="1058" 
d="M1077 881h-59l-563 -928q-7 -11 -38 -62t-41 -67t-36 -56.5t-40 -60.5t-34 -46.5t-37 -45.5q-108 -127 -284 -127q-74 0 -101 8q-30 9 -30 33q0 42 18 78q10 18 35 18q4 0 35 -3t51 -3q54 0 95.5 17.5t80.5 62.5q62 74 190 287l23 37l-156 858h-67q-35 0 -35 26
q0 28 12 68q11 35 49 35h320q37 0 37 -29q0 -20 -13 -68q-6 -20 -15.5 -26t-33.5 -6h-110q109 -636 119 -699q20 35 72.5 127.5t131.5 226.5t207 345h-104q-35 0 -35 26q0 16 12 68q8 35 47 35h320q37 0 37 -29q0 -23 -13 -68q-6 -19 -16 -25.5t-31 -6.5zM580 1382
q0 -70 -35 -100q-25 -25 -72 -25q-82 0 -82 72q0 65 33 98q30 27 76 27q80 0 80 -72zM942 1382q0 -70 -35 -100q-25 -25 -71 -25q-82 0 -82 72q0 68 32 98q30 27 76 27q80 0 80 -72z" />
    <glyph glyph-name="Amacron" unicode="&#x100;" horiz-adv-x="1370" 
d="M342 0h-381q-35 0 -35 27q0 14 13 67q8 35 49 35h80l739 1282q23 39 57 39h72q22 0 32.5 -8.5t14.5 -34.5l191 -1278h79q20 0 28.5 -6t8.5 -23q0 -23 -12 -67q-4 -19 -15 -26t-34 -7h-369q-35 0 -35 27q0 5 15 67q8 35 47 35h135l-53 346h-531l-205 -346h132
q19 0 27.5 -6t8.5 -23q0 -23 -12 -67q-6 -20 -15.5 -26.5t-31.5 -6.5zM866 1247q-15 -26 -65.5 -117t-122.5 -218.5t-174 -305.5h452q-51 343 -90 641zM1186 1624h-512q-31 0 -31 27q0 30 14 71q5 18 14 25.5t29 7.5h506q33 0 33 -26q0 -22 -12 -72q-6 -20 -14.5 -26.5
t-26.5 -6.5z" />
    <glyph glyph-name="amacron" unicode="&#x101;" horiz-adv-x="1198" 
d="M975 0h-201q-39 0 -39 35q0 7 6 55q-105 -115 -331 -115q-314 0 -314 314q0 167 61.5 349.5t174.5 279.5q126 110 370 110q163 0 234 -53q9 27 18.5 36t28.5 9h55q35 0 35 -29q0 -21 -6 -45l-178 -819h110q35 0 35 -27q0 -5 -12 -67q-4 -20 -14.5 -26.5t-32.5 -6.5z
M776 266l125 592q-30 19 -87.5 31t-121.5 12q-175 0 -268 -84q-81 -71 -127.5 -214t-46.5 -281q0 -112 51 -165t168 -53q155 0 248 74q30 24 39 41q14 22 20 47zM989 1253h-467q-30 0 -30 27q0 30 12 74q5 19 13.5 25.5t29.5 6.5h463q32 0 32 -26q0 -38 -12 -76
q-4 -18 -13 -24.5t-28 -6.5z" />
    <glyph glyph-name="Abreve" unicode="&#x102;" horiz-adv-x="1370" 
d="M342 0h-381q-35 0 -35 27q0 14 13 67q8 35 49 35h80l739 1282q23 39 57 39h72q22 0 32.5 -8.5t14.5 -34.5l191 -1278h79q20 0 28.5 -6t8.5 -23q0 -23 -12 -67q-4 -19 -15 -26t-34 -7h-369q-35 0 -35 27q0 5 15 67q8 35 47 35h135l-53 346h-531l-205 -346h132
q19 0 27.5 -6t8.5 -23q0 -23 -12 -67q-6 -20 -15.5 -26.5t-31.5 -6.5zM866 1247q-15 -26 -65.5 -117t-122.5 -218.5t-174 -305.5h452q-51 343 -90 641zM1227 1853q26 0 26 -30q0 -27 -18 -74q-75 -193 -313 -193q-136 0 -203.5 57t-67.5 159q0 34 6 55q7 26 37 26h47
q30 0 33 -28q0 -6 1 -18.5t1 -18.5q0 -53 39.5 -81t112.5 -28q93 0 140 35.5t69 106.5q5 17 13 24.5t28 7.5h49z" />
    <glyph glyph-name="abreve" unicode="&#x103;" horiz-adv-x="1198" 
d="M975 0h-201q-39 0 -39 35q0 7 6 55q-105 -115 -331 -115q-314 0 -314 314q0 167 61.5 349.5t174.5 279.5q126 110 370 110q163 0 234 -53q9 27 18.5 36t28.5 9h55q35 0 35 -29q0 -21 -6 -45l-178 -819h110q35 0 35 -27q0 -5 -12 -67q-4 -20 -14.5 -26.5t-32.5 -6.5z
M776 266l125 592q-30 19 -87.5 31t-121.5 12q-175 0 -268 -84q-81 -71 -127.5 -214t-46.5 -281q0 -112 51 -165t168 -53q155 0 248 74q30 24 39 41q14 22 20 47zM1022 1481q27 0 27 -31t-17 -78q-77 -201 -307 -201q-125 0 -187.5 58t-62.5 153q0 42 6 66q7 33 35 33h41
q29 0 29 -29q0 -35 2 -45q5 -55 40.5 -83t110.5 -28q91 0 133.5 38.5t65.5 117.5q9 29 39 29h45z" />
    <glyph glyph-name="Aogonek" unicode="&#x104;" horiz-adv-x="1370" 
d="M342 0h-381q-35 0 -35 27q0 14 13 67q8 35 49 35h80l739 1282q23 39 57 39h72q22 0 32.5 -8.5t14.5 -34.5l191 -1278h79q20 0 28.5 -6t8.5 -23q0 -23 -12 -67q-4 -19 -15 -26t-34 -7h-88q-102 -66 -161.5 -132.5t-59.5 -148.5q0 -88 98 -88q25 0 57 5.5t37 5.5
q25 0 31 -25q6 -20 6 -51q-3 -26 -33 -35q-52 -14 -139 -14q-205 0 -205 176q0 101 61 172.5t173 134.5h-146q-35 0 -35 27q0 5 15 67q8 35 47 35h135l-53 346h-531l-205 -346h132q19 0 27.5 -6t8.5 -23q0 -23 -12 -67q-6 -20 -15.5 -26.5t-31.5 -6.5zM866 1247
q-15 -26 -65.5 -117t-122.5 -218.5t-174 -305.5h452q-51 343 -90 641z" />
    <glyph glyph-name="aogonek" unicode="&#x105;" horiz-adv-x="1198" 
d="M975 0h-72q-99 -65 -155 -126.5t-56 -137.5q0 -86 96 -86q23 0 55 5t36 5q20 0 26 -22q6 -20 6 -50q0 -23 -28 -32q-55 -15 -135 -15q-197 0 -197 168q0 65 31.5 121t77 93.5t114.5 76.5q-39 0 -39 35q0 7 6 55q-105 -115 -331 -115q-314 0 -314 314q0 167 61.5 349.5
t174.5 279.5q126 110 370 110q163 0 234 -53q9 27 18.5 36t28.5 9h55q35 0 35 -29q0 -21 -6 -45l-178 -819h110q35 0 35 -27q0 -5 -12 -67q-4 -20 -14.5 -26.5t-32.5 -6.5zM776 266l125 592q-30 19 -87.5 31t-121.5 12q-175 0 -268 -84q-81 -71 -127.5 -214t-46.5 -281
q0 -112 51 -165t168 -53q155 0 248 74q30 24 39 41q14 22 20 47z" />
    <glyph glyph-name="Cacute" unicode="&#x106;" horiz-adv-x="1253" 
d="M1118 1319q-85 18 -246 18q-219 0 -348 -139q-102 -112 -159.5 -331.5t-57.5 -407.5q0 -348 334 -348q116 0 189.5 10t148.5 33q56 18 63 18q11 0 17 -6.5t14 -24.5q14 -40 14 -59q0 -14 -10.5 -24t-42.5 -21q-189 -64 -420 -64q-467 0 -467 463q0 130 27 281.5t88 308.5
t144 254q89 101 212 148t306 47q161 0 313 -35q39 -10 39 -45q0 -32 -39 -244q-5 -31 -39 -31h-63q-33 0 -33 31q0 7 16 168zM913 1581q-25 -20 -63 -20h-82q-29 0 -29 24q0 20 21 35l299 219q39 27 63 27h127q31 0 31 -25q0 -24 -23 -39z" />
    <glyph glyph-name="cacute" unicode="&#x107;" horiz-adv-x="933" 
d="M784 905q-58 10 -131 10q-164 0 -252 -94q-72 -77 -111.5 -224.5t-39.5 -262.5q0 -232 242 -232q113 0 215 31q40 12 53 12q17 0 24 -20q15 -60 15 -64q0 -16 -9.5 -25.5t-31.5 -17.5q-129 -45 -297 -45q-365 0 -365 330q0 147 48 322.5t145 277.5q132 141 393 141
q146 0 219 -24q33 -9 33 -39q0 -14 -37 -223q-5 -35 -41 -35h-55q-33 0 -33 27q0 14 16 155zM705 1212q-21 -24 -60 -24h-67q-14 0 -21.5 7t-7.5 17q0 17 14 31l248 268q27 27 53 27h115q31 0 31 -25q0 -13 -21 -34z" />
    <glyph glyph-name="Ccircumflex" unicode="&#x108;" horiz-adv-x="1253" 
d="M1118 1319q-85 18 -246 18q-219 0 -348 -139q-102 -112 -159.5 -331.5t-57.5 -407.5q0 -348 334 -348q116 0 189.5 10t148.5 33q56 18 63 18q11 0 17 -6.5t14 -24.5q14 -40 14 -59q0 -14 -10.5 -24t-42.5 -21q-189 -64 -420 -64q-467 0 -467 463q0 130 27 281.5t88 308.5
t144 254q89 101 212 148t306 47q161 0 313 -35q39 -10 39 -45q0 -32 -39 -244q-5 -31 -39 -31h-63q-33 0 -33 31q0 7 16 168zM682 1561h-70q-26 0 -26 24q0 18 18 33l250 209q45 35 72 35h69q29 0 56 -31l176 -213q10 -13 10 -29q0 -28 -37 -28h-53q-31 0 -57 26l-148 139
l-197 -137q-18 -12 -25 -16.5t-17 -8t-21 -3.5z" />
    <glyph glyph-name="ccircumflex" unicode="&#x109;" horiz-adv-x="933" 
d="M784 905q-58 10 -131 10q-164 0 -252 -94q-72 -77 -111.5 -224.5t-39.5 -262.5q0 -232 242 -232q113 0 215 31q40 12 53 12q17 0 24 -20q15 -60 15 -64q0 -16 -9.5 -25.5t-31.5 -17.5q-129 -45 -297 -45q-365 0 -365 330q0 147 48 322.5t145 277.5q132 141 393 141
q146 0 219 -24q33 -9 33 -39q0 -14 -37 -223q-5 -35 -41 -35h-55q-33 0 -33 27q0 14 16 155zM465 1174h-70q-24 0 -24 22q0 17 18 35l248 272q27 35 61 35h78q30 0 47 -31l140 -280q8 -16 8 -27q0 -26 -37 -26h-57q-34 0 -48 26l-112 205l-197 -203q-28 -28 -55 -28z" />
    <glyph glyph-name="Cdotaccent" unicode="&#x10a;" horiz-adv-x="1253" 
d="M1118 1319q-85 18 -246 18q-219 0 -348 -139q-102 -112 -159.5 -331.5t-57.5 -407.5q0 -348 334 -348q116 0 189.5 10t148.5 33q56 18 63 18q11 0 17 -6.5t14 -24.5q14 -40 14 -59q0 -14 -10.5 -24t-42.5 -21q-189 -64 -420 -64q-467 0 -467 463q0 130 27 281.5t88 308.5
t144 254q89 101 212 148t306 47q161 0 313 -35q39 -10 39 -45q0 -32 -39 -244q-5 -31 -39 -31h-63q-33 0 -33 31q0 7 16 168zM1028 1710q0 -70 -35 -100q-28 -25 -71 -25q-84 0 -84 72q0 66 32 98q27 27 76 27q82 0 82 -72z" />
    <glyph glyph-name="cdotaccent" unicode="&#x10b;" horiz-adv-x="933" 
d="M784 905q-58 10 -131 10q-164 0 -252 -94q-72 -77 -111.5 -224.5t-39.5 -262.5q0 -232 242 -232q113 0 215 31q40 12 53 12q17 0 24 -20q15 -60 15 -64q0 -16 -9.5 -25.5t-31.5 -17.5q-129 -45 -297 -45q-365 0 -365 330q0 147 48 322.5t145 277.5q132 141 393 141
q146 0 219 -24q33 -9 33 -39q0 -14 -37 -223q-5 -35 -41 -35h-55q-33 0 -33 27q0 14 16 155zM795 1382q0 -70 -35 -100q-28 -25 -72 -25q-84 0 -84 72q0 65 33 98q30 27 76 27q82 0 82 -72z" />
    <glyph glyph-name="Ccaron" unicode="&#x10c;" horiz-adv-x="1253" 
d="M1118 1319q-85 18 -246 18q-219 0 -348 -139q-102 -112 -159.5 -331.5t-57.5 -407.5q0 -348 334 -348q116 0 189.5 10t148.5 33q56 18 63 18q11 0 17 -6.5t14 -24.5q14 -40 14 -59q0 -14 -10.5 -24t-42.5 -21q-189 -64 -420 -64q-467 0 -467 463q0 130 27 281.5t88 308.5
t144 254q89 101 212 148t306 47q161 0 313 -35q39 -10 39 -45q0 -32 -39 -244q-5 -31 -39 -31h-63q-33 0 -33 31q0 7 16 168zM1171 1862h70q27 0 27 -25q0 -19 -19 -35l-250 -207q-39 -34 -71 -34h-70q-34 0 -55 28l-176 215q-11 15 -11 29q0 29 37 29h56q26 0 55 -29
l147 -137l197 137q39 29 63 29z" />
    <glyph glyph-name="ccaron" unicode="&#x10d;" horiz-adv-x="933" 
d="M784 905q-58 10 -131 10q-164 0 -252 -94q-72 -77 -111.5 -224.5t-39.5 -262.5q0 -232 242 -232q113 0 215 31q40 12 53 12q17 0 24 -20q15 -60 15 -64q0 -16 -9.5 -25.5t-31.5 -17.5q-129 -45 -297 -45q-365 0 -365 330q0 147 48 322.5t145 277.5q132 141 393 141
q146 0 219 -24q33 -9 33 -39q0 -14 -37 -223q-5 -35 -41 -35h-55q-33 0 -33 27q0 14 16 155zM928 1538h69q25 0 25 -22q0 -17 -18 -35l-248 -273q-27 -34 -62 -34h-78q-34 0 -47 30l-139 281q-6 12 -6 28q0 25 35 25h57q30 0 45 -27l115 -204l194 202q25 29 58 29z" />
    <glyph glyph-name="Dcaron" unicode="&#x10e;" horiz-adv-x="1456" 
d="M500 0h-437q-32 0 -32 27q0 6 12 67q8 35 47 35h103l253 1188h-112q-33 0 -33 26q0 24 10 70q9 33 49 33h441q225 0 362 -43q126 -39 192 -148.5t66 -273.5q0 -113 -13 -220.5t-48 -222.5t-88.5 -208t-140.5 -168.5t-199 -112.5q-76 -24 -203.5 -36.5t-228.5 -12.5z
M348 129h193q245 0 364 51q96 40 168.5 128.5t111 200.5t57 223t18.5 220q0 238 -150 316q-95 49 -330 49h-178zM1130 1862h70q27 0 27 -25q0 -19 -19 -35l-250 -207q-39 -34 -71 -34h-70q-34 0 -55 28l-176 215q-11 15 -11 29q0 29 37 29h56q26 0 55 -29l147 -137l197 137
q39 29 63 29z" />
    <glyph glyph-name="dcaron" unicode="&#x10f;" horiz-adv-x="1169" 
d="M979 0h-207q-37 0 -37 27q0 7 2.5 30t3.5 33q-104 -115 -331 -115q-314 0 -314 314q0 163 59.5 349t170.5 280q129 110 379 110q144 0 221 -41l92 418h-105q-32 0 -32 27q0 12 10 67q5 33 49 33h199q23 0 32 -7t9 -26q0 -15 -6 -45l-285 -1327h112q20 0 28.5 -5.5
t8.5 -19.5q0 -22 -12 -71q-4 -19 -14 -25t-33 -6zM776 266l125 596q-28 17 -87.5 29t-123.5 12q-169 0 -268 -86q-80 -71 -126 -214t-46 -281q0 -111 51.5 -164.5t167.5 -53.5q75 0 131.5 16.5t114.5 55.5q26 20 41 43q14 24 20 47zM1485 1530q39 0 39 -39q0 -35 -21 -96
q-54 -161 -157 -254q-27 -27 -54 -27q-26 0 -49 19q-18 15 -18 30q0 14 20 39q101 112 123 271q7 57 55 57h62z" />
    <glyph glyph-name="Dcroat" unicode="&#x110;" horiz-adv-x="1456" 
d="M500 0h-437q-32 0 -32 27q0 6 12 67q8 35 47 35h103l120 567h-170q-30 0 -30 27q0 15 12 68q5 19 13.5 26.5t29.5 7.5h172l106 492h-112q-33 0 -33 26q0 24 10 70q9 33 49 33h441q225 0 362 -43q126 -39 192 -148.5t66 -273.5q0 -113 -13 -220.5t-48 -222.5t-88.5 -208
t-140.5 -168.5t-199 -112.5q-76 -24 -203.5 -36.5t-228.5 -12.5zM348 129h193q245 0 364 51q96 40 168.5 128.5t111 200.5t57 223t18.5 220q0 238 -150 316q-95 49 -330 49h-178l-106 -492h317q33 0 33 -26q0 -15 -15 -70q-4 -20 -13.5 -26.5t-29.5 -6.5h-319z" />
    <glyph glyph-name="dcroat" unicode="&#x111;" horiz-adv-x="1169" 
d="M979 0h-207q-37 0 -37 27q0 7 2.5 30t3.5 33q-104 -115 -331 -115q-314 0 -314 314q0 163 59.5 349t170.5 280q129 110 379 110q144 0 221 -41l37 168h-236q-33 0 -33 27q0 9 11 55q7 33 43 33h239l31 135h-105q-32 0 -32 27q0 12 10 67q5 33 49 33h199q23 0 32 -7t9 -26
q0 -15 -6 -45l-41 -184h94q33 0 33 -27q0 -11 -11 -57q-7 -31 -45 -31h-96l-219 -1028h112q20 0 28.5 -5.5t8.5 -19.5q0 -22 -12 -71q-4 -19 -14 -25t-33 -6zM776 266l125 596q-28 17 -87.5 29t-123.5 12q-169 0 -268 -86q-80 -71 -126 -214t-46 -281q0 -111 51.5 -164.5
t167.5 -53.5q75 0 131.5 16.5t114.5 55.5q26 20 41 43q14 24 20 47z" />
    <glyph glyph-name="Emacron" unicode="&#x112;" horiz-adv-x="1212" 
d="M987 0h-924q-32 0 -32 27q0 8 12 69q8 35 47 35h103l256 1186h-115q-33 0 -33 26q0 19 10 70q11 33 49 33h842q20 0 27.5 -7.5t7.5 -25.5q0 -6 -41 -246q-5 -32 -37 -32h-67q-31 0 -31 30q0 14 16 152h-475l-106 -498h483q37 0 37 -26q0 -20 -12 -74q-7 -33 -52 -33h-485
l-119 -555h563l39 143q10 37 41 37h64q32 0 32 -28q0 -22 -45 -234q-6 -31 -15.5 -40t-39.5 -9zM1075 1624h-512q-31 0 -31 27t15 71q5 18 14 25.5t29 7.5h506q18 0 25 -6t7 -20q0 -22 -12 -72q-6 -20 -14.5 -26.5t-26.5 -6.5z" />
    <glyph glyph-name="emacron" unicode="&#x113;" horiz-adv-x="1042" 
d="M258 467q-12 -64 -12 -127q0 -136 65 -186t213 -50q129 0 260 43q43 13 50 13q16 0 26 -21q17 -42 17 -67q0 -30 -39 -43q-137 -56 -357 -56q-209 0 -297 86.5t-88 266.5q0 85 18.5 186t66 214.5t116.5 182.5q129 129 365 129q176 0 252.5 -70t76.5 -204q0 -81 -24 -225
q-8 -49 -27 -62q-12 -10 -47 -10h-635zM279 588h550q23 98 23 160q0 84 -46 125.5t-165 41.5q-149 0 -221 -61q-91 -75 -141 -266zM922 1253h-467q-31 0 -31 27q0 30 12 74q5 19 13.5 25.5t29.5 6.5h463q33 0 33 -26q0 -38 -12 -76q-4 -18 -13 -24.5t-28 -6.5z" />
    <glyph glyph-name="Ebreve" unicode="&#x114;" horiz-adv-x="1212" 
d="M987 0h-924q-32 0 -32 27q0 8 12 69q8 35 47 35h103l256 1186h-115q-33 0 -33 26q0 19 10 70q11 33 49 33h842q20 0 27.5 -7.5t7.5 -25.5q0 -6 -41 -246q-5 -32 -37 -32h-67q-31 0 -31 30q0 14 16 152h-475l-106 -498h483q37 0 37 -26q0 -20 -12 -74q-7 -33 -52 -33h-485
l-119 -555h563l39 143q10 37 41 37h64q32 0 32 -28q0 -22 -45 -234q-6 -31 -15.5 -40t-39.5 -9zM1122 1853q27 0 27 -30q0 -25 -19 -74q-75 -193 -313 -193q-136 0 -203 57t-67 159q0 34 6 55q7 26 37 26h47q30 0 33 -28q0 -6 1 -18.5t1 -18.5q0 -54 39 -81.5t112 -27.5
q93 0 140 35.5t69 106.5q5 17 13 24.5t28 7.5h49z" />
    <glyph glyph-name="ebreve" unicode="&#x115;" horiz-adv-x="1042" 
d="M258 467q-12 -64 -12 -127q0 -136 65 -186t213 -50q129 0 260 43q43 13 50 13q16 0 26 -21q17 -42 17 -67q0 -30 -39 -43q-137 -56 -357 -56q-209 0 -297 86.5t-88 266.5q0 85 18.5 186t66 214.5t116.5 182.5q129 129 365 129q176 0 252.5 -70t76.5 -204q0 -81 -24 -225
q-8 -49 -27 -62q-12 -10 -47 -10h-635zM279 588h550q23 98 23 160q0 84 -46 125.5t-165 41.5q-149 0 -221 -61q-91 -75 -141 -266zM952 1481q27 0 27 -31q0 -34 -16 -78q-77 -201 -308 -201q-125 0 -187 58t-62 153q0 42 6 66q7 33 34 33h41q29 0 29 -29q0 -35 2 -45
q5 -55 41 -83t111 -28q91 0 133 38.5t65 117.5q9 29 39 29h45z" />
    <glyph glyph-name="Edotaccent" unicode="&#x116;" horiz-adv-x="1212" 
d="M987 0h-924q-32 0 -32 27q0 8 12 69q8 35 47 35h103l256 1186h-115q-33 0 -33 26q0 19 10 70q11 33 49 33h842q20 0 27.5 -7.5t7.5 -25.5q0 -6 -41 -246q-5 -32 -37 -32h-67q-31 0 -31 30q0 14 16 152h-475l-106 -498h483q37 0 37 -26q0 -20 -12 -74q-7 -33 -52 -33h-485
l-119 -555h563l39 143q10 37 41 37h64q32 0 32 -28q0 -22 -45 -234q-6 -31 -15.5 -40t-39.5 -9zM940 1710q0 -70 -35 -100q-28 -25 -71 -25q-84 0 -84 72q0 66 32 98q27 27 76 27q82 0 82 -72z" />
    <glyph glyph-name="edotaccent" unicode="&#x117;" horiz-adv-x="1042" 
d="M258 467q-12 -64 -12 -127q0 -136 65 -186t213 -50q129 0 260 43q43 13 50 13q16 0 26 -21q17 -42 17 -67q0 -30 -39 -43q-137 -56 -357 -56q-209 0 -297 86.5t-88 266.5q0 85 18.5 186t66 214.5t116.5 182.5q129 129 365 129q176 0 252.5 -70t76.5 -204q0 -81 -24 -225
q-8 -49 -27 -62q-12 -10 -47 -10h-635zM279 588h550q23 98 23 160q0 84 -46 125.5t-165 41.5q-149 0 -221 -61q-91 -75 -141 -266zM774 1382q0 -70 -35 -100q-28 -25 -71 -25q-84 0 -84 72q0 66 32 98q30 27 76 27q82 0 82 -72z" />
    <glyph glyph-name="Eogonek" unicode="&#x118;" horiz-adv-x="1212" 
d="M987 0h-45q-102 -66 -161.5 -132.5t-59.5 -148.5q0 -88 98 -88q25 0 57 5.5t37 5.5q25 0 31 -25q6 -20 6 -51q-3 -26 -32 -35q-52 -14 -140 -14q-205 0 -205 176q0 101 61 172.5t173 134.5h-744q-32 0 -32 27q0 8 12 69q8 35 47 35h103l256 1186h-115q-33 0 -33 26
q0 19 10 70q11 33 49 33h842q20 0 27.5 -7.5t7.5 -25.5q0 -6 -41 -246q-5 -32 -37 -32h-67q-31 0 -31 30q0 14 16 152h-475l-106 -498h483q37 0 37 -26q0 -20 -12 -74q-7 -33 -52 -33h-485l-119 -555h563l39 143q10 37 41 37h64q32 0 32 -28q0 -22 -45 -234
q-6 -31 -15.5 -40t-39.5 -9z" />
    <glyph glyph-name="eogonek" unicode="&#x119;" horiz-adv-x="1042" 
d="M258 467q-12 -64 -12 -127q0 -136 65 -186t213 -50q129 0 260 43q43 13 50 13q16 0 26 -21q17 -42 17 -67q0 -30 -39 -43q-65 -25 -121 -35q-94 -62 -148.5 -123t-54.5 -135q0 -86 96 -86q23 0 54.5 5t35.5 5q21 0 27 -22q6 -20 6 -50q0 -23 -28 -32q-56 -15 -136 -15
q-196 0 -196 168q0 86 46.5 148.5t133.5 117.5q-13 0 -37 -1t-35 -1q-209 0 -297 86.5t-88 266.5q0 85 18.5 186t66 214.5t116.5 182.5q129 129 365 129q176 0 252.5 -70t76.5 -204q0 -81 -24 -225q-8 -49 -27 -62q-12 -10 -47 -10h-635zM279 588h550q23 98 23 160
q0 84 -46 125.5t-165 41.5q-149 0 -221 -61q-91 -75 -141 -266z" />
    <glyph glyph-name="Ecaron" unicode="&#x11a;" horiz-adv-x="1212" 
d="M987 0h-924q-32 0 -32 27q0 8 12 69q8 35 47 35h103l256 1186h-115q-33 0 -33 26q0 19 10 70q11 33 49 33h842q20 0 27.5 -7.5t7.5 -25.5q0 -6 -41 -246q-5 -32 -37 -32h-67q-31 0 -31 30q0 14 16 152h-475l-106 -498h483q37 0 37 -26q0 -20 -12 -74q-7 -33 -52 -33h-485
l-119 -555h563l39 143q10 37 41 37h64q32 0 32 -28q0 -22 -45 -234q-6 -31 -15.5 -40t-39.5 -9zM1098 1862h69q27 0 27 -25q0 -20 -18 -35l-250 -207q-39 -34 -72 -34h-70q-34 0 -55 28l-176 215q-10 13 -10 29q0 29 37 29h55q26 0 55 -29l148 -137l196 137q39 29 64 29z
" />
    <glyph glyph-name="ecaron" unicode="&#x11b;" horiz-adv-x="1042" 
d="M258 467q-12 -64 -12 -127q0 -136 65 -186t213 -50q129 0 260 43q43 13 50 13q16 0 26 -21q17 -42 17 -67q0 -30 -39 -43q-137 -56 -357 -56q-209 0 -297 86.5t-88 266.5q0 85 18.5 186t66 214.5t116.5 182.5q129 129 365 129q176 0 252.5 -70t76.5 -204q0 -81 -24 -225
q-8 -49 -27 -62q-12 -10 -47 -10h-635zM279 588h550q23 98 23 160q0 84 -46 125.5t-165 41.5q-149 0 -221 -61q-91 -75 -141 -266zM930 1538h69q25 0 25 -22q0 -17 -18 -35l-248 -273q-27 -34 -62 -34h-78q-34 0 -47 30l-139 281q-6 12 -6 28q0 25 35 25h57q30 0 45 -27
l115 -204l194 202q25 29 58 29z" />
    <glyph glyph-name="Gcircumflex" unicode="&#x11c;" horiz-adv-x="1368" 
d="M1167 127q-6 -30 -18 -46t-39 -28q-185 -80 -467 -80q-232 0 -362.5 111.5t-130.5 345.5q0 220 69 467.5t197 390.5q86 96 213 140.5t311 44.5q90 0 188 -11t150 -26q22 -7 30.5 -15t8.5 -28q0 -21 -37 -242q-5 -33 -39 -33h-67q-31 0 -31 31q0 19 20 166
q-101 22 -272 22q-236 0 -361 -135q-71 -76 -123 -215t-75 -275.5t-23 -254.5q0 -346 363 -346q214 0 352 53l92 420h-317q-33 0 -33 22q0 29 12 78q4 20 14 26.5t31 6.5h418q43 0 43 -31q0 -23 -6 -47zM721 1561h-70q-26 0 -26 24q0 18 18 33l250 209q45 35 72 35h69
q29 0 56 -31l176 -213q10 -13 10 -29q0 -28 -37 -28h-53q-32 0 -58 26l-147 139l-197 -137q-18 -12 -25 -16.5t-17 -8t-21 -3.5z" />
    <glyph glyph-name="gcircumflex" unicode="&#x11d;" horiz-adv-x="1021" 
d="M147 31q-60 20 -86 57t-26 100q0 91 44.5 158.5t129.5 95.5q-47 57 -47 160q0 268 186 377q103 57 273 57q105 0 176 -26h270q37 0 37 -31q0 -30 -6 -61q-8 -37 -49 -37h-140q39 -51 39 -125q0 -94 -30 -180.5t-91 -143.5q-111 -100 -321 -100q-99 0 -166 26
q-47 15 -57 15q-27 0 -52 -19q-26 -18 -41.5 -54.5t-15.5 -72.5q0 -67 47 -82q47 -12 301 -12q229 0 321.5 -49.5t92.5 -179.5q0 -120 -36.5 -201.5t-110 -127t-169.5 -64.5t-231 -19q-101 0 -178.5 16t-122.5 41.5t-73.5 61.5t-38 70t-9.5 73q0 104 43 171t137 106z
M786 -139q0 68 -55 102t-199 37q-86 2 -182 2q-65 0 -92 -10q-147 -52 -147 -203q0 -172 297 -172q46 0 80 1.5t76 7t71.5 16t60 28.5t49 43.5t30 63t11.5 84.5zM813 752q0 92 -54 127.5t-163 35.5q-112 0 -170 -32q-63 -34 -93 -106.5t-30 -158.5q0 -51 17 -85.5
t49.5 -51.5t68.5 -23.5t84 -6.5q143 0 213 65q78 75 78 236zM446 1174h-69q-25 0 -25 22q0 16 19 35l247 272q27 35 62 35h78q30 0 47 -31l139 -280q8 -16 8 -27q0 -26 -37 -26h-57q-33 0 -47 26l-113 205l-196 -203q-28 -28 -56 -28z" />
    <glyph glyph-name="Gbreve" unicode="&#x11e;" horiz-adv-x="1368" 
d="M1167 127q-6 -30 -18 -46t-39 -28q-185 -80 -467 -80q-232 0 -362.5 111.5t-130.5 345.5q0 220 69 467.5t197 390.5q86 96 213 140.5t311 44.5q90 0 188 -11t150 -26q22 -7 30.5 -15t8.5 -28q0 -21 -37 -242q-5 -33 -39 -33h-67q-31 0 -31 31q0 19 20 166
q-101 22 -272 22q-236 0 -361 -135q-71 -76 -123 -215t-75 -275.5t-23 -254.5q0 -346 363 -346q214 0 352 53l92 420h-317q-33 0 -33 22q0 29 12 78q4 20 14 26.5t31 6.5h418q43 0 43 -31q0 -23 -6 -47zM1239 1853q27 0 27 -30q0 -25 -19 -74q-75 -193 -313 -193
q-136 0 -203 57t-67 159q0 34 6 55q7 26 37 26h47q29 0 32 -28q0 -6 1 -18.5t1 -18.5q0 -53 39.5 -81t112.5 -28q93 0 140 35.5t69 106.5q5 17 13 24.5t28 7.5h49z" />
    <glyph glyph-name="gbreve" unicode="&#x11f;" horiz-adv-x="1021" 
d="M147 31q-60 20 -86 57t-26 100q0 91 44.5 158.5t129.5 95.5q-47 57 -47 160q0 268 186 377q103 57 273 57q105 0 176 -26h270q37 0 37 -31q0 -30 -6 -61q-8 -37 -49 -37h-140q39 -51 39 -125q0 -94 -30 -180.5t-91 -143.5q-111 -100 -321 -100q-99 0 -166 26
q-47 15 -57 15q-27 0 -52 -19q-26 -18 -41.5 -54.5t-15.5 -72.5q0 -67 47 -82q47 -12 301 -12q229 0 321.5 -49.5t92.5 -179.5q0 -120 -36.5 -201.5t-110 -127t-169.5 -64.5t-231 -19q-101 0 -178.5 16t-122.5 41.5t-73.5 61.5t-38 70t-9.5 73q0 104 43 171t137 106z
M786 -139q0 68 -55 102t-199 37q-86 2 -182 2q-65 0 -92 -10q-147 -52 -147 -203q0 -172 297 -172q46 0 80 1.5t76 7t71.5 16t60 28.5t49 43.5t30 63t11.5 84.5zM813 752q0 92 -54 127.5t-163 35.5q-112 0 -170 -32q-63 -34 -93 -106.5t-30 -158.5q0 -51 17 -85.5
t49.5 -51.5t68.5 -23.5t84 -6.5q143 0 213 65q78 75 78 236zM924 1481q26 0 26 -31q0 -34 -16 -78q-77 -201 -307 -201q-125 0 -187.5 58t-62.5 153q0 42 6 66q7 33 35 33h41q28 0 28 -29q0 -35 2 -45q5 -55 41 -83t111 -28q91 0 133.5 38.5t65.5 117.5q9 29 39 29h45z" />
    <glyph glyph-name="Gdotaccent" unicode="&#x120;" horiz-adv-x="1368" 
d="M1167 127q-6 -30 -18 -46t-39 -28q-185 -80 -467 -80q-232 0 -362.5 111.5t-130.5 345.5q0 220 69 467.5t197 390.5q86 96 213 140.5t311 44.5q90 0 188 -11t150 -26q22 -7 30.5 -15t8.5 -28q0 -21 -37 -242q-5 -33 -39 -33h-67q-31 0 -31 31q0 19 20 166
q-101 22 -272 22q-236 0 -361 -135q-71 -76 -123 -215t-75 -275.5t-23 -254.5q0 -346 363 -346q214 0 352 53l92 420h-317q-33 0 -33 22q0 29 12 78q4 20 14 26.5t31 6.5h418q43 0 43 -31q0 -23 -6 -47zM1047 1710q0 -70 -35 -100q-28 -25 -72 -25q-84 0 -84 72q0 65 33 98
q27 27 76 27q82 0 82 -72z" />
    <glyph glyph-name="gdotaccent" unicode="&#x121;" horiz-adv-x="1021" 
d="M147 31q-60 20 -86 57t-26 100q0 91 44.5 158.5t129.5 95.5q-47 57 -47 160q0 268 186 377q103 57 273 57q105 0 176 -26h270q37 0 37 -31q0 -30 -6 -61q-8 -37 -49 -37h-140q39 -51 39 -125q0 -94 -30 -180.5t-91 -143.5q-111 -100 -321 -100q-99 0 -166 26
q-47 15 -57 15q-27 0 -52 -19q-26 -18 -41.5 -54.5t-15.5 -72.5q0 -67 47 -82q47 -12 301 -12q229 0 321.5 -49.5t92.5 -179.5q0 -120 -36.5 -201.5t-110 -127t-169.5 -64.5t-231 -19q-101 0 -178.5 16t-122.5 41.5t-73.5 61.5t-38 70t-9.5 73q0 104 43 171t137 106z
M786 -139q0 68 -55 102t-199 37q-86 2 -182 2q-65 0 -92 -10q-147 -52 -147 -203q0 -172 297 -172q46 0 80 1.5t76 7t71.5 16t60 28.5t49 43.5t30 63t11.5 84.5zM813 752q0 92 -54 127.5t-163 35.5q-112 0 -170 -32q-63 -34 -93 -106.5t-30 -158.5q0 -51 17 -85.5
t49.5 -51.5t68.5 -23.5t84 -6.5q143 0 213 65q78 75 78 236zM729 1382q0 -70 -35 -100q-28 -25 -71 -25q-84 0 -84 72q0 66 32 98q30 27 76 27q82 0 82 -72z" />
    <glyph glyph-name="Gcommaaccent" unicode="&#x122;" horiz-adv-x="1368" 
d="M1167 127q-6 -30 -18 -46t-39 -28q-185 -80 -467 -80q-232 0 -362.5 111.5t-130.5 345.5q0 220 69 467.5t197 390.5q86 96 213 140.5t311 44.5q90 0 188 -11t150 -26q22 -7 30.5 -15t8.5 -28q0 -21 -37 -242q-5 -33 -39 -33h-67q-31 0 -31 31q0 19 20 166
q-101 22 -272 22q-236 0 -361 -135q-71 -76 -123 -215t-75 -275.5t-23 -254.5q0 -346 363 -346q214 0 352 53l92 420h-317q-33 0 -33 22q0 29 12 78q4 20 14 26.5t31 6.5h418q43 0 43 -31q0 -23 -6 -47zM696 -141q39 0 39 -41q0 -39 -20 -97q-55 -160 -158 -253
q-27 -27 -53 -27q-25 0 -49 20q-19 16 -19 31q0 6 2.5 11.5t4.5 9t7.5 9.5t6.5 7q102 112 123 272q7 58 55 58h61z" />
    <glyph glyph-name="gcommaaccent" unicode="&#x123;" horiz-adv-x="1021" 
d="M147 31q-60 20 -86 57t-26 100q0 91 44.5 158.5t129.5 95.5q-47 57 -47 160q0 268 186 377q103 57 273 57q105 0 176 -26h270q37 0 37 -31q0 -24 -6 -57q-6 -35 -49 -35h-140q39 -51 39 -131q0 -94 -30 -180.5t-91 -143.5q-111 -100 -321 -100q-99 0 -166 26
q-47 15 -57 15q-27 0 -52 -19q-26 -18 -41.5 -54.5t-15.5 -72.5q0 -67 47 -82q39 -10 301 -10q229 0 321.5 -50.5t92.5 -180.5q0 -120 -36.5 -201.5t-110 -127t-169.5 -64.5t-231 -19q-101 0 -178.5 16t-122.5 41.5t-73.5 61.5t-38 70t-9.5 73q0 104 43 171t137 106z
M786 -139q0 68 -55 103t-199 38q-86 2 -182 2q-65 0 -92 -10q-147 -52 -147 -205q0 -172 297 -172q49 0 82.5 1.5t76.5 6.5t71.5 15t59 28t48 43.5t29 63.5t11.5 86zM813 752q0 92 -54 127.5t-163 35.5q-112 0 -170 -32q-63 -34 -93 -106.5t-30 -158.5q0 -51 17 -85.5
t49.5 -51.5t68.5 -23.5t84 -6.5q143 0 213 65q78 75 78 236zM629 1184h-45q-39 0 -39 41q0 37 24 104q53 151 160 244q25 22 43 22q21 0 37 -16q16 -13 16 -29q0 -12 -20 -37q-101 -113 -123 -272q-7 -57 -53 -57z" />
    <glyph glyph-name="Hcircumflex" unicode="&#x124;" horiz-adv-x="1509" 
d="M442 0h-379q-32 0 -32 27q0 8 12 69q4 19 14.5 26t32.5 7h103l253 1188h-112q-33 0 -33 26q0 21 10 70q9 33 49 33h375q37 0 37 -27q0 -17 -14 -69q-4 -20 -14.5 -26.5t-32.5 -6.5h-109l-106 -500h669l109 500h-115q-35 0 -35 26q0 10 13 70q9 33 49 33h375q36 0 36 -27
q0 -25 -12 -69q-4 -19 -15 -26t-34 -7h-109l-256 -1188h119q37 0 37 -27q0 -25 -12 -69q-4 -19 -15 -26t-32 -7h-377q-35 0 -35 27q0 8 12 69q4 19 14.5 26t32.5 7h103l119 557h-670l-121 -557h119q37 0 37 -27q0 -21 -13 -69q-4 -20 -14.5 -26.5t-32.5 -6.5zM750 1561h-70
q-27 0 -27 24q0 17 19 33l250 209q45 35 71 35h70q28 0 55 -31l176 -213q11 -15 11 -29q0 -28 -37 -28h-54q-31 0 -57 26l-147 139l-197 -137q-18 -12 -25 -16.5t-17 -8t-21 -3.5z" />
    <glyph glyph-name="hcircumflex" unicode="&#x125;" horiz-adv-x="1189" 
d="M377 0h-359q-34 0 -34 27q0 14 12 67q4 19 14.5 26t32.5 7h96l273 1278h-101q-35 0 -35 27q0 11 13 67q9 33 49 33h201q39 0 39 -29q0 -5 -7 -45l-118 -549q41 66 143.5 95.5t210.5 29.5q53 0 96.5 -8t81 -27t59 -53.5t21.5 -83.5q0 -59 -23 -174l-120 -561h104
q39 0 39 -25q0 -27 -12 -71q-6 -19 -15.5 -25t-31.5 -6h-211q-37 0 -37 31q0 5 6 41l131 610q14 69 14 119q0 57 -39 78.5t-122 21.5q-156 0 -261 -59q-29 -15 -47 -43q-11 -14 -20 -56l-133 -616h112q37 0 37 -27q0 -23 -12 -67q-4 -19 -15 -26t-32 -7zM303 1589h-70
q-26 0 -26 25q0 18 18 33l250 208q45 35 72 35h69q30 0 56 -30l176 -213q10 -13 10 -29q0 -29 -37 -29h-53q-30 0 -57 27l-148 139l-196 -137q-19 -13 -25.5 -17t-17 -8t-21.5 -4z" />
    <glyph glyph-name="Hbar" unicode="&#x126;" horiz-adv-x="1509" 
d="M442 0h-379q-32 0 -32 27q0 8 12 69q4 19 14.5 26t32.5 7h103l184 864h-137q-29 0 -29 27q0 21 10 65q5 19 14 27t29 8h139l43 197h-112q-33 0 -33 26q0 21 10 70q9 33 49 33h375q37 0 37 -27q0 -17 -14 -69q-4 -20 -14.5 -26.5t-32.5 -6.5h-109l-43 -197h672l43 197
h-115q-35 0 -35 26q0 10 13 70q9 33 49 33h375q36 0 36 -27q0 -25 -12 -69q-4 -19 -15 -26t-34 -7h-109l-43 -197h129q33 0 33 -24q0 -11 -14 -72q-6 -19 -15.5 -25t-29.5 -6h-129l-187 -864h119q37 0 37 -27q0 -25 -12 -69q-4 -19 -15 -26t-32 -7h-377q-35 0 -35 27
q0 8 12 69q4 19 14.5 26t32.5 7h103l119 557h-670l-121 -557h119q37 0 37 -27q0 -21 -13 -69q-4 -20 -14.5 -26.5t-32.5 -6.5zM496 817h669l37 176h-670z" />
    <glyph glyph-name="hbar" unicode="&#x127;" horiz-adv-x="1189" 
d="M377 0h-359q-34 0 -34 27q0 14 12 67q4 19 14.5 26t32.5 7h96l219 1028h-125q-32 0 -32 27q0 13 10 55q7 33 43 33h129l29 135h-101q-35 0 -35 27q0 11 13 67q9 33 49 33h201q39 0 39 -29q0 -5 -7 -45l-41 -188h203q33 0 33 -27q0 -15 -10 -57q-7 -31 -45 -31h-205
l-53 -246q41 66 143.5 95.5t210.5 29.5q53 0 96.5 -8t81 -27t59 -53.5t21.5 -83.5q0 -59 -23 -174l-120 -561h104q39 0 39 -25q0 -27 -12 -71q-6 -19 -15.5 -25t-31.5 -6h-211q-37 0 -37 31q0 5 6 41l131 610q14 69 14 119q0 57 -39 78.5t-122 21.5q-156 0 -261 -59
q-29 -15 -47 -43q-11 -14 -20 -56l-133 -616h112q37 0 37 -27q0 -23 -12 -67q-4 -19 -15 -26t-32 -7z" />
    <glyph glyph-name="Itilde" unicode="&#x128;" horiz-adv-x="684" 
d="M193 129l253 1188h-112q-33 0 -33 26q0 21 10 70q9 33 49 33h375q37 0 37 -27q0 -17 -14 -69q-4 -20 -14.5 -26.5t-32.5 -6.5h-109l-254 -1188h117q37 0 37 -27q0 -21 -13 -69q-4 -20 -14.5 -26.5t-32.5 -6.5h-379q-32 0 -32 27q0 8 12 69q4 19 14.5 26t32.5 7h103z
M313 1581h-47q-30 0 -30 27q0 16 14 51q43 84 89.5 126t111.5 42q45 0 147 -60q79 -47 119 -47q28 0 46.5 15t43.5 63q12 21 22.5 30t28.5 9h45q35 0 35 -27q0 -19 -16 -51q-42 -90 -90.5 -133t-110.5 -43q-37 0 -70.5 10t-87.5 41q-76 47 -112 47q-26 0 -46.5 -15
t-42.5 -56q-14 -29 -49 -29z" />
    <glyph glyph-name="itilde" unicode="&#x129;" horiz-adv-x="620" 
d="M170 1229h-47q-31 0 -31 24t17 52q41 85 85.5 126.5t108.5 41.5q18 0 40.5 -8.5t37.5 -16.5t61 -35q74 -45 113 -45q26 0 44.5 15.5t43.5 62.5q19 37 51 37h43q35 0 35 -25q0 -21 -16 -53q-78 -176 -193 -176q-36 0 -67 10.5t-86 42.5q-80 47 -107 47q-24 0 -43 -15.5
t-41 -56.5q-9 -17 -18.5 -22.5t-30.5 -5.5zM401 0h-356q-37 0 -37 27q0 10 15 65q8 35 47 35h96l162 754h-105q-35 0 -35 26q0 5 1.5 12t5 23t6.5 33q8 35 49 35h209q35 0 35 -31q0 -2 -7 -37l-174 -815h111q21 0 29 -6t8 -23q0 -16 -12 -65q-4 -20 -14.5 -26.5t-33.5 -6.5z
" />
    <glyph glyph-name="Imacron" unicode="&#x12a;" horiz-adv-x="684" 
d="M193 129l253 1188h-112q-33 0 -33 26q0 21 10 70q9 33 49 33h375q37 0 37 -27q0 -17 -14 -69q-4 -20 -14.5 -26.5t-32.5 -6.5h-109l-254 -1188h117q37 0 37 -27q0 -21 -13 -69q-4 -20 -14.5 -26.5t-32.5 -6.5h-379q-32 0 -32 27q0 8 12 69q4 19 14.5 26t32.5 7h103z
M825 1624h-512q-30 0 -30 27q0 30 14 71q5 18 14 25.5t29 7.5h506q33 0 33 -26q0 -18 -13 -72q-6 -20 -14.5 -26.5t-26.5 -6.5z" />
    <glyph glyph-name="imacron" unicode="&#x12b;" horiz-adv-x="620" 
d="M664 1253h-467q-31 0 -31 27q0 30 12 74q5 19 13.5 25.5t29.5 6.5h463q33 0 33 -26q0 -38 -12 -76q-4 -18 -13 -24.5t-28 -6.5zM401 0h-356q-37 0 -37 27q0 10 15 65q8 35 47 35h96l162 754h-105q-35 0 -35 26q0 5 1.5 12t5 23t6.5 33q8 35 49 35h209q35 0 35 -31
q0 -2 -7 -37l-174 -815h111q21 0 29 -6t8 -23q0 -16 -12 -65q-4 -20 -14.5 -26.5t-33.5 -6.5z" />
    <glyph glyph-name="Ibreve" unicode="&#x12c;" horiz-adv-x="684" 
d="M193 129l253 1188h-112q-33 0 -33 26q0 21 10 70q9 33 49 33h375q37 0 37 -27q0 -17 -14 -69q-4 -20 -14.5 -26.5t-32.5 -6.5h-109l-254 -1188h117q37 0 37 -27q0 -21 -13 -69q-4 -20 -14.5 -26.5t-32.5 -6.5h-379q-32 0 -32 27q0 8 12 69q4 19 14.5 26t32.5 7h103z
M872 1853q27 0 27 -30q0 -27 -18 -74q-75 -193 -314 -193q-136 0 -203 57t-67 159q0 34 6 55q7 26 37 26h47q30 0 33 -28q0 -6 1 -18.5t1 -18.5q0 -54 39 -81.5t112 -27.5q93 0 140 35.5t69 106.5q5 17 13 24.5t28 7.5h49z" />
    <glyph glyph-name="ibreve" unicode="&#x12d;" horiz-adv-x="620" 
d="M684 1481q27 0 27 -31t-17 -78q-77 -201 -307 -201q-125 0 -187.5 58t-62.5 153q0 42 6 66q7 33 35 33h41q29 0 29 -29q0 -35 2 -45q5 -55 40.5 -83t110.5 -28q91 0 133.5 38.5t65.5 117.5q9 29 39 29h45zM401 0h-356q-37 0 -37 27q0 10 15 65q8 35 47 35h96l162 754
h-105q-35 0 -35 26q0 5 1.5 12t5 23t6.5 33q8 35 49 35h209q35 0 35 -31q0 -2 -7 -37l-174 -815h111q21 0 29 -6t8 -23q0 -16 -12 -65q-4 -20 -14.5 -26.5t-33.5 -6.5z" />
    <glyph glyph-name="Iogonek" unicode="&#x12e;" horiz-adv-x="684" 
d="M442 0h-102q-102 -66 -161.5 -132.5t-59.5 -148.5q0 -88 98 -88q25 0 57 5.5t37 5.5q25 0 31 -25q6 -20 6 -51q-3 -26 -33 -35q-52 -14 -139 -14q-205 0 -205 176q0 101 61 172.5t173 134.5h-142q-32 0 -32 27q0 8 12 69q4 19 14.5 26t32.5 7h103l253 1188h-112
q-33 0 -33 26q0 19 10 70q9 33 49 33h375q37 0 37 -27q0 -17 -14 -69q-4 -20 -14.5 -26.5t-32.5 -6.5h-107l-258 -1188h119q37 0 37 -27q0 -21 -13 -69q-4 -20 -14.5 -26.5t-32.5 -6.5z" />
    <glyph glyph-name="iogonek" unicode="&#x12f;" horiz-adv-x="620" 
d="M401 0h-102q-99 -65 -155 -126.5t-56 -137.5q0 -86 96 -86q23 0 54.5 5t35.5 5q21 0 27 -22q6 -20 6 -50q0 -23 -28 -32q-55 -15 -136 -15q-196 0 -196 168q0 65 31.5 121t77 93.5t114.5 76.5h-125q-37 0 -37 27q0 12 15 67q4 19 14.5 26t32.5 7h96l162 754h-105
q-35 0 -35 26q0 4 1.5 11t5 23.5t6.5 33.5q8 35 49 35h209q35 0 35 -31q0 -2 -7 -37l-174 -815h111q20 0 28.5 -6t8.5 -21q0 -23 -12 -67q-6 -20 -16 -26.5t-32 -6.5zM567 1386q0 -78 -39 -112q-29 -23 -75 -23q-91 0 -91 76q0 77 35 109q32 26 82 26q43 0 65.5 -16.5
t22.5 -59.5z" />
    <glyph glyph-name="Idotaccent" unicode="&#x130;" horiz-adv-x="684" 
d="M684 1710q0 -70 -35 -100q-28 -25 -71 -25q-84 0 -84 72q0 66 32 98q27 27 76 27q82 0 82 -72zM193 129l253 1188h-112q-33 0 -33 26q0 21 10 70q9 33 49 33h375q37 0 37 -27q0 -17 -14 -69q-4 -20 -14.5 -26.5t-32.5 -6.5h-109l-254 -1188h117q37 0 37 -27
q0 -21 -13 -69q-4 -20 -14.5 -26.5t-32.5 -6.5h-379q-32 0 -32 27q0 8 12 69q4 19 14.5 26t32.5 7h103z" />
    <glyph glyph-name="dotlessi" unicode="&#x131;" horiz-adv-x="620" 
d="M401 0h-356q-37 0 -37 27q0 10 15 65q8 35 47 35h96l162 754h-105q-35 0 -35 26q0 5 1.5 12t5 23t6.5 33q8 35 49 35h209q35 0 35 -31q0 -2 -7 -37l-174 -815h111q21 0 29 -6t8 -23q0 -16 -12 -65q-4 -20 -14.5 -26.5t-33.5 -6.5z" />
    <glyph glyph-name="IJ" unicode="&#x132;" horiz-adv-x="1355" 
d="M193 129l253 1188h-112q-33 0 -33 26q0 21 10 70q9 33 49 33h375q37 0 37 -27q0 -17 -14 -69q-4 -20 -14.5 -26.5t-32.5 -6.5h-109l-254 -1188h117q37 0 37 -27q0 -21 -13 -69q-4 -20 -14.5 -26.5t-32.5 -6.5h-379q-32 0 -32 27q0 8 12 69q4 19 14.5 26t32.5 7h103z
M1040 143q-22 -105 -50 -165t-75 -103q-92 -86 -268 -86q-55 0 -84 6q-24 7 -24 35q0 24 10 66q10 30 43 30q2 0 31 -2t45 -2q88 0 135 41q31 26 50 69.5t36 125.5l250 1159h-133q-37 0 -37 26q0 15 14 70q9 33 47 33h385q37 0 37 -27q0 -13 -12 -69q-4 -19 -15 -26t-34 -7
h-101z" />
    <glyph glyph-name="ij" unicode="&#x133;" horiz-adv-x="1163" 
d="M401 0h-356q-37 0 -37 27q0 12 15 67q4 19 14.5 26t32.5 7h96l162 754h-105q-35 0 -35 26q0 4 1.5 11t5 23.5t6.5 33.5q8 35 49 35h209q35 0 35 -31q0 -2 -7 -37l-174 -815h111q20 0 28.5 -6t8.5 -21q0 -23 -12 -67q-6 -20 -16 -26.5t-32 -6.5zM567 1386q0 -78 -39 -112
q-29 -23 -75 -23q-91 0 -91 76q0 77 35 109q32 26 82 26q43 0 65.5 -16.5t22.5 -59.5zM825 -162q-22 -106 -50 -166.5t-73 -97.5q-101 -84 -305 -84q-51 0 -51 35q0 23 12 63q4 18 16.5 25.5t37.5 7.5q125 0 182 41q60 45 86 172l225 1047h-106q-35 0 -35 26q0 1 12 66
q9 37 49 37h207q35 0 35 -29q0 -19 -4 -35zM1141 1386q0 -78 -39 -112q-29 -23 -76 -23q-90 0 -90 76q0 77 35 109q33 26 82 26q43 0 65.5 -16.5t22.5 -59.5z" />
    <glyph glyph-name="Jcircumflex" unicode="&#x134;" horiz-adv-x="669" 
d="M358 143q-22 -105 -50 -165t-75 -103q-92 -86 -268 -86q-55 0 -84 6q-24 7 -24 35q0 24 10 66q10 30 43 30q2 0 31 -2t45 -2q88 0 135 41q31 26 50 69.5t36 125.5l250 1159h-133q-37 0 -37 26q0 15 14 70q9 33 47 33h385q37 0 37 -27q0 -13 -12 -69q-4 -19 -15 -26
t-34 -7h-101zM334 1561h-70q-26 0 -26 24q0 18 18 33l250 209q45 35 72 35h69q28 0 55 -31l177 -213q10 -13 10 -29q0 -28 -37 -28h-53q-32 0 -58 26l-147 139l-197 -137q-18 -12 -25 -16.5t-17 -8t-21 -3.5z" />
    <glyph glyph-name="jcircumflex" unicode="&#x135;" horiz-adv-x="548" 
d="M209 -162q-22 -106 -50 -166.5t-73 -97.5q-101 -84 -305 -84q-51 0 -51 35q0 23 12 63q4 18 15.5 24.5t37.5 6.5q122 0 182 43q60 45 86 172l226 1047h-107q-35 0 -35 26q0 5 1.5 12t5 23t6.5 33q8 35 49 35h207q35 0 35 -29q0 -15 -5 -35zM141 1174h-69q-25 0 -25 22
q0 16 19 35l247 272q27 35 62 35h78q30 0 47 -31l139 -280q8 -16 8 -27q0 -26 -37 -26h-57q-33 0 -47 26l-113 205l-196 -203q-28 -28 -56 -28z" />
    <glyph glyph-name="Kcommaaccent" unicode="&#x136;" horiz-adv-x="1335" 
d="M467 684l-121 -555h119q37 0 37 -27q0 -21 -13 -69q-4 -20 -14.5 -26.5t-32.5 -6.5h-379q-32 0 -32 27q0 8 12 69q4 19 14.5 26t32.5 7h103l253 1188h-112q-33 0 -33 26q0 21 10 70q9 33 49 33h375q37 0 37 -27q0 -17 -14 -69q-4 -20 -14.5 -26.5t-32.5 -6.5h-107
l-108 -500h116q70 0 99 37l385 463h-72q-35 0 -35 26q0 21 12 70q9 33 50 33h360q35 0 35 -27q0 -25 -12 -69q-4 -20 -14.5 -26.5t-33.5 -6.5h-114q-352 -422 -494 -582q68 -118 293 -563q12 -25 29 -34t49 -9h98q35 0 35 -27q0 -25 -12 -69q-4 -20 -14.5 -26.5t-32.5 -6.5
h-152q-44 0 -71.5 12.5t-40 29t-29.5 52.5l-271 555q-11 22 -27 28.5t-46 6.5h-119zM672 -141q39 0 39 -41q0 -36 -21 -97q-55 -160 -158 -253q-27 -27 -53 -27q-25 0 -49 20q-18 15 -18 31q0 12 20 37q102 112 123 272q7 58 55 58h62z" />
    <glyph glyph-name="kcommaaccent" unicode="&#x137;" horiz-adv-x="1079" 
d="M375 0h-357q-36 0 -36 27q0 7 14 67q4 19 14.5 26t32.5 7h96l273 1278h-103q-35 0 -35 25q0 13 13 69q9 33 47 33h205q19 0 27.5 -7.5t8.5 -25.5q0 -13 -4 -33l-178 -837h101q68 0 98 35l194 217h-59q-33 0 -33 26q0 12 13 68q8 35 47 35h329q35 0 35 -29q0 -24 -12 -68
q-4 -19 -14 -25.5t-31 -6.5h-113q-96 -105 -176.5 -194t-105.5 -116q1 -2 62.5 -137t127.5 -262q13 -28 29.5 -36.5t54.5 -8.5h57q35 0 35 -27q0 -22 -12 -69q-5 -31 -45 -31h-121q-53 0 -82 22t-49 64l-170 381q-10 22 -26 28.5t-46 6.5h-112l-82 -375h112q37 0 37 -27
q0 -12 -12 -67q-6 -20 -16.5 -26.5t-32.5 -6.5zM575 -141q39 0 39 -41q0 -39 -20 -97q-55 -160 -158 -253q-27 -27 -53 -27q-25 0 -49 20q-19 16 -19 31q0 6 2.5 11.5t4.5 9t7.5 9.5t6.5 7q102 112 123 272q7 58 55 58h61z" />
    <glyph glyph-name="kgreenlandic" unicode="&#x138;" horiz-adv-x="1079" 
d="M399 0h-356q-37 0 -37 27q0 17 14 65q8 35 48 35h96l164 754h-105q-35 0 -35 26q0 4 1.5 11t5 23.5t6.5 33.5q8 35 47 35h205q39 0 39 -33q0 -5 -5 -35l-73 -334h102q70 0 102 37l201 236h-67q-33 0 -33 26q0 16 12 68q8 35 47 35h330q35 0 35 -29q0 -17 -13 -68
q-4 -19 -14 -25.5t-31 -6.5h-102q-58 -63 -299 -332q16 -28 39 -72t68 -132t90 -173q13 -28 29.5 -36.5t54.5 -8.5h57q19 0 27 -6t8 -23q0 -16 -13 -67q-5 -31 -45 -31h-120q-53 0 -82 22t-49 64l-175 360q-10 22 -26 28.5t-45 6.5h-115l-76 -354h113q20 0 28.5 -6t8.5 -23
q0 -10 -12 -65q-6 -20 -16.5 -26.5t-33.5 -6.5z" />
    <glyph glyph-name="Lacute" unicode="&#x139;" horiz-adv-x="1159" 
d="M999 0h-936q-32 0 -32 27q0 6 12 67q8 35 47 35h103l256 1188h-115q-33 0 -33 26q0 19 10 70q6 33 49 33h377q37 0 37 -27q0 -13 -12 -69q-4 -20 -14.5 -26.5t-32.5 -6.5h-113l-254 -1188h561l43 150q9 36 39 36h64q35 0 35 -30q0 -2 -48 -236q-5 -26 -14 -37.5
t-29 -11.5zM588 1581q-25 -20 -64 -20h-82q-28 0 -28 24q0 21 20 35l299 219q39 27 64 27h127q30 0 30 -25q0 -24 -22 -39z" />
    <glyph glyph-name="lacute" unicode="&#x13a;" horiz-adv-x="575" 
d="M381 0h-358q-35 0 -35 27q0 15 12 67q8 33 49 33h94l277 1278h-105q-34 0 -34 27q0 20 12 67q8 33 49 33h209q17 0 24 -7t7 -24q0 -13 -9 -49l-282 -1325h112q37 0 37 -27q0 -18 -12 -67q-4 -20 -14.5 -26.5t-32.5 -6.5zM502 1622q-25 -20 -64 -20h-82q-28 0 -28 24
q0 21 20 35l299 219q39 27 64 27h127q30 0 30 -25q0 -24 -22 -39z" />
    <glyph glyph-name="Lcommaaccent" unicode="&#x13b;" horiz-adv-x="1159" 
d="M999 0h-936q-32 0 -32 27q0 6 12 67q8 35 47 35h103l256 1188h-115q-33 0 -33 26q0 19 10 70q6 33 49 33h377q37 0 37 -27q0 -13 -12 -69q-4 -20 -14.5 -26.5t-32.5 -6.5h-113l-254 -1188h561l43 150q9 36 39 36h64q35 0 35 -30q0 -2 -48 -236q-5 -26 -14 -37.5
t-29 -11.5zM569 -141q39 0 39 -41q0 -39 -20 -97q-55 -160 -158 -253q-27 -27 -53 -27q-25 0 -49 20q-19 16 -19 31q0 6 2.5 11.5t4.5 9t7.5 9.5t6.5 7q102 112 123 272q7 58 55 58h61z" />
    <glyph glyph-name="lcommaaccent" unicode="&#x13c;" horiz-adv-x="575" 
d="M381 0h-358q-35 0 -35 27q0 15 12 67q8 33 49 33h94l277 1278h-105q-34 0 -34 27q0 20 12 67q8 33 49 33h209q17 0 24 -7t7 -24q0 -13 -9 -49l-282 -1325h112q37 0 37 -27q0 -18 -12 -67q-4 -20 -14.5 -26.5t-32.5 -6.5zM217 -141q39 0 39 -41q0 -39 -20 -97
q-55 -160 -158 -253q-27 -27 -53 -27t-50 20q-18 15 -18 31q0 12 20 37q102 112 123 272q7 58 56 58h61z" />
    <glyph glyph-name="Lcaron" unicode="&#x13d;" horiz-adv-x="1159" 
d="M999 0h-936q-32 0 -32 27q0 6 12 67q8 35 47 35h103l256 1188h-115q-33 0 -33 26q0 19 10 70q6 33 49 33h377q37 0 37 -27q0 -13 -12 -69q-4 -20 -14.5 -26.5t-32.5 -6.5h-113l-254 -1188h561l43 150q9 36 39 36h64q35 0 35 -30q0 -2 -48 -236q-5 -26 -14 -37.5
t-29 -11.5zM1042 1477q39 0 39 -39t-20 -97q-54 -160 -158 -254q-26 -26 -53 -26t-49 18q-19 16 -19 31q0 13 21 39q101 112 123 270q7 58 55 58h61z" />
    <glyph glyph-name="lcaron" unicode="&#x13e;" horiz-adv-x="575" 
d="M381 0h-358q-35 0 -35 27q0 15 12 67q8 33 49 33h94l277 1278h-105q-34 0 -34 27q0 20 12 67q8 33 49 33h209q17 0 24 -7t7 -24q0 -13 -9 -49l-282 -1325h112q37 0 37 -27q0 -18 -12 -67q-4 -20 -14.5 -26.5t-32.5 -6.5zM879 1528q39 0 39 -39q0 -35 -21 -96
q-54 -160 -158 -254q-27 -27 -53 -27q-27 0 -49 18q-19 16 -19 31q0 13 21 39q101 112 123 270q7 58 55 58h62z" />
    <glyph glyph-name="Ldot" unicode="&#x13f;" horiz-adv-x="1159" 
d="M1051 737q0 -74 -39 -108q-28 -25 -76 -25q-88 0 -88 78q0 62 37 102q27 31 80 31q86 0 86 -78zM999 0h-936q-32 0 -32 27q0 8 12 69q8 35 47 35h103l256 1186h-115q-33 0 -33 26q0 31 10 70q9 33 49 33h377q37 0 37 -27q0 -25 -12 -69q-4 -20 -14.5 -26.5t-32.5 -6.5
h-113l-254 -1184h563l41 146q9 36 39 36h64q35 0 35 -30q0 -2 -48 -236q-5 -26 -14 -37.5t-29 -11.5z" />
    <glyph glyph-name="ldot" unicode="&#x140;" horiz-adv-x="743" 
d="M811 737q0 -70 -39 -106q-30 -27 -74 -27q-88 0 -88 78q0 63 37 100q27 31 78 31q86 0 86 -76zM381 0h-358q-35 0 -35 27q0 16 12 65q8 35 49 35h94l277 1278h-105q-34 0 -34 27q0 23 12 67q6 19 16.5 26t32.5 7h209q17 0 24 -7t7 -24q0 -13 -9 -49l-282 -1325h112
q20 0 28.5 -6t8.5 -23q0 -21 -12 -65q-6 -20 -15.5 -26.5t-31.5 -6.5z" />
    <glyph glyph-name="Lslash" unicode="&#x141;" horiz-adv-x="1159" 
d="M999 0h-936q-32 0 -32 27q0 6 12 67q8 35 47 35h103l88 412l-142 -80q-8 -6 -22 -6q-15 0 -31 28q-25 46 -25 58q0 18 21 30l233 131l134 615h-115q-33 0 -33 26q0 19 10 70q6 33 49 33h377q37 0 37 -27q0 -13 -12 -69q-4 -20 -14.5 -26.5t-32.5 -6.5h-113l-110 -514
l268 149q21 9 28 9q16 0 31 -27q27 -43 27 -57q0 -17 -21 -31l-368 -207l-109 -510h561l43 150q9 36 39 36h64q35 0 35 -30q0 -2 -48 -236q-5 -26 -14 -37.5t-29 -11.5z" />
    <glyph glyph-name="lslash" unicode="&#x142;" horiz-adv-x="575" 
d="M381 0h-358q-35 0 -35 27q0 15 12 67q8 33 49 33h94l101 469l-105 -57q-14 -7 -22 -7q-9 0 -18.5 8t-14.5 19q-21 51 -21 55q0 16 23 29l190 105l144 657h-105q-34 0 -34 27q0 20 12 67q8 33 49 33h209q17 0 24 -7t7 -24q0 -13 -9 -49l-131 -614l113 61q13 8 27 8
q19 0 32 -28q21 -41 21 -54q0 -17 -21 -28l-204 -111l-119 -559h112q37 0 37 -27q0 -18 -12 -67q-4 -20 -14.5 -26.5t-32.5 -6.5z" />
    <glyph glyph-name="Nacute" unicode="&#x143;" horiz-adv-x="1503" 
d="M442 0h-379q-32 0 -32 27q0 8 12 69q4 19 14.5 26t32.5 7h107l249 1188h-112q-33 0 -33 26q0 21 10 70q9 33 49 33h222q12 0 23 -8t16 -19q379 -895 471 -1136q38 213 219 1034h-123q-35 0 -35 26q0 8 12 70q9 33 47 33h375q37 0 37 -27q0 -25 -12 -69q-4 -19 -15 -26
t-32 -7h-103l-272 -1278q-7 -43 -51 -43h-52q-39 0 -53 35q-403 964 -467 1140q-49 -252 -221 -1042h119q37 0 37 -27q0 -23 -13 -69q-6 -20 -15.5 -26.5t-31.5 -6.5zM963 1581q-25 -20 -64 -20h-82q-29 0 -29 24q0 20 21 35l299 219q39 27 63 27h127q31 0 31 -25
q0 -24 -22 -39z" />
    <glyph glyph-name="nacute" unicode="&#x144;" horiz-adv-x="1249" 
d="M401 0h-356q-37 0 -37 27q0 11 15 65q8 35 47 35h96l162 754h-105q-35 0 -35 26q0 4 1.5 11t5 23.5t6.5 33.5q8 35 49 35h201q21 0 28.5 -7.5t7.5 -25.5q0 -27 -12 -74q36 67 141.5 99t217.5 32q53 0 96 -8t80.5 -27t58.5 -53.5t21 -83.5q0 -69 -21 -174l-123 -561h107
q20 0 28.5 -5.5t8.5 -19.5q0 -20 -13 -71q-4 -19 -13.5 -25t-31.5 -6h-215q-33 0 -33 29q0 6 4 30l134 623q14 69 14 119q0 56 -40.5 78t-117.5 22q-153 0 -260 -55q-28 -14 -47 -39q-18 -22 -27 -64l-133 -616h113q20 0 28.5 -6t8.5 -21q0 -23 -12 -67q-4 -20 -14.5 -26.5
t-33.5 -6.5zM764 1212q-21 -24 -59 -24h-68q-14 0 -21.5 7t-7.5 17q0 16 15 31l247 268q27 27 54 27h114q31 0 31 -25q0 -14 -20 -34z" />
    <glyph glyph-name="Ncommaaccent" unicode="&#x145;" horiz-adv-x="1503" 
d="M442 0h-379q-32 0 -32 27q0 8 12 69q4 19 14.5 26t32.5 7h107l249 1188h-112q-33 0 -33 26q0 21 10 70q9 33 49 33h222q12 0 23 -8t16 -19q379 -895 471 -1136q38 213 219 1034h-123q-35 0 -35 26q0 8 12 70q9 33 47 33h375q37 0 37 -27q0 -25 -12 -69q-4 -19 -15 -26
t-32 -7h-103l-272 -1278q-7 -43 -51 -43h-52q-39 0 -53 35q-403 964 -467 1140q-49 -252 -221 -1042h119q37 0 37 -27q0 -23 -13 -69q-6 -20 -15.5 -26.5t-31.5 -6.5zM707 -141q38 0 38 -41q0 -39 -20 -97q-55 -160 -158 -253q-27 -27 -53 -27q-25 0 -49 20q-19 16 -19 31
q0 6 2.5 11.5t4.5 9t7.5 9.5t6.5 7q102 112 123 272q7 58 55 58h62z" />
    <glyph glyph-name="ncommaaccent" unicode="&#x146;" horiz-adv-x="1249" 
d="M401 0h-356q-37 0 -37 27q0 11 15 65q8 35 47 35h96l162 754h-105q-35 0 -35 26q0 4 1.5 11t5 23.5t6.5 33.5q8 35 49 35h201q21 0 28.5 -7.5t7.5 -25.5q0 -27 -12 -74q36 67 141.5 99t217.5 32q53 0 96 -8t80.5 -27t58.5 -53.5t21 -83.5q0 -69 -21 -174l-123 -561h107
q20 0 28.5 -5.5t8.5 -19.5q0 -20 -13 -71q-4 -19 -13.5 -25t-31.5 -6h-215q-33 0 -33 29q0 6 4 30l134 623q14 69 14 119q0 56 -40.5 78t-117.5 22q-153 0 -260 -55q-28 -14 -47 -39q-18 -22 -27 -64l-133 -616h113q20 0 28.5 -6t8.5 -21q0 -23 -12 -67q-4 -20 -14.5 -26.5
t-33.5 -6.5zM586 -141q39 0 39 -41q0 -36 -21 -97q-55 -160 -158 -253q-27 -27 -53 -27q-25 0 -49 20q-18 15 -18 31q0 12 20 37q102 112 123 272q7 58 55 58h62z" />
    <glyph glyph-name="Ncaron" unicode="&#x147;" horiz-adv-x="1503" 
d="M442 0h-379q-32 0 -32 27q0 8 12 69q4 19 14.5 26t32.5 7h107l249 1188h-112q-33 0 -33 26q0 21 10 70q9 33 49 33h222q12 0 23 -8t16 -19q379 -895 471 -1136q38 213 219 1034h-123q-35 0 -35 26q0 8 12 70q9 33 47 33h375q37 0 37 -27q0 -25 -12 -69q-4 -19 -15 -26
t-32 -7h-103l-272 -1278q-7 -43 -51 -43h-52q-39 0 -53 35q-403 964 -467 1140q-49 -252 -221 -1042h119q37 0 37 -27q0 -23 -13 -69q-6 -20 -15.5 -26.5t-31.5 -6.5zM1223 1862h69q27 0 27 -25q0 -19 -19 -35l-249 -207q-39 -34 -72 -34h-70q-34 0 -55 28l-176 215
q-10 13 -10 29q0 29 37 29h55q26 0 55 -29l148 -137l196 137q39 29 64 29z" />
    <glyph glyph-name="ncaron" unicode="&#x148;" horiz-adv-x="1249" 
d="M401 0h-356q-37 0 -37 27q0 11 15 65q8 35 47 35h96l162 754h-105q-35 0 -35 26q0 4 1.5 11t5 23.5t6.5 33.5q8 35 49 35h201q21 0 28.5 -7.5t7.5 -25.5q0 -27 -12 -74q36 67 141.5 99t217.5 32q53 0 96 -8t80.5 -27t58.5 -53.5t21 -83.5q0 -69 -21 -174l-123 -561h107
q20 0 28.5 -5.5t8.5 -19.5q0 -20 -13 -71q-4 -19 -13.5 -25t-31.5 -6h-215q-33 0 -33 29q0 6 4 30l134 623q14 69 14 119q0 56 -40.5 78t-117.5 22q-153 0 -260 -55q-28 -14 -47 -39q-18 -22 -27 -64l-133 -616h113q20 0 28.5 -6t8.5 -21q0 -23 -12 -67q-4 -20 -14.5 -26.5
t-33.5 -6.5zM985 1538h70q24 0 24 -22q0 -17 -18 -35l-248 -273q-27 -34 -61 -34h-78q-34 0 -47 30l-140 281q-6 12 -6 28q0 25 35 25h57q30 0 45 -27l115 -204l195 202q25 29 57 29z" />
    <glyph glyph-name="napostrophe" unicode="&#x149;" horiz-adv-x="1249" 
d="M401 0h-356q-37 0 -37 27q0 11 15 65q8 35 47 35h96l162 754h-105q-35 0 -35 26q0 4 1.5 11t5 23.5t6.5 33.5q8 35 49 35h201q21 0 28.5 -7.5t7.5 -25.5q0 -27 -12 -74q36 67 141.5 99t217.5 32q53 0 96 -8t80.5 -27t58.5 -53.5t21 -83.5q0 -69 -21 -174l-123 -561h107
q20 0 28.5 -5.5t8.5 -19.5q0 -20 -13 -71q-4 -19 -13.5 -25t-31.5 -6h-215q-33 0 -33 29q0 6 4 30l134 623q14 69 14 119q0 56 -40.5 78t-117.5 22q-153 0 -260 -55q-28 -14 -47 -39q-18 -22 -27 -64l-133 -616h113q20 0 28.5 -6t8.5 -21q0 -23 -12 -67q-4 -20 -14.5 -26.5
t-33.5 -6.5zM524 1589q39 0 39 -41q0 -38 -20 -96q-56 -161 -158 -254q-27 -27 -53 -27q-24 0 -49 21q-19 16 -19 31q0 6 2.5 11.5t4.5 9t7.5 9.5t6.5 7q102 112 123 272q7 57 55 57h61z" />
    <glyph glyph-name="Eng" unicode="&#x14a;" horiz-adv-x="1503" 
d="M442 0h-379q-32 0 -32 27q0 6 12 67q8 35 47 35h107l249 1188h-112q-33 0 -33 26q0 31 10 70q9 33 49 33h222q12 0 23 -8t16 -19q354 -833 471 -1136q38 213 219 1034h-123q-35 0 -35 26q0 8 12 70q9 33 47 33h375q37 0 37 -27q0 -13 -12 -69q-6 -20 -16 -26.5t-31 -6.5
h-103l-299 -1413q-25 -117 -47.5 -176.5t-68.5 -98.5q-89 -80 -279 -80q-54 0 -86 7q-27 4 -27 32q0 14 13 68q6 33 41 33l28 -2q28 -2 56 -2q96 0 143 36q27 21 42 64t36 133l24 105q-416 995 -471 1151q-54 -280 -221 -1045h119q37 0 37 -27q0 -23 -13 -69
q-6 -20 -15.5 -26.5t-31.5 -6.5z" />
    <glyph glyph-name="eng" unicode="&#x14b;" horiz-adv-x="1249" 
d="M401 0h-356q-37 0 -37 27q0 11 15 65q8 35 47 35h96l162 754h-105q-35 0 -35 26q0 5 1.5 12t5 23t6.5 33q8 35 49 35h201q21 0 28.5 -7.5t7.5 -25.5q0 -27 -12 -74q36 67 141.5 99t217.5 32q53 0 96 -8t80.5 -27t58.5 -53.5t21 -83.5q0 -69 -21 -174l-164 -766
q-23 -111 -50 -169t-73 -95q-78 -67 -237 -70q-65 0 -94 6q-29 7 -29 33q0 31 14 66q13 26 41 26q1 0 30 -3t58 -3q71 0 113 31q55 44 84 188l160 750q14 69 14 119q0 56 -40.5 78t-117.5 22q-153 0 -260 -55q-28 -14 -47 -39q-18 -22 -27 -64l-133 -616h113q21 0 29 -6
t8 -23q0 -23 -12 -65q-6 -20 -16 -26.5t-32 -6.5z" />
    <glyph glyph-name="Omacron" unicode="&#x14c;" horiz-adv-x="1404" 
d="M1368 1044q0 -128 -25.5 -287t-87 -332t-145.5 -271q-83 -96 -195.5 -138.5t-271.5 -42.5q-91 0 -162 11.5t-135 41.5t-105.5 78.5t-66 126t-24.5 181.5q0 139 26.5 298t92 328t157.5 267q153 161 440 161q96 0 166.5 -9t137 -36t107.5 -73t66 -122t25 -182zM1208 1022
q0 93 -19.5 153t-65 94.5t-109 48t-160.5 13.5q-215 0 -322 -123q-71 -81 -124 -228.5t-76 -289t-23 -258.5q0 -95 20.5 -157.5t66 -98.5t109.5 -50.5t159 -14.5q118 0 197 30t140 111q92 122 149.5 363.5t57.5 406.5zM1186 1624h-512q-31 0 -31 27q0 30 14 71q5 18 14 25.5
t29 7.5h506q33 0 33 -26q0 -22 -12 -72q-6 -20 -14.5 -26.5t-26.5 -6.5z" />
    <glyph glyph-name="omacron" unicode="&#x14d;" horiz-adv-x="1116" 
d="M1040 729q0 -125 -42.5 -307t-118.5 -289q-113 -160 -385 -160q-71 0 -126.5 8t-108.5 29.5t-87.5 57.5t-55 95.5t-20.5 139.5q0 140 50 318.5t139 279.5q124 137 358 137q72 0 124 -5.5t107 -24t88.5 -51t55.5 -90.5t22 -138zM891 705q0 64 -19 105.5t-57.5 62t-82 27.5
t-107.5 7q-156 0 -236 -98q-63 -79 -101 -237.5t-38 -256.5q0 -123 62.5 -168t197.5 -45q184 0 260 125q49 81 85 238.5t36 239.5zM934 1253h-467q-31 0 -31 27t13 74q5 19 13.5 25.5t29.5 6.5h462q33 0 33 -26q0 -38 -12 -76q-4 -18 -13 -24.5t-28 -6.5z" />
    <glyph glyph-name="Obreve" unicode="&#x14e;" horiz-adv-x="1404" 
d="M1368 1044q0 -128 -25.5 -287t-87 -332t-145.5 -271q-83 -96 -195.5 -138.5t-271.5 -42.5q-91 0 -162 11.5t-135 41.5t-105.5 78.5t-66 126t-24.5 181.5q0 139 26.5 298t92 328t157.5 267q153 161 440 161q96 0 166.5 -9t137 -36t107.5 -73t66 -122t25 -182zM1208 1022
q0 93 -19.5 153t-65 94.5t-109 48t-160.5 13.5q-215 0 -322 -123q-71 -81 -124 -228.5t-76 -289t-23 -258.5q0 -95 20.5 -157.5t66 -98.5t109.5 -50.5t159 -14.5q118 0 197 30t140 111q92 122 149.5 363.5t57.5 406.5zM1212 1853q27 0 27 -30q0 -27 -18 -74
q-75 -193 -314 -193q-136 0 -203 57t-67 159q0 34 6 55q7 26 37 26h47q30 0 33 -28q0 -6 1 -18.5t1 -18.5q0 -54 39 -81.5t112 -27.5q93 0 140 35.5t69 106.5q5 17 13 24.5t28 7.5h49z" />
    <glyph glyph-name="obreve" unicode="&#x14f;" horiz-adv-x="1116" 
d="M1040 729q0 -125 -42.5 -307t-118.5 -289q-113 -160 -385 -160q-71 0 -126.5 8t-108.5 29.5t-87.5 57.5t-55 95.5t-20.5 139.5q0 140 50 318.5t139 279.5q124 137 358 137q72 0 124 -5.5t107 -24t88.5 -51t55.5 -90.5t22 -138zM891 705q0 64 -19 105.5t-57.5 62t-82 27.5
t-107.5 7q-156 0 -236 -98q-63 -79 -101 -237.5t-38 -256.5q0 -123 62.5 -168t197.5 -45q184 0 260 125q49 81 85 238.5t36 239.5zM997 1481q27 0 27 -31q0 -34 -16 -78q-77 -201 -308 -201q-125 0 -187 58t-62 153q0 42 6 66q7 33 35 33h40q29 0 29 -29q0 -35 2 -45
q5 -55 41 -83t111 -28q91 0 133 38.5t65 117.5q9 29 39 29h45z" />
    <glyph glyph-name="Ohungarumlaut" unicode="&#x150;" horiz-adv-x="1404" 
d="M1368 1044q0 -128 -25.5 -287t-87 -332t-145.5 -271q-83 -96 -195.5 -138.5t-271.5 -42.5q-91 0 -162 11.5t-135 41.5t-105.5 78.5t-66 126t-24.5 181.5q0 139 26.5 298t92 328t157.5 267q153 161 440 161q96 0 166.5 -9t137 -36t107.5 -73t66 -122t25 -182zM1208 1022
q0 93 -19.5 153t-65 94.5t-109 48t-160.5 13.5q-215 0 -322 -123q-71 -81 -124 -228.5t-76 -289t-23 -258.5q0 -95 20.5 -157.5t66 -98.5t109.5 -50.5t159 -14.5q118 0 197 30t140 111q92 122 149.5 363.5t57.5 406.5zM758 1581q-29 -20 -64 -20h-67q-29 0 -29 24
q0 17 18 35l277 219q39 27 63 27h99q32 0 32 -27q0 -23 -24 -39zM1139 1581q-31 -20 -66 -20h-67q-27 0 -27 24q0 20 18 35l275 219q39 27 63 27h101q30 0 30 -27q0 -23 -24 -39z" />
    <glyph glyph-name="ohungarumlaut" unicode="&#x151;" horiz-adv-x="1116" 
d="M1040 729q0 -125 -42.5 -307t-118.5 -289q-113 -160 -385 -160q-71 0 -126.5 8t-108.5 29.5t-87.5 57.5t-55 95.5t-20.5 139.5q0 140 50 318.5t139 279.5q124 137 358 137q72 0 124 -5.5t107 -24t88.5 -51t55.5 -90.5t22 -138zM891 705q0 64 -19 105.5t-57.5 62t-82 27.5
t-107.5 7q-156 0 -236 -98q-63 -79 -101 -237.5t-38 -256.5q0 -123 62.5 -168t197.5 -45q184 0 260 125q49 81 85 238.5t36 239.5zM588 1212q-24 -24 -51 -24h-66q-14 0 -21.5 7t-7.5 17q0 16 15 31l221 268q24 27 53 27h96q29 0 29 -25q0 -16 -20 -36zM899 1212
q-27 -24 -53 -24h-64q-28 0 -28 24q0 14 14 31l221 268q21 27 51 27h99q28 0 28 -25q0 -12 -20 -36z" />
    <glyph glyph-name="OE" unicode="&#x152;" horiz-adv-x="1986" 
d="M1763 0h-802q-193 -23 -312 -23q-256 0 -376.5 113.5t-120.5 343.5q0 224 75.5 464.5t218.5 383.5q179 182 529 182q156 0 285 -18h720q31 0 31 -31q0 -14 -41 -248q-7 -32 -39 -32h-65q-31 0 -31 30q0 9 14 152h-479l-104 -498h487q37 0 37 -26q0 -25 -12 -74
q-6 -19 -17 -26t-32 -7h-492l-119 -557h565l39 145q10 37 41 37h66q33 0 33 -28q0 -21 -47 -234q-5 -26 -15.5 -37.5t-36.5 -11.5zM965 137l252 1174q-72 16 -281 16q-126 0 -222.5 -35.5t-172.5 -120.5q-107 -121 -168.5 -325.5t-61.5 -386.5q0 -183 88.5 -264.5
t268.5 -81.5q162 0 297 24z" />
    <glyph glyph-name="oe" unicode="&#x153;" horiz-adv-x="1785" 
d="M1001 467q-12 -64 -12 -127q0 -135 65 -185.5t212 -50.5q144 0 266 39q39 13 47 13q18 0 25 -21q16 -53 16 -59q0 -17 -9 -26t-30 -19q-137 -56 -354 -56q-151 0 -233.5 48t-110.5 147q-98 -195 -389 -195q-71 0 -126.5 7.5t-108.5 29t-87 57.5t-55 95t-21 139
q0 143 48.5 320t138.5 278q119 135 362 135q48 0 84 -2.5t75.5 -9t68.5 -19.5t55.5 -33.5t44 -51.5t26.5 -72q119 188 406 188q176 0 253 -69t77 -203q0 -97 -25 -225q-11 -49 -27 -62q-10 -10 -47 -10h-635zM889 705q0 64 -18 105.5t-55.5 62t-80 27.5t-106.5 7
q-161 0 -244 -98q-63 -77 -99 -235t-36 -259q0 -123 62 -168t196 -45q92 0 158 27t106 94q50 82 83.5 239t33.5 243zM1022 588h551q22 93 22 160q0 85 -46 128.5t-165 43.5q-145 0 -223 -66q-94 -79 -139 -266z" />
    <glyph glyph-name="Racute" unicode="&#x154;" horiz-adv-x="1345" 
d="M442 0h-379q-32 0 -32 27q0 8 12 69q4 19 14.5 26t32.5 7h103l256 1188h-115q-33 0 -33 26q0 24 10 70q6 33 49 33h451q225 0 330 -45q75 -32 115 -105t40 -159q0 -190 -96.5 -316.5t-284.5 -165.5l195 -483q10 -27 24 -35t48 -8h84q39 0 39 -29q0 -12 -15 -67
q-4 -19 -15 -26t-32 -7h-149q-56 0 -79.5 16.5t-37.5 57.5l-213 563q-37 -4 -123 -4h-184l-111 -504h119q37 0 37 -27q0 -15 -13 -69q-4 -20 -14.5 -26.5t-32.5 -6.5zM483 762h205q173 0 266 35q93 34 137 114.5t44 190.5q0 64 -26.5 113.5t-68.5 68.5q-68 33 -249 33h-189z
M862 1581q-25 -20 -63 -20h-82q-29 0 -29 24q0 20 21 35l299 219q39 27 63 27h127q31 0 31 -25q0 -24 -23 -39z" />
    <glyph glyph-name="racute" unicode="&#x155;" horiz-adv-x="806" 
d="M442 0h-397q-37 0 -37 27q0 3 15 67q4 19 14.5 26t32.5 7h96l162 754h-105q-35 0 -35 26q0 4 1.5 11t5 23.5t6.5 33.5q8 35 49 35h203q34 0 34 -31q0 -23 -12 -76q27 57 116 94t185 37q39 0 62 -6q22 -6 22 -33q0 -8 -6.5 -44.5t-11.5 -49.5q-9 -24 -39 -24q-4 0 -37 2
t-53 2q-128 0 -199 -43q-35 -19 -47 -47q-18 -33 -27 -72l-129 -592h154q37 0 37 -27q0 -14 -13 -67q-6 -20 -15.5 -26.5t-31.5 -6.5zM623 1212q-21 -24 -60 -24h-67q-14 0 -21.5 7t-7.5 17q0 17 14 31l248 268q27 27 53 27h115q31 0 31 -25q0 -13 -21 -34z" />
    <glyph glyph-name="Rcommaaccent" unicode="&#x156;" horiz-adv-x="1345" 
d="M442 0h-379q-32 0 -32 27q0 8 12 69q4 19 14.5 26t32.5 7h103l256 1188h-115q-33 0 -33 26q0 24 10 70q6 33 49 33h451q225 0 330 -45q75 -32 115 -105t40 -159q0 -190 -96.5 -316.5t-284.5 -165.5l195 -483q10 -27 24 -35t48 -8h84q39 0 39 -29q0 -12 -15 -67
q-4 -19 -15 -26t-32 -7h-149q-56 0 -79.5 16.5t-37.5 57.5l-213 563q-37 -4 -123 -4h-184l-111 -504h119q37 0 37 -27q0 -15 -13 -69q-4 -20 -14.5 -26.5t-32.5 -6.5zM483 762h205q173 0 266 35q93 34 137 114.5t44 190.5q0 64 -26.5 113.5t-68.5 68.5q-68 33 -249 33h-189z
M659 -141q39 0 39 -41q0 -39 -20 -97q-55 -160 -158 -253q-27 -27 -53 -27q-25 0 -49 20q-19 16 -19 31q0 6 2.5 11.5t4.5 9t7.5 9.5t6.5 7q102 112 123 272q7 58 55 58h61z" />
    <glyph glyph-name="rcommaaccent" unicode="&#x157;" horiz-adv-x="806" 
d="M442 0h-397q-37 0 -37 27q0 3 15 67q4 19 14.5 26t32.5 7h96l162 754h-105q-35 0 -35 26q0 4 1.5 11t5 23.5t6.5 33.5q8 35 49 35h203q34 0 34 -31q0 -23 -12 -76q27 57 116 94t185 37q39 0 62 -6q22 -6 22 -33q0 -8 -6.5 -44.5t-11.5 -49.5q-9 -24 -39 -24q-4 0 -37 2
t-53 2q-128 0 -199 -43q-35 -19 -47 -47q-18 -33 -27 -72l-129 -592h154q37 0 37 -27q0 -14 -13 -67q-6 -20 -15.5 -26.5t-31.5 -6.5zM244 -141q39 0 39 -41q0 -36 -21 -97q-55 -160 -158 -253q-27 -27 -53 -27q-25 0 -49 20q-18 15 -18 31q0 12 20 37q102 112 123 272
q7 58 55 58h62z" />
    <glyph glyph-name="Rcaron" unicode="&#x158;" horiz-adv-x="1345" 
d="M442 0h-379q-32 0 -32 27q0 8 12 69q4 19 14.5 26t32.5 7h103l256 1188h-115q-33 0 -33 26q0 24 10 70q6 33 49 33h451q225 0 330 -45q75 -32 115 -105t40 -159q0 -190 -96.5 -316.5t-284.5 -165.5l195 -483q10 -27 24 -35t48 -8h84q39 0 39 -29q0 -12 -15 -67
q-4 -19 -15 -26t-32 -7h-149q-56 0 -79.5 16.5t-37.5 57.5l-213 563q-37 -4 -123 -4h-184l-111 -504h119q37 0 37 -27q0 -15 -13 -69q-4 -20 -14.5 -26.5t-32.5 -6.5zM483 762h205q173 0 266 35q93 34 137 114.5t44 190.5q0 64 -26.5 113.5t-68.5 68.5q-68 33 -249 33h-189z
M1092 1862h69q27 0 27 -25q0 -19 -19 -35l-249 -207q-39 -34 -72 -34h-70q-34 0 -55 28l-176 215q-10 13 -10 29q0 29 36 29h56q26 0 55 -29l147 -137l197 137q39 29 64 29z" />
    <glyph glyph-name="rcaron" unicode="&#x159;" horiz-adv-x="806" 
d="M442 0h-397q-37 0 -37 27q0 3 15 67q4 19 14.5 26t32.5 7h96l162 754h-105q-35 0 -35 26q0 4 1.5 11t5 23.5t6.5 33.5q8 35 49 35h203q34 0 34 -31q0 -23 -12 -76q27 57 116 94t185 37q39 0 62 -6q22 -6 22 -33q0 -8 -6.5 -44.5t-11.5 -49.5q-9 -24 -39 -24q-4 0 -37 2
t-53 2q-128 0 -199 -43q-35 -19 -47 -47q-18 -33 -27 -72l-129 -592h154q37 0 37 -27q0 -14 -13 -67q-6 -20 -15.5 -26.5t-31.5 -6.5zM817 1538h70q24 0 24 -22q0 -17 -18 -35l-248 -273q-27 -34 -61 -34h-78q-34 0 -47 30l-140 281q-6 12 -6 28q0 25 35 25h58q30 0 45 -27
l114 -204l195 202q25 29 57 29z" />
    <glyph glyph-name="Sacute" unicode="&#x15a;" horiz-adv-x="1140" 
d="M74 88v236q0 43 37 43h61q32 0 35 -37l12 -166q125 -53 289 -53q85 0 148.5 12.5t115 43t78.5 85.5t27 135q0 35 -6.5 62t-27 60.5t-67 64.5t-117.5 59l-165 65q-240 92 -240 336q0 225 141 332t402 107q192 0 317 -46q20 -8 27.5 -15.5t7.5 -22.5q0 -13 -33 -246
q-5 -33 -39 -33h-65q-18 0 -24.5 7.5t-6.5 23.5q0 7 10 168q-117 26 -235 26q-168 0 -254 -61t-86 -213q0 -83 45 -140t164 -102l149 -59q140 -55 203 -135t63 -201q0 -451 -551 -451q-225 0 -383 68q-32 14 -32 47zM795 1581q-25 -20 -64 -20h-82q-28 0 -28 24q0 21 20 35
l299 219q39 27 64 27h126q31 0 31 -25q0 -24 -22 -39z" />
    <glyph glyph-name="sacute" unicode="&#x15b;" horiz-adv-x="862" 
d="M37 66v196q0 41 43 41h45q20 0 28.5 -7.5t10.5 -25.5l10 -143q80 -29 182 -29q154 0 209 58q45 51 45 118q0 24 -4 40.5t-18 36t-46 37.5t-83 36l-129 47q-90 33 -139.5 90.5t-49.5 134.5q0 168 117 260q100 78 311 78q113 0 226 -26q32 -10 32 -43q0 -27 -20 -209
q-3 -33 -43 -33h-53q-29 0 -29 33q0 45 6 139q-69 14 -145 14q-142 0 -191 -41q-61 -49 -61 -143q0 -43 32.5 -75.5t116.5 -63.5l123 -45q195 -70 195 -230q0 -149 -92 -241q-50 -50 -128 -73.5t-200 -23.5q-71 0 -146.5 12t-123.5 33q-31 14 -31 48zM580 1212
q-21 -24 -60 -24h-67q-14 0 -21.5 7t-7.5 17q0 17 14 31l248 268q27 27 53 27h115q31 0 31 -25q0 -13 -21 -34z" />
    <glyph glyph-name="Scircumflex" unicode="&#x15c;" horiz-adv-x="1140" 
d="M74 88v236q0 43 37 43h61q32 0 35 -37l12 -166q125 -53 289 -53q85 0 148.5 12.5t115 43t78.5 85.5t27 135q0 35 -6.5 62t-27 60.5t-67 64.5t-117.5 59l-165 65q-240 92 -240 336q0 225 141 332t402 107q192 0 317 -46q20 -8 27.5 -15.5t7.5 -22.5q0 -13 -33 -246
q-5 -33 -39 -33h-65q-18 0 -24.5 7.5t-6.5 23.5q0 7 10 168q-117 26 -235 26q-168 0 -254 -61t-86 -213q0 -83 45 -140t164 -102l149 -59q140 -55 203 -135t63 -201q0 -451 -551 -451q-225 0 -383 68q-32 14 -32 47zM586 1561h-70q-27 0 -27 24q0 17 19 33l250 209
q45 35 71 35h70q28 0 55 -31l176 -213q11 -15 11 -29q0 -28 -37 -28h-53q-32 0 -58 26l-147 139l-197 -137q-18 -12 -25 -16.5t-17 -8t-21 -3.5z" />
    <glyph glyph-name="scircumflex" unicode="&#x15d;" horiz-adv-x="862" 
d="M37 66v196q0 41 43 41h45q20 0 28.5 -7.5t10.5 -25.5l10 -143q80 -29 182 -29q154 0 209 58q45 51 45 118q0 24 -4 40.5t-18 36t-46 37.5t-83 36l-129 47q-90 33 -139.5 90.5t-49.5 134.5q0 168 117 260q100 78 311 78q113 0 226 -26q32 -10 32 -43q0 -27 -20 -209
q-3 -33 -43 -33h-53q-29 0 -29 33q0 45 6 139q-69 14 -145 14q-142 0 -191 -41q-61 -49 -61 -143q0 -43 32.5 -75.5t116.5 -63.5l123 -45q195 -70 195 -230q0 -149 -92 -241q-50 -50 -128 -73.5t-200 -23.5q-71 0 -146.5 12t-123.5 33q-31 14 -31 48zM389 1174h-70
q-24 0 -24 22q0 17 18 35l248 272q27 35 62 35h77q31 0 48 -31l139 -280q8 -16 8 -27q0 -26 -37 -26h-57q-33 0 -47 26l-113 205l-197 -203q-28 -28 -55 -28z" />
    <glyph glyph-name="Scedilla" unicode="&#x15e;" horiz-adv-x="1140" 
d="M485 -131q177 -2 177 -158q0 -122 -68 -171.5t-209 -49.5q-63 0 -113 12q-24 8 -24 33q0 16 10 51q12 29 39 29q11 0 31 -4q33 -10 73 -10q63 0 91 19.5t28 74.5q0 36 -20.5 52.5t-65.5 16.5q-8 0 -26 -1t-21 -1q-35 0 -35 39q0 13 15 60l39 114q-172 9 -300 66
q-32 14 -32 47v236q0 43 37 43h61q32 0 35 -37l12 -166q125 -53 289 -53q85 0 148.5 12.5t115 43t78.5 85.5t27 135q0 35 -6.5 62t-27 60.5t-67 64.5t-117.5 59l-165 65q-240 92 -240 336q0 225 141 332t402 107q192 0 317 -46q20 -8 27.5 -15.5t7.5 -22.5q0 -13 -33 -246
q-5 -33 -39 -33h-65q-18 0 -24.5 7.5t-6.5 23.5q0 7 10 168q-117 26 -235 26q-168 0 -254 -61t-86 -213q0 -83 45 -140t164 -102l149 -59q140 -55 203 -135t63 -201q0 -438 -522 -451z" />
    <glyph glyph-name="scedilla" unicode="&#x15f;" horiz-adv-x="862" 
d="M346 -125q170 -5 170 -151q0 -118 -65 -165.5t-201 -47.5q-70 0 -107 12q-22 5 -22 28q0 17 10 52q8 26 37 26q7 0 31 -4q36 -8 67 -8q62 0 88.5 18.5t26.5 71.5q0 68 -82 68q-7 0 -24 -1t-21 -1q-33 0 -33 34q0 17 15 60l34 108q-121 10 -202 43q-31 14 -31 48v196
q0 41 43 41h45q20 0 28.5 -7.5t10.5 -25.5l10 -143q80 -29 182 -29q154 0 209 58q45 51 45 118q0 24 -4 40.5t-18 36t-46 37.5t-83 36l-129 47q-90 33 -139.5 90.5t-49.5 134.5q0 168 117 260q100 78 311 78q113 0 226 -26q32 -10 32 -43q0 -27 -20 -209q-3 -33 -43 -33h-53
q-29 0 -29 33q0 45 6 139q-69 14 -145 14q-142 0 -191 -41q-61 -49 -61 -143q0 -43 32.5 -75.5t116.5 -63.5l123 -45q195 -70 195 -230q0 -149 -92 -241q-88 -88 -289 -97z" />
    <glyph glyph-name="Scaron" unicode="&#x160;" horiz-adv-x="1140" 
d="M74 88v236q0 43 37 43h61q32 0 35 -37l12 -166q125 -53 289 -53q85 0 148.5 12.5t115 43t78.5 85.5t27 135q0 35 -6.5 62t-27 60.5t-67 64.5t-117.5 59l-165 65q-240 92 -240 336q0 225 141 332t402 107q192 0 317 -46q20 -8 27.5 -15.5t7.5 -22.5q0 -13 -33 -246
q-5 -33 -39 -33h-65q-18 0 -24.5 7.5t-6.5 23.5q0 7 10 168q-117 26 -235 26q-168 0 -254 -61t-86 -213q0 -83 45 -140t164 -102l149 -59q140 -55 203 -135t63 -201q0 -451 -551 -451q-225 0 -383 68q-32 14 -32 47zM1042 1862h70q27 0 27 -25q0 -19 -19 -35l-250 -207
q-39 -34 -71 -34h-70q-34 0 -55 28l-176 215q-11 15 -11 29q0 29 37 29h56q26 0 55 -29l147 -137l197 137q39 29 63 29z" />
    <glyph glyph-name="scaron" unicode="&#x161;" horiz-adv-x="862" 
d="M37 66v196q0 41 43 41h45q20 0 28.5 -7.5t10.5 -25.5l10 -143q80 -29 182 -29q154 0 209 58q45 51 45 118q0 24 -4 40.5t-18 36t-46 37.5t-83 36l-129 47q-90 33 -139.5 90.5t-49.5 134.5q0 168 117 260q100 78 311 78q113 0 226 -26q32 -10 32 -43q0 -27 -20 -209
q-3 -33 -43 -33h-53q-29 0 -29 33q0 45 6 139q-69 14 -145 14q-142 0 -191 -41q-61 -49 -61 -143q0 -43 32.5 -75.5t116.5 -63.5l123 -45q195 -70 195 -230q0 -149 -92 -241q-50 -50 -128 -73.5t-200 -23.5q-71 0 -146.5 12t-123.5 33q-31 14 -31 48zM825 1538h70
q25 0 25 -22q0 -16 -19 -35l-248 -273q-27 -34 -61 -34h-78q-34 0 -47 30l-139 281q-6 12 -6 28q0 25 34 25h58q30 0 45 -27l114 -204l195 202q25 29 57 29z" />
    <glyph glyph-name="uni0162" unicode="&#x162;" horiz-adv-x="1167" 
d="M489 -131q177 -2 177 -158q0 -122 -68 -171.5t-209 -49.5q-63 0 -113 12q-24 8 -24 33q0 16 10 51q12 29 39 29q11 0 31 -4q33 -10 74 -10q63 0 90.5 19.5t27.5 74.5q0 36 -20.5 52.5t-65.5 16.5q-8 0 -26 -1t-21 -1q-35 0 -35 39q0 13 15 60l47 139h-123q-35 0 -35 27
q0 8 12 69q8 33 50 33h102l254 1188h-313l-35 -146q-9 -36 -41 -36h-66q-30 0 -30 30q0 21 40 232q5 28 15 38.5t39 10.5h987q35 0 35 -29q0 -11 -41 -250q-5 -32 -39 -32h-66q-30 0 -30 30q0 29 14 152h-316l-251 -1188h120q20 0 28.5 -6t8.5 -21q0 -25 -12 -69
q-4 -20 -14.5 -26.5t-32.5 -6.5h-148z" />
    <glyph glyph-name="uni0163" unicode="&#x163;" horiz-adv-x="634" 
d="M305 -125q170 -5 170 -151q0 -118 -65 -165.5t-201 -47.5q-69 0 -107 12q-22 5 -22 28q0 17 10 52q8 26 37 26q7 0 31 -4q36 -8 67 -8q62 0 88.5 18.5t26.5 71.5q0 68 -82 68q-6 0 -23.5 -1t-21.5 -1q-33 0 -33 34q0 17 15 60l43 131q-91 31 -91 147q0 48 17 131l133 605
h-113q-30 0 -30 24q0 19 12 68q10 37 43 37h113q51 214 57 235q13 47 45 47h59q33 0 33 -28q0 -9 -4 -37l-45 -217h192q37 0 37 -29q0 -15 -12 -70q-4 -19 -15 -24.5t-32 -5.5h-195l-127 -590q-14 -72 -14 -105q0 -40 25.5 -57.5t76.5 -17.5q29 0 66.5 6t40.5 6
q11 0 19.5 -7.5t9.5 -17.5q4 -36 4 -61q0 -29 -47 -39q-73 -13 -158 -16z" />
    <glyph glyph-name="Tcaron" unicode="&#x164;" horiz-adv-x="1167" 
d="M678 0h-383q-35 0 -35 27q0 8 12 69q8 33 50 33h102l254 1188h-313l-35 -146q-9 -36 -41 -36h-66q-30 0 -30 30q0 21 40 232q5 28 15 38.5t39 10.5h987q35 0 35 -29q0 -11 -41 -250q-5 -32 -39 -32h-66q-30 0 -30 30q0 29 14 152h-316l-251 -1188h120q20 0 28.5 -6
t8.5 -21q0 -25 -12 -69q-4 -20 -14.5 -26.5t-32.5 -6.5zM1061 1862h69q27 0 27 -25q0 -20 -18 -35l-250 -207q-39 -34 -72 -34h-69q-35 0 -56 28l-176 215q-10 13 -10 29q0 29 37 29h55q26 0 55 -29l148 -137l196 137q39 29 64 29z" />
    <glyph glyph-name="tcaron" unicode="&#x165;" horiz-adv-x="634" 
d="M442 881l-127 -590q-14 -72 -14 -105q0 -40 25.5 -57.5t76.5 -17.5q29 0 66.5 6t40.5 6q11 0 19.5 -7.5t9.5 -17.5q4 -36 4 -61q0 -29 -47 -39q-75 -16 -166 -16q-183 0 -183 163q0 48 17 131l133 605h-113q-30 0 -30 24q0 19 12 68q10 37 43 37h113q51 214 57 235
q13 47 45 47h59q33 0 33 -28q0 -9 -4 -37l-45 -217h192q37 0 37 -29q0 -15 -12 -70q-4 -19 -15 -24.5t-32 -5.5h-195zM887 1540q39 0 39 -39q0 -35 -21 -96q-54 -161 -157 -254q-27 -27 -54 -27q-26 0 -49 19q-18 15 -18 31q0 13 20 38q101 112 123 271q7 57 55 57h62z" />
    <glyph glyph-name="Tbar" unicode="&#x166;" horiz-adv-x="1167" 
d="M690 0h-383q-35 0 -35 27q0 2 13 69q8 33 49 33h102l131 614h-260q-31 0 -31 29q0 15 11 66q5 19 13.5 26.5t29.5 7.5h264l96 445h-313l-35 -146q-9 -36 -41 -36h-65q-31 0 -31 30q0 16 41 232q5 29 14.5 39t38.5 10h987q35 0 35 -29q0 -11 -41 -250q-5 -32 -39 -32h-65
q-31 0 -31 30q0 29 14 152h-315l-94 -445h280q33 0 33 -26q0 -28 -12 -72q-4 -19 -14 -25t-31 -6h-285l-129 -614h121q20 0 28.5 -6t8.5 -21q0 -21 -13 -69q-4 -20 -14.5 -26.5t-32.5 -6.5z" />
    <glyph glyph-name="tbar" unicode="&#x167;" horiz-adv-x="634" 
d="M442 881l-43 -195h187q32 0 32 -29q0 -5 -12 -55q-5 -31 -43 -31h-188l-60 -280q-14 -72 -14 -105q0 -40 25.5 -57.5t76.5 -17.5q29 0 66.5 6t40.5 6q11 0 19.5 -7.5t9.5 -17.5q4 -36 4 -61q0 -29 -47 -39q-75 -16 -166 -16q-183 0 -183 163q0 48 17 131l63 295h-98
q-31 0 -31 27q0 19 8 55q11 33 44 33h104l43 195h-113q-30 0 -30 24q0 19 12 68q10 37 43 37h113q51 214 57 235q13 47 45 47h59q33 0 33 -28q0 -9 -4 -37l-45 -217h192q37 0 37 -29q0 -15 -12 -70q-4 -19 -15 -24.5t-32 -5.5h-195z" />
    <glyph glyph-name="Utilde" unicode="&#x168;" horiz-adv-x="1484" 
d="M1268 578q-22 -101 -32 -143.5t-27.5 -104.5t-35.5 -100t-43 -72q-73 -100 -185.5 -143.5t-291.5 -43.5q-424 0 -424 305q0 105 41 297l158 744h-104q-35 0 -35 26q0 8 12 70q9 33 49 33h375q37 0 37 -27q0 -25 -12 -69q-4 -19 -15.5 -26t-34.5 -7h-116l-170 -793
q-25 -122 -25 -209q0 -204 291 -204q106 0 185 23t132 91q65 82 109 285l172 807h-133q-33 0 -33 26q0 21 12 70q9 33 47 33h371q20 0 28.5 -6t8.5 -21q0 -13 -12 -69q-4 -20 -14.5 -26.5t-32.5 -6.5h-93zM707 1581h-48q-30 0 -30 27q0 16 14 51q43 84 89.5 126t111.5 42
q45 0 147 -60q79 -47 119 -47q28 0 46.5 15t43.5 63q12 21 22.5 30t28.5 9h45q35 0 35 -27q0 -19 -16 -51q-42 -90 -90.5 -133t-110.5 -43q-37 0 -70.5 10t-87.5 41q-76 47 -112 47q-26 0 -46 -15t-42 -56q-14 -29 -49 -29z" />
    <glyph glyph-name="utilde" unicode="&#x169;" horiz-adv-x="1249" 
d="M1014 0h-203q-41 0 -41 35q0 13 8 53q-118 -113 -336 -113q-53 0 -98.5 9t-87 29t-65 58.5t-23.5 92.5q0 59 22 166l119 551h-100q-35 0 -35 26q0 16 12 68q8 35 50 35h206q33 0 33 -29q0 -1 -6 -37l-129 -608q-16 -82 -16 -115q0 -115 184 -115q145 0 237 62
q33 21 48 43q16 24 24 63l131 607h-102q-33 0 -33 26q0 16 12 68q8 35 47 35h205q35 0 35 -31q0 -15 -4 -35l-178 -817h108q37 0 37 -27q0 -20 -12 -67q-4 -19 -15 -26t-34 -7zM492 1229h-48q-30 0 -30 24q0 25 16 52q41 84 86 126t109 42q18 0 40.5 -8.5t37.5 -16.5t61 -35
q74 -45 113 -45q26 0 44.5 15.5t43.5 62.5q19 37 51 37h43q35 0 35 -25q0 -19 -17 -53q-78 -176 -192 -176q-36 0 -68 10.5t-86 42.5q-80 47 -106 47q-24 0 -43 -15.5t-41 -56.5q-9 -17 -18.5 -22.5t-30.5 -5.5z" />
    <glyph glyph-name="Umacron" unicode="&#x16a;" horiz-adv-x="1484" 
d="M1268 578q-22 -101 -32 -143.5t-27.5 -104.5t-35.5 -100t-43 -72q-73 -100 -185.5 -143.5t-291.5 -43.5q-424 0 -424 305q0 105 41 297l158 744h-104q-35 0 -35 26q0 8 12 70q9 33 49 33h375q37 0 37 -27q0 -25 -12 -69q-4 -19 -15.5 -26t-34.5 -7h-116l-170 -793
q-25 -122 -25 -209q0 -204 291 -204q106 0 185 23t132 91q65 82 109 285l172 807h-133q-33 0 -33 26q0 21 12 70q9 33 47 33h371q20 0 28.5 -6t8.5 -21q0 -13 -12 -69q-4 -20 -14.5 -26.5t-32.5 -6.5h-93zM1225 1624h-512q-31 0 -31 27q0 30 14 71q5 18 14 25.5t29 7.5h506
q33 0 33 -26q0 -22 -12 -72q-6 -20 -14.5 -26.5t-26.5 -6.5z" />
    <glyph glyph-name="umacron" unicode="&#x16b;" horiz-adv-x="1249" 
d="M1014 0h-203q-41 0 -41 35q0 13 8 53q-118 -113 -336 -113q-53 0 -98.5 9t-87 29t-65 58.5t-23.5 92.5q0 59 22 166l119 551h-100q-35 0 -35 26q0 16 12 68q8 35 50 35h206q33 0 33 -29q0 -1 -6 -37l-129 -608q-16 -82 -16 -115q0 -115 184 -115q145 0 237 62
q33 21 48 43q16 24 24 63l131 607h-102q-33 0 -33 26q0 16 12 68q8 35 47 35h205q35 0 35 -31q0 -15 -4 -35l-178 -817h108q37 0 37 -27q0 -20 -12 -67q-4 -19 -15 -26t-34 -7zM969 1253h-467q-31 0 -31 27q0 30 12 74q5 19 13.5 25.5t29.5 6.5h463q33 0 33 -26
q0 -38 -12 -76q-4 -18 -13 -24.5t-28 -6.5z" />
    <glyph glyph-name="Ubreve" unicode="&#x16c;" horiz-adv-x="1484" 
d="M1268 578q-22 -101 -32 -143.5t-27.5 -104.5t-35.5 -100t-43 -72q-73 -100 -185.5 -143.5t-291.5 -43.5q-424 0 -424 305q0 105 41 297l158 744h-104q-35 0 -35 26q0 8 12 70q9 33 49 33h375q37 0 37 -27q0 -25 -12 -69q-4 -19 -15.5 -26t-34.5 -7h-116l-170 -793
q-25 -122 -25 -209q0 -204 291 -204q106 0 185 23t132 91q65 82 109 285l172 807h-133q-33 0 -33 26q0 21 12 70q9 33 47 33h371q20 0 28.5 -6t8.5 -21q0 -13 -12 -69q-4 -20 -14.5 -26.5t-32.5 -6.5h-93zM1268 1853q26 0 26 -30q0 -27 -18 -74q-75 -193 -313 -193
q-136 0 -203.5 57t-67.5 159q0 34 6 55q7 26 37 26h47q30 0 33 -28q0 -6 1 -18.5t1 -18.5q0 -53 39.5 -81t112.5 -28q93 0 140 35.5t69 106.5q5 17 13 24.5t28 7.5h49z" />
    <glyph glyph-name="ubreve" unicode="&#x16d;" horiz-adv-x="1249" 
d="M1014 0h-203q-41 0 -41 35q0 13 8 53q-118 -113 -336 -113q-53 0 -98.5 9t-87 29t-65 58.5t-23.5 92.5q0 59 22 166l119 551h-100q-35 0 -35 26q0 16 12 68q8 35 50 35h206q33 0 33 -29q0 -1 -6 -37l-129 -608q-16 -82 -16 -115q0 -115 184 -115q145 0 237 62
q33 21 48 43q16 24 24 63l131 607h-102q-33 0 -33 26q0 16 12 68q8 35 47 35h205q35 0 35 -31q0 -15 -4 -35l-178 -817h108q37 0 37 -27q0 -20 -12 -67q-4 -19 -15 -26t-34 -7zM997 1481q27 0 27 -31q0 -34 -16 -78q-77 -201 -308 -201q-125 0 -187 58t-62 153q0 42 6 66
q7 33 35 33h40q29 0 29 -29q0 -35 2 -45q5 -55 41 -83t111 -28q91 0 133 38.5t65 117.5q9 29 39 29h45z" />
    <glyph glyph-name="Uring" unicode="&#x16e;" horiz-adv-x="1484" 
d="M1268 578q-22 -101 -32 -143.5t-27.5 -104.5t-35.5 -100t-43 -72q-73 -100 -185.5 -143.5t-291.5 -43.5q-424 0 -424 305q0 105 41 297l158 744h-104q-35 0 -35 26q0 8 12 70q9 33 49 33h375q37 0 37 -27q0 -25 -12 -69q-4 -19 -15.5 -26t-34.5 -7h-116l-170 -793
q-25 -122 -25 -209q0 -204 291 -204q106 0 185 23t132 91q65 82 109 285l172 807h-133q-33 0 -33 26q0 21 12 70q9 33 47 33h371q20 0 28.5 -6t8.5 -21q0 -13 -12 -69q-4 -20 -14.5 -26.5t-32.5 -6.5h-93zM1147 1714q0 -95 -55 -151t-150 -56q-78 0 -123 44.5t-45 123.5
q0 91 55.5 148t145.5 57q80 0 126 -44t46 -122zM1073 1712q0 50 -27.5 76.5t-78.5 26.5q-52 0 -88.5 -35.5t-36.5 -96.5q0 -53 29 -82.5t79 -29.5q55 0 89 36t34 105z" />
    <glyph glyph-name="uring" unicode="&#x16f;" horiz-adv-x="1249" 
d="M1014 0h-203q-41 0 -41 35q0 13 8 53q-118 -113 -336 -113q-53 0 -98.5 9t-87 29t-65 58.5t-23.5 92.5q0 59 22 166l119 551h-100q-35 0 -35 26q0 16 12 68q8 35 50 35h206q33 0 33 -29q0 -1 -6 -37l-129 -608q-16 -82 -16 -115q0 -115 184 -115q145 0 237 62
q33 21 48 43q16 24 24 63l131 607h-102q-33 0 -33 26q0 16 12 68q8 35 47 35h205q35 0 35 -31q0 -15 -4 -35l-178 -817h108q37 0 37 -27q0 -20 -12 -67q-4 -19 -15 -26t-34 -7zM922 1397q0 -100 -57.5 -158.5t-155.5 -58.5q-82 0 -129.5 46.5t-47.5 129.5q0 95 59 155
t154 60q82 0 129.5 -45.5t47.5 -128.5zM846 1395q0 106 -111 106q-55 0 -93 -37t-38 -100q0 -56 30 -86.5t83 -30.5q59 0 94 37t35 111z" />
    <glyph glyph-name="Uhungarumlaut" unicode="&#x170;" horiz-adv-x="1484" 
d="M1268 578q-22 -101 -32 -143.5t-27.5 -104.5t-35.5 -100t-43 -72q-73 -100 -185.5 -143.5t-291.5 -43.5q-424 0 -424 305q0 105 41 297l158 744h-104q-35 0 -35 26q0 8 12 70q9 33 49 33h375q37 0 37 -27q0 -25 -12 -69q-4 -19 -15.5 -26t-34.5 -7h-116l-170 -793
q-25 -122 -25 -209q0 -204 291 -204q106 0 185 23t132 91q65 82 109 285l172 807h-133q-33 0 -33 26q0 21 12 70q9 33 47 33h371q20 0 28.5 -6t8.5 -21q0 -13 -12 -69q-4 -20 -14.5 -26.5t-32.5 -6.5h-93zM784 1581q-29 -20 -63 -20h-68q-28 0 -28 24q0 17 18 35l277 219
q39 27 63 27h98q15 0 24 -7.5t9 -19.5q0 -23 -24 -39zM1165 1581q-31 -20 -65 -20h-68q-26 0 -26 24q0 20 18 35l274 219q39 27 64 27h100q31 0 31 -27q0 -22 -25 -39z" />
    <glyph glyph-name="uhungarumlaut" unicode="&#x171;" horiz-adv-x="1249" 
d="M1014 0h-203q-41 0 -41 35q0 13 8 53q-118 -113 -336 -113q-53 0 -98.5 9t-87 29t-65 58.5t-23.5 92.5q0 59 22 166l119 551h-100q-35 0 -35 26q0 16 12 68q8 35 50 35h206q33 0 33 -29q0 -1 -6 -37l-129 -608q-16 -82 -16 -115q0 -115 184 -115q145 0 237 62
q33 21 48 43q16 24 24 63l131 607h-102q-33 0 -33 26q0 16 12 68q8 35 47 35h205q35 0 35 -31q0 -15 -4 -35l-178 -817h108q37 0 37 -27q0 -20 -12 -67q-4 -19 -15 -26t-34 -7zM614 1212q-24 -24 -51 -24h-65q-14 0 -21.5 7t-7.5 17q0 17 14 31l222 268q24 27 53 27h96
q29 0 29 -25q0 -15 -21 -36zM926 1212q-27 -24 -54 -24h-63q-14 0 -21.5 7t-7.5 17q0 12 15 31l221 268q21 27 51 27h98q29 0 29 -25q0 -12 -20 -36z" />
    <glyph glyph-name="Uogonek" unicode="&#x172;" horiz-adv-x="1484" 
d="M1268 578q-22 -101 -32 -143.5t-27.5 -104.5t-35.5 -100t-43 -72q-64 -88 -157.5 -132t-231.5 -53q-85 -60 -133.5 -120.5t-48.5 -133.5q0 -88 98 -88q25 0 57.5 5.5t37.5 5.5q24 0 30 -25q6 -20 6 -51q-3 -26 -32 -35q-52 -14 -140 -14q-106 0 -155 44.5t-49 131.5
q0 90 48.5 156t139.5 124q-371 15 -371 303q0 105 41 297l158 744h-104q-35 0 -35 26q0 8 12 70q9 33 49 33h375q37 0 37 -27q0 -25 -12 -69q-4 -19 -15.5 -26t-34.5 -7h-116l-170 -793q-25 -122 -25 -209q0 -204 291 -204q106 0 185 23t132 91q65 82 109 285l172 807h-133
q-33 0 -33 26q0 21 12 70q9 33 47 33h371q20 0 28.5 -6t8.5 -21q0 -13 -12 -69q-4 -20 -14.5 -26.5t-32.5 -6.5h-93z" />
    <glyph glyph-name="uogonek" unicode="&#x173;" horiz-adv-x="1249" 
d="M1014 0h-94q-99 -65 -155 -126.5t-56 -137.5q0 -86 96 -86q23 0 54.5 5t35.5 5q21 0 27 -22q6 -20 6 -50q0 -22 -29 -32q-55 -15 -135 -15q-197 0 -197 168q0 96 58.5 163t167.5 130q-23 5 -23 33q0 13 8 53q-118 -113 -336 -113q-53 0 -98.5 9t-87 29t-65 58.5
t-23.5 92.5q0 59 22 166l119 551h-100q-35 0 -35 26q0 16 12 68q8 35 50 35h206q33 0 33 -29q0 -1 -6 -37l-129 -608q-16 -82 -16 -115q0 -115 184 -115q145 0 237 62q33 21 48 43q16 24 24 63l131 607h-102q-33 0 -33 26q0 16 12 68q8 35 47 35h205q35 0 35 -31
q0 -15 -4 -35l-178 -817h108q37 0 37 -27q0 -20 -12 -67q-4 -19 -15 -26t-34 -7z" />
    <glyph glyph-name="Wcircumflex" unicode="&#x174;" horiz-adv-x="2017" 
d="M524 -4h-69q-40 0 -43 43l-54 1278h-92q-35 0 -35 26q0 19 13 70q9 33 49 33h375q37 0 37 -27q0 -21 -13 -69q-4 -19 -15 -26t-34 -7h-133q14 -325 22 -549.5t12 -357t5 -168.5q61 133 159 325.5t404 782.5q15 30 27 41.5t35 11.5h61q20 0 29 -11t12 -38
q83 -973 90 -1112q106 246 496 1075h-131q-35 0 -35 26q0 13 14 70q9 33 47 33h375q35 0 35 -27q0 -21 -13 -69q-4 -20 -14 -26.5t-31 -6.5h-88l-606 -1280q-10 -23 -23 -32t-34 -9h-70q-40 0 -43 43q-68 855 -84 1126q-122 -257 -577 -1128q-21 -41 -60 -41zM1014 1561h-70
q-26 0 -26 24q0 18 18 33l250 209q45 35 71 35h70q28 0 55 -31l177 -213q10 -13 10 -29q0 -28 -37 -28h-53q-32 0 -58 26l-147 139l-197 -137q-18 -12 -25 -16.5t-17 -8t-21 -3.5z" />
    <glyph glyph-name="wcircumflex" unicode="&#x175;" horiz-adv-x="1611" 
d="M1620 881h-66l-434 -846q-19 -39 -55 -39h-66q-20 0 -29 9.5t-12 31.5q-66 487 -96 747q-80 -157 -411 -749q-22 -39 -56 -39h-61q-40 0 -43 43l-76 842h-82q-35 0 -35 26q0 23 13 68q8 35 49 35h317q37 0 37 -29q0 -21 -12 -68q-4 -18 -15.5 -25t-33.5 -7h-93
q52 -652 54 -680q122 232 393 721q15 28 28.5 40.5t36.5 12.5h52q34 0 41 -55q86 -564 102 -719q171 365 328 680h-97q-32 0 -32 26q0 16 12 68q8 35 47 35h320q36 0 36 -29q0 -21 -12 -68q-4 -19 -15 -25.5t-34 -6.5zM743 1174h-69q-25 0 -25 22q0 16 19 35l247 272
q27 35 62 35h78q30 0 47 -31l139 -280q8 -16 8 -27q0 -26 -37 -26h-57q-33 0 -47 26l-113 205l-196 -203q-28 -28 -56 -28z" />
    <glyph glyph-name="Ycircumflex" unicode="&#x176;" horiz-adv-x="1329" 
d="M1436 1317h-93l-569 -684l-108 -504h118q35 0 35 -27q0 -25 -12 -69q-4 -20 -14.5 -26.5t-32.5 -6.5h-381q-35 0 -35 27q0 20 12 69q6 19 17 26t33 7h106l109 500l-281 688h-98q-37 0 -37 26q0 13 14 70q9 33 47 33h371q20 0 28.5 -6t8.5 -21q0 -27 -12 -69
q-6 -20 -16 -26.5t-32 -6.5h-104q133 -331 211 -543q154 209 436 543h-98q-35 0 -35 26q0 21 12 70q9 33 47 33h377q37 0 37 -27t-12 -69q-6 -20 -16.5 -26.5t-32.5 -6.5zM659 1561h-69q-27 0 -27 24q0 17 19 33l249 209q45 35 72 35h70q28 0 55 -31l176 -213q10 -13 10 -29
q0 -28 -36 -28h-54q-31 0 -57 26l-147 139l-197 -137q-24 -17 -36 -22.5t-28 -5.5z" />
    <glyph glyph-name="ycircumflex" unicode="&#x177;" horiz-adv-x="1058" 
d="M1077 881h-59l-563 -928q-7 -11 -38 -62t-41 -67t-36 -56.5t-40 -60.5t-34 -46.5t-37 -45.5q-108 -127 -284 -127q-74 0 -101 8q-30 9 -30 33q0 42 18 78q10 18 35 18q4 0 35 -3t51 -3q54 0 95.5 17.5t80.5 62.5q62 74 190 287l23 37l-156 858h-67q-35 0 -35 26
q0 28 12 68q11 35 49 35h320q37 0 37 -29q0 -20 -13 -68q-6 -20 -15.5 -26t-33.5 -6h-110q109 -636 119 -699q20 35 72.5 127.5t131.5 226.5t207 345h-104q-35 0 -35 26q0 16 12 68q8 35 47 35h320q37 0 37 -29q0 -23 -13 -68q-6 -19 -16 -25.5t-31 -6.5zM440 1174h-69
q-25 0 -25 22q0 16 19 35l247 272q27 35 62 35h78q30 0 47 -31l139 -280q8 -16 8 -27q0 -26 -37 -26h-57q-33 0 -47 26l-113 205l-196 -203q-28 -28 -56 -28z" />
    <glyph glyph-name="Ydieresis" unicode="&#x178;" horiz-adv-x="1329" 
d="M1436 1317h-93l-569 -684l-108 -504h118q35 0 35 -27q0 -25 -12 -69q-4 -20 -14.5 -26.5t-32.5 -6.5h-381q-35 0 -35 27q0 20 12 69q6 19 17 26t33 7h106l109 500l-281 688h-98q-37 0 -37 26q0 13 14 70q9 33 47 33h371q20 0 28.5 -6t8.5 -21q0 -27 -12 -69
q-6 -20 -16 -26.5t-32 -6.5h-104q133 -331 211 -543q154 209 436 543h-98q-35 0 -35 26q0 21 12 70q9 33 47 33h377q37 0 37 -27t-12 -69q-6 -20 -16.5 -26.5t-32.5 -6.5zM791 1710q0 -70 -35 -100q-25 -25 -72 -25q-82 0 -82 72q0 65 33 98q27 27 76 27q80 0 80 -72z
M1174 1710q0 -70 -35 -100q-28 -25 -72 -25q-84 0 -84 72q0 65 33 98q27 27 76 27q82 0 82 -72z" />
    <glyph glyph-name="Zacute" unicode="&#x179;" horiz-adv-x="1234" 
d="M1055 0h-1018q-39 0 -39 35q0 11 6 45q10 33 35 61q343 387 589 666t328 373t121 137h-667l-37 -150q-8 -32 -39 -32h-64q-32 0 -32 30q0 16 43 232q5 24 17.5 36.5t41.5 12.5h915q43 0 43 -33q0 -3 -6 -43q-8 -43 -39 -78q-885 -1003 -1030 -1163h756l37 154q9 39 45 39
h59q31 0 31 -31q0 -19 -41 -242q-5 -25 -16 -37t-39 -12zM823 1581q-25 -20 -63 -20h-82q-29 0 -29 24q0 20 21 35l299 219q39 27 63 27h127q31 0 31 -25q0 -24 -23 -39z" />
    <glyph glyph-name="zacute" unicode="&#x17a;" horiz-adv-x="958" 
d="M770 0h-758q-28 0 -28 27q0 14 8 45q6 26 33 53l708 756h-432l-35 -129q-4 -18 -13 -24.5t-28 -6.5h-55q-33 0 -33 27q0 9 39 217q5 25 16.5 35t36.5 10h695q34 0 34 -29q0 -18 -4 -43q-7 -30 -43 -66l-698 -745h481l43 137q6 20 15 26.5t30 6.5h52q30 0 30 -27
q0 -25 -45 -227q-5 -24 -14.5 -33.5t-34.5 -9.5zM637 1212q-21 -24 -59 -24h-68q-14 0 -21.5 7t-7.5 17q0 16 15 31l247 268q27 27 54 27h114q31 0 31 -25q0 -14 -20 -34z" />
    <glyph glyph-name="Zdotaccent" unicode="&#x17b;" horiz-adv-x="1234" 
d="M1055 0h-1018q-39 0 -39 35q0 11 6 45q10 33 35 61q343 387 589 666t328 373t121 137h-667l-37 -150q-8 -32 -39 -32h-64q-32 0 -32 30q0 16 43 232q5 24 17.5 36.5t41.5 12.5h915q43 0 43 -33q0 -3 -6 -43q-8 -43 -39 -78q-885 -1003 -1030 -1163h756l37 154q9 39 45 39
h59q31 0 31 -31q0 -19 -41 -242q-5 -25 -16 -37t-39 -12zM918 1710q0 -70 -35 -100q-28 -25 -72 -25q-84 0 -84 72q0 65 33 98q27 27 76 27q82 0 82 -72z" />
    <glyph glyph-name="zdotaccent" unicode="&#x17c;" horiz-adv-x="958" 
d="M770 0h-758q-28 0 -28 27q0 14 8 45q6 26 33 53l708 756h-432l-35 -129q-4 -18 -13 -24.5t-28 -6.5h-55q-33 0 -33 27q0 9 39 217q5 25 16.5 35t36.5 10h695q34 0 34 -29q0 -18 -4 -43q-7 -30 -43 -66l-698 -745h481l43 137q6 20 15 26.5t30 6.5h52q30 0 30 -27
q0 -25 -45 -227q-5 -24 -14.5 -33.5t-34.5 -9.5zM715 1382q0 -70 -35 -100q-28 -25 -72 -25q-84 0 -84 72q0 65 33 98q30 27 76 27q82 0 82 -72z" />
    <glyph glyph-name="Zcaron" unicode="&#x17d;" horiz-adv-x="1234" 
d="M1055 0h-1018q-39 0 -39 35q0 11 6 45q10 33 35 61q343 387 589 666t328 373t121 137h-667l-37 -150q-8 -32 -39 -32h-64q-32 0 -32 30q0 16 43 232q5 24 17.5 36.5t41.5 12.5h915q43 0 43 -33q0 -3 -6 -43q-8 -43 -39 -78q-885 -1003 -1030 -1163h756l37 154q9 39 45 39
h59q31 0 31 -31q0 -19 -41 -242q-5 -25 -16 -37t-39 -12zM1069 1862h70q26 0 26 -25q0 -20 -18 -35l-250 -207q-39 -34 -72 -34h-69q-35 0 -56 28l-176 215q-10 13 -10 29q0 29 37 29h55q27 0 56 -29l147 -137l197 137q39 29 63 29z" />
    <glyph glyph-name="zcaron" unicode="&#x17e;" horiz-adv-x="958" 
d="M770 0h-758q-28 0 -28 27q0 14 8 45q6 26 33 53l708 756h-432l-35 -129q-4 -18 -13 -24.5t-28 -6.5h-55q-33 0 -33 27q0 9 39 217q5 25 16.5 35t36.5 10h695q34 0 34 -29q0 -18 -4 -43q-7 -30 -43 -66l-698 -745h481l43 137q6 20 15 26.5t30 6.5h52q30 0 30 -27
q0 -25 -45 -227q-5 -24 -14.5 -33.5t-34.5 -9.5zM834 1538h69q25 0 25 -22q0 -16 -19 -35l-247 -273q-27 -34 -62 -34h-78q-34 0 -47 30l-139 281q-6 12 -6 28q0 25 35 25h57q30 0 45 -27l115 -204l194 202q25 29 58 29z" />
    <glyph glyph-name="longs" unicode="&#x17f;" horiz-adv-x="595" 
d="M389 0h-399q-33 0 -33 27q0 4 12 65q8 35 47 35h107l225 1057q25 117 57.5 185.5t83.5 107.5q89 73 250 73q80 0 123 -16q17 -6 17 -29q0 -17 -13 -67q-8 -25 -37 -25q-4 0 -40 4t-66 4q-104 0 -156 -55q-40 -45 -73 -197l-224 -1042h144q20 0 28.5 -6t8.5 -23
q0 -10 -15 -65q-4 -20 -14.5 -26.5t-32.5 -6.5z" />
    <glyph glyph-name="florin" unicode="&#x192;" horiz-adv-x="958" 
d="M465 125q-26 -126 -55.5 -191t-79.5 -106q-91 -76 -258 -76q-65 0 -115 12q-20 9 -20 33q0 12 14 70q7 29 37 29q3 0 36.5 -4.5t61.5 -4.5q108 0 154 56q42 51 73 194l136 649h-175q-32 0 -32 27q0 19 8 51q4 19 15 26t32 7h174l33 152q42 201 135 284q83 78 264 78
q40 0 100 -6t84 -14q25 -6 25 -33q0 -9 -31 -223q-6 -35 -41 -35h-55q-31 0 -31 30q0 15 9 142q-44 6 -82 6q-117 0 -162 -66q-38 -53 -68 -184l-28 -131h233q33 0 33 -29q0 -13 -8 -53q-8 -29 -47 -29h-234z" />
    <glyph glyph-name="Aringacute" unicode="&#x1fa;" horiz-adv-x="1370" 
d="M1077 1567q0 -119 -94 -162l191 -1276h79q37 0 37 -27q0 -22 -12 -69q-4 -19 -15 -26t-34 -7h-369q-35 0 -35 27q0 7 15 69q4 19 14.5 26t32.5 7h135l-53 346h-531l-205 -346h132q36 0 36 -27q0 -22 -12 -69q-6 -20 -15.5 -26.5t-31.5 -6.5h-381q-35 0 -35 27q0 16 13 69
q8 33 49 33h80l737 1280q-60 38 -60 125q0 79 49.5 128.5t129.5 49.5q71 0 112 -37.5t41 -107.5zM866 1247q-15 -26 -65.5 -117t-122.5 -218.5t-174 -305.5h452q-51 343 -90 641zM965 1778q-34 -19 -54 -19h-41q-11 0 -17.5 6.5t-6.5 14.5q0 16 14 28l217 179q31 24 60 24
h75q29 0 29 -26q0 -23 -18 -35zM1004 1567q0 39 -23 60.5t-63 21.5q-43 0 -74 -29t-31 -78q0 -42 21.5 -66t60.5 -26h8q45 0 73 30.5t28 86.5z" />
    <glyph glyph-name="aringacute" unicode="&#x1fb;" horiz-adv-x="1198" 
d="M975 0h-201q-39 0 -39 35q0 7 6 55q-105 -115 -331 -115q-314 0 -314 314q0 167 61.5 349.5t174.5 279.5q126 110 370 110q162 0 234 -57q9 28 19 38.5t28 10.5h55q35 0 35 -29q0 -21 -6 -45l-178 -819h110q35 0 35 -27q0 -14 -12 -67q-4 -20 -14.5 -26.5t-32.5 -6.5z
M776 266l125 592q-62 43 -209 43q-175 0 -268 -84q-81 -71 -127.5 -214t-46.5 -281q0 -112 51 -165t168 -53q155 0 248 74q30 24 39 41q14 22 20 47zM954 1397q0 -100 -57.5 -158.5t-157.5 -58.5q-80 0 -127 46.5t-47 129.5q0 95 59 155t154 60q82 0 129 -45.5t47 -128.5z
M881 1395q0 54 -29.5 82t-83.5 28q-56 0 -94.5 -38t-38.5 -103q0 -58 30 -88.5t85 -30.5q59 0 95 38t36 112zM825 1663q-22 -25 -57 -25h-55q-13 0 -21 7.5t-8 17.5q0 17 14 31l252 264q24 27 54 27h92q30 0 30 -25q0 -21 -18 -35z" />
    <glyph glyph-name="AEacute" unicode="&#x1fc;" horiz-adv-x="2025" 
d="M365 0h-404q-35 0 -35 27q0 14 13 67q8 35 47 35h86l1030 1188h-141q-35 0 -35 26q0 8 12 70q9 33 47 33h1026q22 0 29.5 -8t7.5 -23q0 -25 -41 -248q-5 -32 -37 -32h-67q-31 0 -31 30q0 18 16 152h-479l-104 -498h471q36 0 36 -26q0 -20 -12 -74q-4 -19 -15 -26t-34 -7
h-475l-119 -557h565l41 145q10 37 39 37h66q33 0 33 -28q0 -20 -48 -234q-5 -25 -15.5 -37t-35.5 -12h-925q-35 0 -35 27q0 6 12 67q8 35 49 35h101l77 356h-516l-307 -356h131q20 0 28.5 -6t8.5 -23q0 -23 -12 -67q-6 -20 -16.5 -26.5t-32.5 -6.5zM672 621h438l145 684
q-149 -189 -583 -684zM1559 1581q-25 -20 -64 -20h-82q-29 0 -29 24q0 20 21 35l299 219q39 27 63 27h127q31 0 31 -25q0 -24 -22 -39z" />
    <glyph glyph-name="aeacute" unicode="&#x1fd;" horiz-adv-x="1730" 
d="M838 121q-82 -69 -178 -107.5t-244 -38.5q-320 0 -320 314q0 100 23.5 214.5t79 232.5t131.5 182q137 114 372 114q127 0 216 -47l6 19q7 18 15.5 26t27.5 8h41q30 0 30 -26q0 -9 -6 -45l-14 -68q39 62 131 99.5t197 37.5q175 0 253 -69.5t78 -202.5q0 -93 -22 -225
q-8 -49 -27 -62q-15 -10 -47 -10h-633q-12 -80 -12 -127q0 -135 68 -186.5t217 -51.5q137 0 256 39q43 13 49 13q14 0 24 -21q15 -37 15 -57q0 -17 -9 -26t-30 -19q-137 -56 -348 -56q-139 0 -222 35.5t-118 110.5zM803 238q-4 54 -4 90q0 136 51 346l43 186q-57 41 -201 41
q-173 0 -270 -84q-81 -72 -126.5 -214t-45.5 -281q0 -111 51.5 -164.5t167.5 -53.5q208 0 334 134zM969 588h549q20 85 20 160q0 85 -45 128.5t-164 43.5q-140 0 -225 -64q-95 -72 -135 -268zM1049 1212q-21 -24 -60 -24h-67q-14 0 -21.5 7t-7.5 17q0 17 14 31l248 268
q27 27 53 27h115q31 0 31 -25q0 -13 -21 -34z" />
    <glyph glyph-name="Oslashacute" unicode="&#x1fe;" horiz-adv-x="1404" 
d="M178 -23q-12 -14 -28 -14q-12 0 -46 29q-12 10 -12 22q0 13 14 27l99 115q-55 94 -55 256q0 139 26.5 298t92 328t157.5 267q153 161 440 161q264 0 375 -86l88 103q18 18 31 18q12 0 22 -10q35 -23 35 -41q0 -12 -12 -27l-98 -114q61 -99 61 -265q0 -128 -25.5 -287
t-87 -332t-145.5 -271q-83 -96 -195.5 -138.5t-271.5 -42.5q-261 0 -379 107zM1208 1022q0 86 -18 147l-821 -966q41 -50 112.5 -71t182.5 -21q118 0 197 30t140 111q92 122 149.5 363.5t57.5 406.5zM309 432q0 -80 15 -135l813 960q-77 74 -283 74q-215 0 -322 -123
q-71 -81 -124 -228.5t-76 -289t-23 -258.5zM936 1581q-25 -20 -64 -20h-81q-29 0 -29 24q0 21 20 35l299 219q39 27 64 27h127q31 0 31 -25q0 -24 -23 -39z" />
    <glyph glyph-name="oslashacute" unicode="&#x1ff;" horiz-adv-x="1116" 
d="M696 1212q-21 -24 -59 -24h-68q-28 0 -28 24q0 17 14 31l248 268q27 27 53 27h115q30 0 30 -25q0 -14 -20 -34zM145 -47q-1 -1 -5 -5.5t-6 -6t-6 -3t-9 -1.5q-16 0 -39 26q-14 14 -14 25q0 9 12 24l72 84q-54 76 -54 207q0 143 48.5 320t138.5 278q121 137 360 137
q187 0 275 -49l75 88q10 15 25 15q10 0 24 -11q27 -21 27 -37q0 -11 -10 -24l-76 -88q57 -69 57 -203q0 -125 -42 -306.5t-117 -289.5q-113 -160 -387 -160q-183 0 -279 60zM891 705q0 55 -19 98l-561 -656q58 -45 199 -45q92 0 158 27t106 94q50 82 83.5 239t33.5 243z
M250 315q0 -48 10 -90l555 645q-56 37 -190 37q-159 0 -240 -96q-64 -77 -99.5 -235t-35.5 -261z" />
    <glyph glyph-name="uni0218" unicode="&#x218;" horiz-adv-x="1140" 
d="M74 88v236q0 43 37 43h61q32 0 35 -37l12 -166q125 -53 289 -53q85 0 148.5 12.5t115 43t78.5 85.5t27 135q0 35 -6.5 62t-27 60.5t-67 64.5t-117.5 59l-165 65q-240 92 -240 336q0 225 141 332t402 107q192 0 317 -46q20 -8 27.5 -15.5t7.5 -22.5q0 -13 -33 -246
q-5 -33 -39 -33h-65q-18 0 -24.5 7.5t-6.5 23.5q0 7 10 168q-117 26 -235 26q-168 0 -254 -61t-86 -213q0 -83 45 -140t164 -102l149 -59q140 -55 203 -135t63 -201q0 -451 -551 -451q-225 0 -383 68q-32 14 -32 47zM539 -141q39 0 39 -41q0 -36 -21 -97q-55 -160 -158 -253
q-27 -27 -53 -27q-25 0 -49 20q-18 15 -18 31q0 12 20 37q102 112 123 272q7 58 55 58h62z" />
    <glyph glyph-name="uni0219" unicode="&#x219;" horiz-adv-x="862" 
d="M37 66v196q0 41 43 41h45q20 0 28.5 -7.5t10.5 -25.5l10 -143q80 -29 182 -29q154 0 209 58q45 51 45 118q0 24 -4 40.5t-18 36t-46 37.5t-83 36l-129 47q-90 33 -139.5 90.5t-49.5 134.5q0 168 117 260q100 78 311 78q113 0 226 -26q32 -10 32 -43q0 -27 -20 -209
q-3 -33 -43 -33h-53q-29 0 -29 33q0 45 6 139q-69 14 -145 14q-142 0 -191 -41q-61 -49 -61 -143q0 -43 32.5 -75.5t116.5 -63.5l123 -45q195 -70 195 -230q0 -149 -92 -241q-50 -50 -128 -73.5t-200 -23.5q-71 0 -146.5 12t-123.5 33q-31 14 -31 48zM389 -141q39 0 39 -41
q0 -39 -20 -97q-55 -160 -158 -253q-27 -27 -53 -27t-50 20q-18 15 -18 31q0 6 2.5 11.5t4.5 9t7.5 9.5t6.5 7q100 111 122 272q7 58 56 58h61z" />
    <glyph glyph-name="uni021A" unicode="&#x21a;" horiz-adv-x="1167" 
d="M678 0h-383q-35 0 -35 27q0 8 12 69q8 33 50 33h102l254 1188h-313l-35 -146q-9 -36 -41 -36h-66q-30 0 -30 30q0 21 40 232q5 28 15 38.5t39 10.5h987q35 0 35 -29q0 -11 -41 -250q-5 -32 -39 -32h-66q-30 0 -30 30q0 29 14 152h-316l-251 -1188h120q20 0 28.5 -6
t8.5 -21q0 -25 -12 -69q-4 -20 -14.5 -26.5t-32.5 -6.5zM494 -141q38 0 38 -41q0 -39 -20 -97q-55 -160 -158 -253q-27 -27 -53 -27q-25 0 -49 20q-19 16 -19 31q0 6 2.5 11.5t4.5 9t7.5 9.5t6.5 7q102 112 123 272q7 58 55 58h62z" />
    <glyph glyph-name="uni021B" unicode="&#x21b;" horiz-adv-x="634" 
d="M442 881l-127 -590q-14 -72 -14 -105q0 -40 25.5 -57.5t76.5 -17.5q29 0 66.5 6t40.5 6q11 0 19.5 -7.5t9.5 -17.5q4 -36 4 -61q0 -29 -47 -39q-75 -16 -166 -16q-183 0 -183 163q0 48 17 131l133 605h-113q-30 0 -30 24q0 19 12 68q10 37 43 37h113q51 214 57 235
q13 47 45 47h59q33 0 33 -28q0 -9 -4 -37l-45 -217h192q37 0 37 -29q0 -15 -12 -70q-4 -19 -15 -24.5t-32 -5.5h-195zM317 -141q39 0 39 -41q0 -39 -20 -97q-55 -160 -158 -253q-27 -27 -53 -27q-25 0 -49 20q-19 16 -19 31q0 6 2.5 11.5t4.5 9t7.5 9.5t6.5 7
q102 112 123 272q7 58 55 58h61z" />
    <glyph glyph-name="circumflex" unicode="&#x2c6;" horiz-adv-x="403" 
d="M-2 1174h-70q-24 0 -24 22q0 17 18 35l248 272q27 35 61 35h78q30 0 47 -31l140 -280q8 -16 8 -27q0 -26 -37 -26h-57q-34 0 -48 26l-112 205l-197 -203q-28 -28 -55 -28z" />
    <glyph glyph-name="caron" unicode="&#x2c7;" horiz-adv-x="403" 
d="M408 1538h69q25 0 25 -22q0 -16 -19 -35l-247 -273q-27 -34 -62 -34h-78q-34 0 -47 30l-139 281q-6 12 -6 28q0 25 35 25h57q30 0 45 -27l115 -204l194 202q25 29 58 29z" />
    <glyph glyph-name="breve" unicode="&#x2d8;" horiz-adv-x="403" 
d="M471 1481q27 0 27 -31t-17 -78q-77 -201 -307 -201q-125 0 -187.5 58t-62.5 153q0 42 6 66q7 33 35 33h41q29 0 29 -29q0 -35 2 -45q5 -55 40.5 -83t110.5 -28q91 0 133.5 38.5t65.5 117.5q9 29 39 29h45z" />
    <glyph glyph-name="dotaccent" unicode="&#x2d9;" horiz-adv-x="403" 
d="M297 1382q0 -70 -35 -100q-28 -25 -72 -25q-84 0 -84 72q0 65 33 98q30 27 76 27q82 0 82 -72z" />
    <glyph glyph-name="ring" unicode="&#x2da;" horiz-adv-x="403" 
d="M395 1397q0 -100 -57.5 -158.5t-155.5 -58.5q-82 0 -129 46.5t-47 129.5q0 95 59 155t154 60q82 0 129 -45.5t47 -128.5zM319 1395q0 106 -110 106q-55 0 -93 -37t-38 -100q0 -56 29.5 -86.5t82.5 -30.5q59 0 94 37t35 111z" />
    </font>
</defs>
</svg>
