<?xml version="1.0" standalone="no"?>
<!DOCTYPE svg PUBLIC "-//W3C//DTD SVG 1.1//EN" "http://www.w3.org/Graphics/SVG/1.1/DTD/svg11.dtd" >
<svg xmlns="http://www.w3.org/2000/svg" xmlns:xlink="http://www.w3.org/1999/xlink" version="1.1">
<metadata>
Created by FontForge 20170731 at Thu Jun 23 20:53:37 2022
 By Aleksey,,,
Copyright (c) 2014 by Dieter Hofrichter. All rights reserved.
</metadata>
<defs>
<font id="OrgonSlab-ThinIt" horiz-adv-x="770" >
  <font-face 
    font-family="Orgon Slab Thin"
    font-weight="100"
    font-style="italic"
    font-stretch="normal"
    units-per-em="2048"
    panose-1="2 0 5 3 4 0 0 9 0 3"
    ascent="1536"
    descent="-512"
    x-height="1004"
    cap-height="1446"
    bbox="-371 -535 2427 2001"
    underline-thickness="102"
    underline-position="-307"
    slope="-12"
    unicode-range="U+0020-FB04"
  />
<missing-glyph horiz-adv-x="1026" 
d="M0 0v1448h1026v-1448h-1026zM514 817l348 526h-698zM573 725l353 -526v1052zM164 102h698l-348 529zM102 1251v-1052l351 526z" />
    <glyph glyph-name="f_f" unicode="ff" horiz-adv-x="1282" 
d="M424 0h-375q-29 0 -29 18q0 5 7 33q8 27 41 27h110l180 848h-116q-25 0 -25 18q0 15 6 33q5 15 12.5 21t24.5 6h117l31 143q25 119 54 183t77 104q84 73 229 73q80 0 121 -12q14 -6 14 -22q0 -15 -8 -35q-7 -21 -29 -21q-2 0 -42.5 5t-73.5 5q-122 0 -177 -67
q-48 -57 -81 -219l-29 -137h555l39 184q25 119 54 183t77 104q84 73 229 73q81 0 121 -12q14 -6 14 -23q0 -14 -8 -34q-7 -21 -28 -21q-2 0 -43 5t-74 5q-121 0 -176 -67q-49 -58 -82 -219l-37 -178h201q24 0 24 -23q0 -14 -8 -35q-5 -11 -12 -15.5t-23 -4.5h-201l-180 -848
h176q29 0 29 -21q0 -14 -6 -32q-4 -15 -12 -20t-27 -5h-375q-28 0 -28 18q0 9 6 33q8 27 41 27h110l180 848h-555l-180 -848h176q29 0 29 -21q0 -14 -6 -32q-4 -15 -12 -20t-27 -5z" />
    <glyph glyph-name="fi" unicode="fi" horiz-adv-x="1239" 
d="M424 0h-375q-29 0 -29 18q0 5 7 33q8 27 41 27h110l180 848h-116q-25 0 -25 18q0 15 6 33q5 15 12.5 21t24.5 6h117l39 184q25 116 55.5 181t79.5 106q84 73 240 73q89 0 143 -16q14 -6 14 -23q0 -14 -8 -34q-7 -21 -29 -21q-6 0 -53.5 7t-85.5 7q-131 0 -186 -67
q-55 -65 -86 -219l-37 -178h602q31 0 31 -23q0 -17 -6 -41l-185 -862h135q29 0 29 -21q0 -14 -6 -32q-4 -15 -12 -20t-27 -5h-334q-28 0 -28 18q0 9 6 33q8 27 41 27h110l180 848h-555l-180 -848h176q29 0 29 -21q0 -14 -6 -32q-4 -15 -12 -20t-27 -5zM1188 1382
q0 -52 -31 -79q-20 -17 -51 -17q-64 0 -64 53t29 78q22 19 55 19q62 0 62 -54z" />
    <glyph glyph-name="fl" unicode="fl" horiz-adv-x="1206" 
d="M424 0h-375q-29 0 -29 18q0 5 7 33q8 27 41 27h110l180 848h-116q-25 0 -25 18q0 15 6 33q5 15 12.5 21t24.5 6h117l39 184q25 115 55 177.5t80 104.5q90 78 276 78q249 0 357 -22q22 -4 22 -29q0 -13 -8 -49l-295 -1370h137q29 0 29 -21q0 -14 -6 -32q-4 -15 -12 -20
t-27 -5h-334q-28 0 -28 18q0 9 6 33q8 27 41 27h108l297 1376q-92 14 -303 14q-168 0 -225 -71q-56 -66 -86 -215l-37 -178h205q24 0 24 -23q0 -20 -6 -35q-5 -11 -12 -15.5t-23 -4.5h-207l-180 -848h176q29 0 29 -21q0 -14 -6 -32q-4 -15 -12 -20t-27 -5z" />
    <glyph glyph-name="f_f_i" unicode="ffi" horiz-adv-x="1880" 
d="M424 0h-375q-29 0 -29 20q0 3 7 31q8 27 41 27h110l180 848h-116q-25 0 -25 18q0 15 6 33q5 15 12.5 21t24.5 6h117l31 143q25 119 54 183t77 104q84 73 229 73q80 0 121 -12q14 -6 14 -22q0 -15 -8 -35q-7 -21 -29 -21q-2 0 -42.5 5t-73.5 5q-122 0 -177 -67
q-48 -57 -81 -219l-29 -137h555l39 184q25 116 55.5 181t79.5 106q84 73 240 73q77 0 124 -14q15 -6 15 -23q0 -14 -8 -34q-7 -21 -29 -21q-2 0 -45 6t-76 6q-131 0 -186 -67q-55 -65 -86 -219l-37 -178h602q31 0 31 -27q0 -11 -4 -27l-187 -872h135q29 0 29 -21
q0 -12 -6 -30q-5 -15 -13 -21t-26 -6h-334q-28 0 -28 20q0 7 6 31q8 27 41 27h110l180 848h-555l-180 -848h176q29 0 29 -21q0 -12 -6 -30q-5 -15 -13 -21t-26 -6h-375q-28 0 -28 20q0 7 6 31q8 27 41 27h110l180 848h-555l-180 -848h176q29 0 29 -21q0 -12 -6 -30
q-5 -15 -13 -21t-26 -6zM1829 1382q0 -52 -31 -79q-20 -17 -51 -17q-64 0 -64 53t29 78q22 19 55 19q62 0 62 -54z" />
    <glyph glyph-name="f_f_l" unicode="ffl" horiz-adv-x="1847" 
d="M424 0h-375q-29 0 -29 18q0 5 7 33q8 27 41 27h110l180 848h-116q-25 0 -25 18q0 15 6 33q5 15 12.5 21t24.5 6h117l31 143q25 119 54 183t77 104q84 73 229 73q80 0 121 -12q14 -6 14 -22q0 -15 -8 -35q-7 -21 -29 -21q-2 0 -42.5 5t-73.5 5q-122 0 -177 -67
q-48 -57 -81 -219l-29 -137h555l39 184q25 115 55 177.5t80 104.5q90 78 276 78q249 0 357 -22q22 -4 22 -29q0 -13 -8 -49l-295 -1370h137q29 0 29 -21q0 -14 -6 -32q-4 -15 -12 -20t-27 -5h-334q-28 0 -28 18q0 9 6 33q8 27 41 27h108l297 1376q-92 14 -303 14
q-168 0 -225 -71q-56 -66 -86 -215l-37 -178h205q24 0 24 -23q0 -17 -6 -35q-6 -20 -35 -20h-207l-180 -848h176q29 0 29 -21q0 -14 -6 -32q-4 -15 -12 -20t-27 -5h-375q-28 0 -28 18q0 9 6 33q8 27 41 27h110l180 848h-555l-180 -848h176q29 0 29 -21q0 -14 -6 -32
q-4 -15 -12 -20t-27 -5z" />
    <glyph glyph-name="T_h" unicode="Th" horiz-adv-x="2285" 
d="M657 0h-350q-28 0 -28 18q0 11 6 35q8 27 41 27h114l275 1284h-377l-37 -158q-7 -30 -31 -30h-32q-25 0 -25 24q0 8 37 201q5 28 13 36.5t34 8.5h1219l8 39q6 26 14 36.5t23 10.5h26q31 0 31 -23q0 -9 -6 -39l-123 -577q28 51 100 83.5t139 42t136 9.5q51 0 93 -8
t78 -26.5t56 -52.5t20 -81q0 -61 -22 -174l-131 -608h127q31 0 31 -19q0 -11 -7 -36q-4 -15 -11.5 -19t-26.5 -4h-175q-15 0 -23.5 7t-8.5 18q0 13 6 43l135 630q16 73 16 133q0 65 -46 90t-140 25q-84 0 -151 -14t-95 -27t-61 -33q-31 -20 -45 -47q-11 -19 -19 -53
l-149 -694h135q29 0 29 -21q0 -14 -6 -32q-4 -15 -12 -20t-27 -5h-334q-29 0 -29 18q0 9 6 33q8 27 41 27h111l270 1286h-692l-272 -1284h139q28 0 28 -21q0 -16 -6 -34q-4 -15 -12 -20t-27 -5z" />
    <glyph glyph-name="Tcaron_h" unicode="&#x164;h" horiz-adv-x="2285" 
d="M657 0h-350q-28 0 -28 18q0 11 6 35q8 27 41 27h114l275 1284h-377l-37 -158q-7 -30 -31 -30h-32q-25 0 -25 24q0 8 37 201q5 28 13 36.5t34 8.5h1219l8 39q6 26 14 36.5t23 10.5h26q31 0 31 -23q0 -9 -6 -39l-123 -577q28 51 100 83.5t139 42t136 9.5q51 0 93 -8
t78 -26.5t56 -52.5t20 -81q0 -61 -22 -174l-131 -608h127q31 0 31 -19q0 -11 -7 -36q-4 -15 -11.5 -19t-26.5 -4h-175q-15 0 -23.5 7t-8.5 18q0 13 6 43l135 630q16 73 16 133q0 65 -46 90t-140 25q-84 0 -151 -14t-95 -27t-61 -33q-31 -20 -45 -47q-11 -19 -19 -53
l-149 -694h135q29 0 29 -21q0 -14 -6 -32q-4 -15 -12 -20t-27 -5h-334q-29 0 -29 18q0 9 6 33q8 27 41 27h111l270 1286h-692l-272 -1284h139q28 0 28 -21q0 -16 -6 -34q-4 -15 -12 -20t-27 -5zM1061 1843h37q18 0 18 -18q0 -13 -16 -29l-256 -209q-31 -24 -56 -24h-24
q-21 0 -41 20l-186 215q-9 13 -9 23q0 22 27 22h20q21 0 46 -22l170 -158l221 156q33 24 49 24z" />
    <glyph glyph-name="f_b" unicode="fb" horiz-adv-x="1830" 
d="M424 0h-375q-29 0 -29 18q0 5 7 33q8 27 41 27h110l180 848h-116q-25 0 -25 18q0 15 6 33q5 15 12.5 21t24.5 6h117l39 184q25 115 55 177.5t80 104.5q90 78 276 78q247 0 355 -22q24 -4 24 -29q0 -9 -4 -33l-119 -563q49 66 143.5 96.5t205.5 30.5q315 0 315 -307
q0 -147 -44 -313.5t-128 -264.5q-73 -87 -172.5 -120t-249.5 -33q-62 0 -141 20t-111 49l-14 -43q-8 -22 -35 -22h-18q-23 0 -23 22q0 5 4 29l299 1409q-92 14 -303 14q-168 0 -225 -71q-56 -66 -86 -215l-37 -178h205q24 0 24 -23q0 -20 -6 -35q-5 -11 -12 -15.5t-23 -4.5
h-207l-180 -848h176q29 0 29 -21q0 -14 -6 -32q-4 -15 -12 -20t-27 -5zM920 137q23 -25 99.5 -46t143.5 -21q128 0 209.5 27.5t136.5 90.5q68 79 108 234.5t40 284.5q0 118 -60.5 178.5t-197.5 60.5q-159 0 -285 -76q-25 -15 -43 -51q-9 -18 -16 -49z" />
    <glyph glyph-name="f_f_b" unicode="ffb" horiz-adv-x="2471" 
d="M424 0h-375q-29 0 -29 18q0 5 7 33q8 27 41 27h110l180 848h-116q-25 0 -25 18q0 15 6 33q5 15 12.5 21t24.5 6h117l31 143q25 119 54 183t77 104q84 73 229 73q80 0 121 -12q14 -6 14 -22q0 -15 -8 -35q-7 -21 -29 -21q-2 0 -42.5 5t-73.5 5q-122 0 -177 -67
q-48 -57 -81 -219l-29 -137h555l39 184q25 115 55 177.5t80 104.5q90 78 276 78q247 0 355 -22q24 -4 24 -29q0 -9 -4 -33l-119 -563q49 66 143.5 96.5t205.5 30.5q315 0 315 -307q0 -147 -44 -313.5t-128 -264.5q-73 -87 -172.5 -120t-249.5 -33q-62 0 -141 20t-111 49
l-14 -43q-8 -22 -35 -22h-18q-23 0 -23 22q0 5 4 29l299 1409q-92 14 -303 14q-168 0 -225 -71q-56 -66 -86 -215l-37 -178h201q24 0 24 -23q0 -14 -8 -35q-5 -11 -12 -15.5t-23 -4.5h-201l-180 -848h176q29 0 29 -21q0 -14 -6 -32q-4 -15 -12 -20t-27 -5h-375q-28 0 -28 18
q0 9 6 33q8 27 41 27h110l180 848h-555l-180 -848h176q29 0 29 -21q0 -14 -6 -32q-4 -15 -12 -20t-27 -5zM1561 137q23 -25 99.5 -46t143.5 -21q128 0 209.5 27.5t136.5 90.5q68 79 108 234.5t40 284.5q0 118 -60.5 178.5t-197.5 60.5q-159 0 -285 -76q-25 -15 -43 -51
q-9 -18 -16 -49z" />
    <glyph glyph-name="f_f_h" unicode="ffh" horiz-adv-x="2519" 
d="M424 0h-375q-29 0 -29 18q0 5 7 33q8 27 41 27h110l180 848h-116q-25 0 -25 18q0 15 6 33q5 15 12.5 21t24.5 6h117l31 143q25 119 54 183t77 104q84 73 229 73q80 0 121 -12q14 -6 14 -22q0 -15 -8 -35q-7 -21 -29 -21q-2 0 -42.5 5t-73.5 5q-122 0 -177 -67
q-48 -57 -81 -219l-29 -137h555l39 184q25 115 55 177.5t80 104.5q90 78 276 78q249 0 357 -22q22 -4 22 -29q0 -13 -8 -49l-117 -555q28 51 100 83.5t139 42t136 9.5q51 0 93 -8t78 -26.5t56.5 -52.5t20.5 -81q0 -56 -23 -174l-131 -608h127q31 0 31 -19q0 -15 -6 -36
q-4 -15 -12 -19t-27 -4h-174q-15 0 -24 7t-9 18q0 13 6 43l135 630q17 78 17 133q0 65 -46 90t-141 25q-84 0 -151 -14t-95 -27t-61 -33q-31 -20 -45 -47q-10 -16 -18 -53l-150 -694h135q29 0 29 -21q0 -14 -6 -32q-4 -15 -12 -20t-27 -5h-334q-28 0 -28 18q0 11 6 35
q4 15 13 20t28 5h110l293 1376q-92 14 -303 14q-168 0 -225 -71q-56 -66 -86 -215l-37 -178h201q24 0 24 -23q0 -14 -8 -35q-5 -11 -12 -15.5t-23 -4.5h-201l-180 -848h176q29 0 29 -21q0 -14 -6 -32q-4 -15 -12 -20t-27 -5h-375q-28 0 -28 18q0 9 6 33q8 27 41 27h110
l180 848h-555l-180 -848h176q29 0 29 -21q0 -14 -6 -32q-4 -15 -12 -20t-27 -5z" />
    <glyph glyph-name="f_f_j" unicode="ffj" horiz-adv-x="1847" 
d="M424 0h-375q-29 0 -29 18q0 5 7 33q8 27 41 27h110l180 848h-116q-25 0 -25 18q0 15 6 33q5 15 12.5 21t24.5 6h117l31 143q25 119 54 183t77 104q84 73 229 73q80 0 121 -12q14 -6 14 -22q0 -15 -8 -35q-7 -21 -29 -21q-2 0 -42.5 5t-73.5 5q-122 0 -177 -67
q-48 -57 -81 -219l-29 -137h555l39 184q25 116 55.5 181t79.5 106q84 73 240 73q77 0 124 -14q15 -6 15 -23q0 -14 -8 -34q-7 -21 -29 -21q-2 0 -45 6t-76 6q-131 0 -186 -67q-55 -65 -86 -219l-37 -178h588q30 0 30 -25q0 -15 -4 -31l-245 -1143q-21 -101 -48 -154.5
t-71 -88.5q-93 -74 -271 -74q-36 0 -36 25q0 15 6 36q4 12 13 15.5t30 3.5q135 0 198 47q33 27 53.5 67t38.5 121l240 1123h-541l-180 -848h176q29 0 29 -21q0 -14 -6 -32q-4 -15 -12 -20t-27 -5h-375q-28 0 -28 18q0 9 6 33q8 27 41 27h110l180 848h-555l-180 -848h176
q29 0 29 -21q0 -12 -6 -30q-5 -15 -13 -21t-26 -6zM1815 1382q0 -52 -31 -79q-20 -17 -51 -17q-64 0 -64 53t29 78q22 19 55 19q62 0 62 -54z" />
    <glyph glyph-name="f_f_k" unicode="ffk" horiz-adv-x="2349" 
d="M2353 926h-96q-144 -151 -350 -357q123 -252 221 -448q13 -27 30 -35t56 -8h65q29 0 29 -23q0 -11 -6 -32q-6 -23 -39 -23h-94q-52 0 -79 22t-48 64l-193 406q-10 21 -25.5 27.5t-45.5 6.5h-133l-97 -448h135q29 0 29 -23q0 -12 -6 -30q-4 -15 -12 -20t-27 -5h-334
q-28 0 -28 18q0 7 6 31q9 29 41 29h110l293 1378q-99 12 -303 12q-168 0 -225 -71q-56 -66 -86 -215l-37 -178h201q24 0 24 -23q0 -14 -8 -35q-5 -11 -12 -15.5t-23 -4.5h-201l-180 -848h176q29 0 29 -23q0 -12 -6 -30q-4 -15 -12 -20t-27 -5h-375q-28 0 -28 18q0 7 6 31
q9 29 41 29h110l180 848h-555l-180 -848h176q29 0 29 -23q0 -12 -6 -30q-4 -15 -12 -20t-27 -5h-375q-29 0 -29 18q0 3 7 31q9 29 41 29h110l180 848h-116q-25 0 -25 18q0 15 6 33q5 15 12.5 21t24.5 6h117l31 143q25 119 54 183t77 104q84 73 229 73q80 0 121 -12
q14 -6 14 -22q0 -15 -8 -35q-7 -21 -29 -21q-2 0 -42.5 5t-73.5 5q-122 0 -177 -67q-48 -57 -81 -219l-29 -137h555l39 184q25 115 55 177.5t80 104.5q90 78 276 78q249 0 357 -22q22 -4 22 -29q0 -13 -8 -49l-178 -846h104q68 0 99 33l274 291h-100q-29 0 -29 18q0 9 6 33
q8 27 41 27h314q28 0 28 -21q0 -15 -6 -33q-4 -15 -12 -19.5t-27 -4.5z" />
    <glyph glyph-name="f_h" unicode="fh" horiz-adv-x="1878" 
d="M424 0h-375q-29 0 -29 18q0 3 7 31q9 29 41 29h110l180 848h-116q-25 0 -25 18q0 15 6 33q5 15 12.5 21t24.5 6h117l39 184q25 115 55 177.5t80 104.5q90 78 276 78q249 0 357 -22q22 -4 22 -29q0 -13 -8 -49l-117 -555q28 51 100 83.5t139 42t136 9.5q51 0 93 -8
t78 -26.5t56.5 -52.5t20.5 -81q0 -56 -23 -174l-131 -608h127q31 0 31 -19q0 -15 -6 -36q-4 -15 -12 -19t-27 -4h-174q-15 0 -24 7t-9 18q0 13 6 43l135 630q17 78 17 133q0 65 -46 90t-141 25q-84 0 -151 -14t-95 -27t-61 -33q-31 -20 -45 -47q-10 -16 -18 -53l-150 -694
h135q29 0 29 -21q0 -14 -6 -32q-4 -15 -12 -20t-27 -5h-334q-28 0 -28 18q0 7 6 31q9 29 41 29h110l293 1376q-92 14 -303 14q-168 0 -225 -71q-56 -66 -86 -215l-37 -178h205q24 0 24 -23q0 -20 -6 -35q-5 -11 -12 -15.5t-23 -4.5h-207l-180 -848h176q29 0 29 -21
q0 -14 -6 -32q-4 -15 -12 -20t-27 -5z" />
    <glyph glyph-name="f_j" unicode="fj" horiz-adv-x="1206" 
d="M424 0h-375q-29 0 -29 18q0 5 7 33q8 27 41 27h110l180 848h-116q-25 0 -25 18q0 15 6 33q5 15 12.5 21t24.5 6h117l39 184q25 116 55.5 181t79.5 106q84 73 240 73q77 0 124 -14q15 -6 15 -23q0 -14 -8 -34q-7 -21 -29 -21q-2 0 -45 6t-76 6q-131 0 -186 -67
q-55 -65 -86 -219l-37 -178h588q30 0 30 -25q0 -15 -4 -31l-246 -1143q-21 -101 -47.5 -155t-70.5 -88q-93 -74 -271 -74q-36 0 -36 25q0 15 6 36q4 12 13 15.5t30 3.5q135 0 198 47q33 27 53.5 67t38.5 121l240 1123h-541l-180 -848h176q29 0 29 -21q0 -12 -6 -30
q-5 -15 -13 -21t-26 -6zM1174 1382q0 -52 -31 -79q-20 -17 -51 -17q-64 0 -64 53t29 78q22 19 55 19q62 0 62 -54z" />
    <glyph glyph-name="f_k" unicode="fk" horiz-adv-x="1708" 
d="M1712 926h-96q-144 -151 -350 -357q123 -252 221 -448q13 -27 30 -35t56 -8h65q29 0 29 -21q0 -13 -6 -34q-6 -23 -39 -23h-94q-52 0 -79 22t-48 64l-193 406q-10 21 -25.5 27.5t-45.5 6.5h-133l-97 -448h135q29 0 29 -21q0 -14 -6 -32q-4 -15 -12 -20t-27 -5h-334
q-28 0 -28 18q0 9 6 33q8 27 41 27h110l293 1378q-99 12 -303 12q-168 0 -225 -71q-56 -66 -86 -215l-37 -178h205q24 0 24 -23q0 -20 -6 -35q-5 -11 -12 -15.5t-23 -4.5h-207l-180 -848h176q29 0 29 -21q0 -14 -6 -32q-4 -15 -12 -20t-27 -5h-375q-29 0 -29 18q0 5 7 33
q8 27 41 27h110l180 848h-116q-25 0 -25 18q0 15 6 33q5 15 12.5 21t24.5 6h117l39 184q25 115 55 177.5t80 104.5q90 78 276 78q249 0 357 -22q22 -4 22 -29q0 -13 -8 -49l-178 -846h104q68 0 99 33l276 291h-102q-29 0 -29 18q0 9 6 33q8 27 41 27h314q28 0 28 -21
q0 -15 -6 -33q-4 -15 -12 -19.5t-27 -4.5z" />
    <glyph glyph-name="uni0162_h" unicode="&#x162;h" horiz-adv-x="2285" 
d="M473 -139q178 0 178 -146q0 -110 -65 -159.5t-191 -49.5q-64 0 -94 13q-18 5 -18 22q0 7 6 31q6 22 28 22q10 0 25 -6q40 -8 70 -8q72 0 110.5 26t38.5 93q0 86 -102 86q-8 0 -24.5 -1t-18.5 -1q-29 0 -29 31q0 11 14 55l45 131h-139q-28 0 -28 18q0 11 6 35q8 27 41 27
h114l275 1284h-377l-37 -158q-7 -30 -31 -30h-32q-25 0 -25 24q0 8 37 201q5 28 13 36.5t34 8.5h1219l8 39q6 26 14 36.5t23 10.5h26q31 0 31 -23q0 -9 -6 -39l-123 -577q28 51 100 83.5t139 42t136 9.5q51 0 93 -8t78 -26.5t56 -52.5t20 -81q0 -61 -22 -174l-131 -608h127
q31 0 31 -19q0 -11 -7 -36q-4 -15 -11.5 -19t-26.5 -4h-175q-15 0 -23.5 7t-8.5 18q0 13 6 43l135 630q16 73 16 133q0 65 -46 90t-140 25q-84 0 -151 -14t-95 -27t-61 -33q-31 -20 -45 -47q-11 -19 -19 -53l-149 -694h135q29 0 29 -21q0 -14 -6 -32q-4 -15 -12 -20t-27 -5
h-334q-29 0 -29 18q0 9 6 33q8 27 41 27h111l270 1286h-692l-272 -1284h139q28 0 28 -21q0 -16 -6 -34q-4 -15 -12 -20t-27 -5h-141z" />
    <glyph glyph-name="uni021A_h" unicode="&#x21a;h" horiz-adv-x="2285" 
d="M657 0h-350q-28 0 -28 18q0 11 6 35q8 27 41 27h114l275 1284h-377l-37 -158q-7 -30 -31 -30h-32q-25 0 -25 24q0 8 37 201q5 28 13 36.5t34 8.5h1219l8 39q6 26 14 36.5t23 10.5h26q31 0 31 -23q0 -9 -6 -39l-123 -577q28 51 100 83.5t139 42t136 9.5q51 0 93 -8
t78 -26.5t56 -52.5t20 -81q0 -61 -22 -174l-131 -608h127q31 0 31 -19q0 -11 -7 -36q-4 -15 -11.5 -19t-26.5 -4h-175q-15 0 -23.5 7t-8.5 18q0 13 6 43l135 630q16 73 16 133q0 65 -46 90t-140 25q-84 0 -151 -14t-95 -27t-61 -33q-31 -20 -45 -47q-11 -19 -19 -53
l-149 -694h135q29 0 29 -21q0 -14 -6 -32q-4 -15 -12 -20t-27 -5h-334q-29 0 -29 18q0 9 6 33q8 27 41 27h111l270 1286h-692l-272 -1284h139q28 0 28 -21q0 -16 -6 -34q-4 -15 -12 -20t-27 -5zM483 -147q29 0 29 -31q0 -25 -23 -96q-56 -159 -161 -244q-20 -17 -33 -17
q-10 0 -27 13q-12 12 -12 22q0 11 18 29q47 47 85 120.5t49 157.5q7 46 41 46h34z" />
    <glyph glyph-name=".notdef" horiz-adv-x="1026" 
d="M0 0v1448h1026v-1448h-1026zM514 817l348 526h-698zM573 725l353 -526v1052zM164 102h698l-348 529zM102 1251v-1052l351 526z" />
    <glyph glyph-name=".null" horiz-adv-x="0" 
 />
    <glyph glyph-name="nonmarkingreturn" horiz-adv-x="682" 
 />
    <glyph glyph-name="space" unicode=" " horiz-adv-x="460" 
 />
    <glyph glyph-name="exclam" unicode="!" horiz-adv-x="569" 
d="M379 449q-3 -14 -11 -22.5t-18 -8.5h-31q-22 0 -22 20q0 7 4 31q182 909 191 942q6 35 38 35h35q17 0 23 -6.5t6 -22.5q0 -11 -215 -968zM338 82q0 -56 -33 -82q-19 -16 -51 -16q-66 0 -66 53t31 80q21 18 55 18q64 0 64 -53z" />
    <glyph glyph-name="quotedbl" unicode="&#x22;" horiz-adv-x="669" 
d="M350 989q-5 -26 -28 -26h-29q-21 0 -21 20q0 3 4 27q56 320 76 424q6 32 37 32h47q23 0 23 -22q0 -15 -6 -39q0 -1 -4.5 -18t-12.5 -50t-19 -79t-29 -117.5t-38 -151.5zM651 989q-5 -26 -28 -26h-29q-21 0 -21 20q0 2 1 6t2 10t2 11q64 367 75 424q6 32 37 32h47
q23 0 23 -22q0 -15 -6 -39q0 -1 -4.5 -18t-12.5 -50t-19 -79t-29 -117.5t-38 -151.5z" />
    <glyph glyph-name="numbersign" unicode="#" horiz-adv-x="1222" 
d="M446 473l-120 -473q-6 -19 -15 -26t-26 -7h-17q-26 0 -26 23q0 17 8 41l112 442h-194q-29 0 -29 23q0 8 4 36q3 31 35 31h207l72 279h-209q-29 0 -29 22q0 9 4 37q3 31 35 31h221l113 438q5 23 14.5 34t30.5 11h14q29 0 29 -22q0 -15 -8 -43l-107 -418h342l113 438
q5 23 14.5 34t30.5 11h14q29 0 29 -26q0 -7 -8 -39l-107 -418h197q29 0 29 -25q0 -10 -5 -41q-3 -14 -9 -19t-21 -5h-215l-72 -279h213q29 0 29 -24q0 -16 -4 -41q-3 -14 -9.5 -19.5t-21.5 -5.5h-230l-120 -473q-6 -19 -14 -26t-25 -7h-19q-26 0 -26 25q0 9 8 37l113 444
h-345zM469 563h344l72 279h-344z" />
    <glyph glyph-name="dollar" unicode="$" horiz-adv-x="1105" 
d="M496 -158q-2 -11 -5 -17.5t-11 -12t-21 -5.5h-23q-26 0 -26 23q0 5 4 25l28 133q-195 7 -315 65q-23 11 -23 35v207q0 29 25 29h35q23 0 26 -27l13 -176q102 -48 256 -51l125 585l-107 47q-186 80 -186 285q0 192 118 288t330 107l31 144q8 35 35 35h24q27 0 27 -21
q0 -9 -6 -33l-27 -123q142 -3 248 -36q10 -4 15 -7t9.5 -10t4.5 -18q0 -4 -2 -19.5t-9.5 -67.5t-15.5 -118q-3 -25 -29 -25h-32q-25 0 -25 25v6.5t1 16.5t2 27.5t3 47t4 68.5q-113 28 -190 31l-127 -596l47 -21q125 -58 187.5 -122.5t62.5 -155.5q0 -201 -117.5 -305
t-333.5 -115zM383 989q0 -82 43 -132.5t160 -104.5l16 -9l121 560q-82 -3 -141.5 -19.5t-105.5 -51.5t-69.5 -95.5t-23.5 -147.5zM881 393q0 76 -44 125t-175 105l-117 -551q160 11 248 85.5t88 235.5z" />
    <glyph glyph-name="percent" unicode="%" horiz-adv-x="1712" 
d="M819 1171q0 -111 -38 -276.5t-101 -253.5q-44 -64 -107.5 -91.5t-152.5 -27.5q-135 0 -199.5 53.5t-64.5 186.5q0 113 36 259t99 239q50 72 116 101.5t154 29.5q137 0 197.5 -46t60.5 -174zM729 1159q0 85 -36.5 121.5t-143.5 36.5q-124 0 -189 -98q-51 -77 -82.5 -214
t-31.5 -235q0 -95 40.5 -133.5t143.5 -38.5q64 0 107 19.5t75 70.5q49 75 83 227.5t34 243.5zM498 -33q-14 -20 -23.5 -26.5t-25.5 -6.5h-27q-21 0 -21 19q0 14 19 41l921 1417q27 45 58 45h26q23 0 23 -20q0 -15 -29 -56zM1679 631q0 -111 -38 -277t-101 -254
q-44 -64 -107 -91t-153 -27q-135 0 -199.5 53t-64.5 186q0 113 36 259t99 239q50 72 116 101.5t154 29.5q137 0 197.5 -46t60.5 -173zM1589 618q0 85 -36.5 121.5t-143.5 36.5q-123 0 -188 -98q-51 -77 -83 -214t-32 -235q0 -95 40.5 -133.5t143.5 -38.5q64 0 107.5 19.5
t75.5 70.5q49 74 82.5 227t33.5 244z" />
    <glyph glyph-name="ampersand" unicode="&#x26;" horiz-adv-x="1441" 
d="M1036 158q-80 -94 -194 -139.5t-307 -45.5q-211 0 -317.5 101t-106.5 266q0 66 14 121t42.5 98.5t62 77.5t85 64.5t97 52.5t110.5 49q-57 82 -85.5 157t-28.5 168q0 154 106.5 242t271.5 88q143 0 219 -63.5t76 -177.5q0 -66 -25 -125t-64.5 -103t-98 -84.5t-114 -68.5
t-124.5 -56q195 -278 383 -485q95 143 133 385h-161q-25 0 -25 22q0 12 6 33q5 16 11.5 21.5t23.5 5.5h383q27 0 27 -21q0 -15 -6 -36q-6 -25 -33 -25h-133q-44 -280 -172 -449q94 -100 129 -125.5t71 -25.5h41q22 0 30.5 -4.5t8.5 -22.5q0 -22 -6 -37q-8 -16 -33 -16h-61
q-63 0 -92 20q-45 31 -144 138zM981 223q-220 249 -410 516q-61 -27 -91.5 -41t-77 -39t-69.5 -43.5t-52 -48.5t-42 -61t-22.5 -72.5t-9.5 -91.5q0 -128 86 -205.5t266 -77.5q296 0 422 164zM610 842q39 17 52.5 23.5t53.5 26t58 30.5t53 33t52.5 39.5t41.5 43t36 50
t21 55.5t9 63q0 76 -53.5 123t-161.5 47q-55 0 -103.5 -14t-87 -42t-61 -75t-22.5 -108q0 -82 26 -143.5t86 -151.5z" />
    <glyph glyph-name="quotesingle" unicode="'" horiz-adv-x="370" 
d="M350 989q-5 -26 -28 -26h-29q-21 0 -21 20q0 3 4 27q56 320 76 424q6 32 37 32h47q23 0 23 -22q0 -15 -6 -39q0 -1 -4.5 -18t-12.5 -50t-19 -79t-29 -117.5t-38 -151.5z" />
    <glyph glyph-name="parenleft" unicode="(" horiz-adv-x="620" 
d="M784 1464q-287 -166 -437 -464.5t-150 -690.5q0 -111 19 -203.5t55.5 -162.5t67.5 -112.5t77 -94.5q6 -6 6 -19q0 -8 -14 -22q-10 -10 -23 -10q-12 0 -35 14q-45 35 -85.5 85.5t-79.5 124t-62 176t-23 220.5q0 179 37 355t110.5 340t198 298.5t285.5 212.5q30 15 37 15
q13 0 23 -17q10 -13 10 -24q0 -10 -17 -21z" />
    <glyph glyph-name="parenright" unicode=")" horiz-adv-x="620" 
d="M-102 -254q287 166 437 464.5t150 690.5q0 111 -19 203.5t-55.5 163t-67.5 113.5t-77 94q-6 6 -6 18q0 9 14 23q10 10 23 10q10 0 35 -15q45 -35 85.5 -85.5t79.5 -124t62 -176t23 -220.5q0 -179 -37 -355t-110.5 -340t-198 -298.5t-285.5 -212.5q-28 -14 -37 -14
q-13 0 -23 16q-10 13 -10 25q0 9 17 20z" />
    <glyph glyph-name="asterisk" unicode="*" horiz-adv-x="825" 
d="M541 983q-178 -184 -201 -205q-12 -12 -23 -12q-14 0 -45 31q-8 8 -8 22q0 13 12 25q113 104 220 190q-36 19 -125 57.5t-135 63.5q-21 11 -21 29q0 10 21 47q11 16 26 16q3 0 33 -10q53 -29 131 -76.5t104 -62.5q12 136 33 280q3 19 9 27t22 8q17 0 37 -4q16 -3 21 -9
t5 -18q0 -10 -4 -30q-10 -53 -30.5 -139.5t-28.5 -125.5q44 7 129 26.5t119 25.5q36 4 47 4q19 0 22 -21q7 -32 7 -51q-3 -18 -29 -24q-28 -5 -291 -29q130 -229 143 -254q7 -14 7 -23q0 -13 -19 -24q-34 -15 -45 -15q-12 0 -22 17q-38 78 -121 264z" />
    <glyph glyph-name="plus" unicode="+" horiz-adv-x="1435" 
d="M709 94q-6 -22 -29 -22h-33q-24 0 -24 22q0 5 4 25l96 440h-461q-22 0 -22 25q0 21 4 39q1 12 9 19t19 7h465l99 457q7 29 28 29h35q10 0 16.5 -7t6.5 -18q0 -9 -4 -29l-93 -432h461q23 0 23 -24q0 -7 -4 -39q-1 -12 -10 -19.5t-21 -7.5h-467z" />
    <glyph glyph-name="comma" unicode="," horiz-adv-x="407" 
d="M174 164q31 0 31 -27q0 -15 -8 -43q-27 -109 -101 -221.5t-162 -171.5q-21 -14 -36 -14q-14 0 -23 12q-10 13 -10 22q0 16 20 29q27 21 54.5 50.5t60 74.5t58.5 108.5t38 133.5q7 47 41 47h37z" />
    <glyph glyph-name="hyphen" unicode="-" horiz-adv-x="661" 
d="M541 504h-387q-25 0 -25 20q0 12 8 39q5 16 11.5 21.5t23.5 5.5h383q27 0 27 -21q0 -11 -9 -43q-4 -13 -10.5 -17.5t-21.5 -4.5z" />
    <glyph glyph-name="period" unicode="." horiz-adv-x="409" 
d="M203 82q0 -56 -33 -82q-19 -16 -51 -16q-66 0 -66 53t31 80q21 18 55 18q64 0 64 -53z" />
    <glyph glyph-name="slash" unicode="/" horiz-adv-x="753" 
d="M43 -172q-9 -19 -18.5 -26t-26.5 -7h-23q-26 0 -26 21q0 11 14 39l858 1638q11 24 22 34.5t27 10.5h25q27 0 27 -22q0 -6 -23 -54z" />
    <glyph glyph-name="zero" unicode="0" horiz-adv-x="1122" 
d="M1118 1036q0 -179 -56.5 -448t-148.5 -416q-70 -110 -165 -156.5t-230 -46.5q-204 0 -299.5 87t-95.5 300q0 187 54.5 423.5t148.5 389.5q75 123 175.5 173.5t231.5 50.5q103 0 172 -16.5t118.5 -56.5t72 -109.5t22.5 -174.5zM1022 1020q0 76 -12 126.5t-44 89.5
t-92.5 57t-154.5 18q-103 0 -180 -42t-138 -141q-82 -133 -133 -363.5t-51 -397.5q0 -171 68 -242.5t243 -71.5q106 0 179.5 35.5t130.5 126.5q80 130 132 386t52 419z" />
    <glyph glyph-name="one" unicode="1" horiz-adv-x="1122" 
d="M705 0h-429q-28 0 -28 18q0 9 6 33q8 27 41 27h162l256 1200l-234 -98q-35 -13 -41 -13q-12 0 -18 15q-8 19 -8 30q0 20 28 31l285 125q37 16 57 16h9q16 0 22 -5.5t6 -18.5q0 -9 -4 -29l-268 -1253h174q29 0 29 -21q0 -11 -7 -32q-5 -15 -12 -20t-26 -5z" />
    <glyph glyph-name="two" unicode="2" horiz-adv-x="1122" 
d="M899 0h-848q-28 0 -28 23q0 16 4 30q3 17 20 31q12 9 102 75.5t115.5 85.5t102.5 77.5t114.5 89.5t97 80t104.5 91t85 83q93 95 145 195.5t52 221.5q0 242 -289 242q-126 0 -252 -47q-11 -4 -27 -10t-26 -9.5t-17 -3.5q-14 0 -22 17q-8 16 -8 33q0 24 57 43
q164 61 315 61q365 0 365 -313q0 -262 -221 -480q-303 -295 -670 -534q115 2 676 2l39 170q6 25 28 25h33q25 0 25 -25q0 -9 -37 -209q-3 -23 -10.5 -34t-24.5 -11z" />
    <glyph glyph-name="three" unicode="3" horiz-adv-x="1122" 
d="M721 727q103 -9 163 -75.5t60 -184.5q0 -220 -102 -340q-132 -154 -441 -154q-179 0 -286 43q-41 16 -41 37q0 20 18 45q10 13 27 13q7 0 16 -3t22 -8t23 -8q111 -35 236 -35q254 0 352 119q84 99 84 283q0 112 -77.5 169.5t-260.5 57.5h-41q-31 0 -31 23q0 16 4 32
q5 15 13 21t28 6h43q202 0 310 94q94 82 94 258q0 205 -270 205q-143 0 -250 -43q-57 -22 -66 -22q-15 0 -24 18q-9 21 -9 31q0 13 12.5 21.5t45.5 21.5q137 57 307 57q189 0 269.5 -73.5t80.5 -213.5q0 -166 -75 -259.5t-234 -135.5z" />
    <glyph glyph-name="four" unicode="4" horiz-adv-x="1122" 
d="M948 0h-428q-28 0 -28 18q0 9 6 33q8 27 41 27h155l76 344h-604q-35 0 -35 31q0 17 6 32q2 5 25 37l622 817q31 45 64 45h22q27 0 27 -22q0 -12 -27 -51q-498 -655 -616 -807h534l78 377q6 32 35 32h25q30 0 30 -22q0 -7 -4 -31l-73 -356h213q32 0 32 -21t-6 -39
q-3 -11 -9.5 -16t-12 -5.5t-17.5 -0.5h-219l-76 -344h181q28 0 28 -21q0 -14 -6 -32q-4 -15 -12 -20t-27 -5z" />
    <glyph glyph-name="five" unicode="5" horiz-adv-x="1122" 
d="M1065 1143q-6 -25 -29 -25h-32q-25 0 -25 25v4t0.5 6.5t1.5 10.5t2.5 18.5t3 27.5t4.5 40t6 53h-516l-133 -486q117 43 258 43q196 0 291.5 -72t95.5 -237q0 -274 -145 -426t-438 -152q-193 0 -310 45q-21 8 -27.5 15.5t-6.5 17.5q0 17 14 45q10 17 31 17q5 0 14 -3.5
t22.5 -9t24.5 -8.5q120 -35 256 -35q469 0 469 484q0 69 -20.5 116t-62.5 73t-95.5 37t-128.5 11q-133 0 -279 -47q-35 -10 -43 -10q-26 0 -26 24q0 8 16 62l148 530q14 47 51 47h610q13 0 24 -8t11 -22q0 -19 -37 -211z" />
    <glyph glyph-name="six" unicode="6" horiz-adv-x="1122" 
d="M270 670q131 190 426 190q346 0 346 -313q0 -132 -30 -237t-107 -193q-66 -74 -156 -109t-229 -35q-178 0 -276.5 90.5t-98.5 284.5q0 134 30 298.5t98 335.5t159 263q82 83 185 123.5t257 40.5q153 0 226 -27q14 -6 14 -20q0 -23 -12 -47q-8 -17 -21 -17q-4 0 -12.5 1.5
t-18 4t-12.5 3.5q-92 18 -166 18q-138 0 -228 -36.5t-155 -108.5q-72 -81 -121 -201.5t-98 -308.5zM231 354q0 -48 6.5 -87t25.5 -79t50 -67.5t84.5 -44.5t124.5 -17q224 0 322 121q104 131 104 348q0 107 -63.5 177.5t-204.5 70.5q-125 0 -236 -54t-172 -140
q-16 -20 -28 -78q-13 -80 -13 -150z" />
    <glyph glyph-name="seven" unicode="7" horiz-adv-x="1122" 
d="M346 -6h-24q-33 0 -33 22q0 16 20 56q351 646 729 1233q-115 -2 -692 -2l-39 -164q-6 -25 -28 -25h-33q-25 0 -25 25q0 12 37 200q5 24 12.5 34.5t24.5 10.5h823q33 0 33 -22q0 -19 -2 -29q-2 -13 -23 -45q-224 -355 -391 -637.5t-338 -611.5q-11 -24 -22 -34.5
t-29 -10.5z" />
    <glyph glyph-name="eight" unicode="8" horiz-adv-x="1122" 
d="M811 721q104 -15 160.5 -85.5t56.5 -184.5q0 -123 -38 -216t-108 -149.5t-163 -84.5t-209 -28q-189 0 -292 84.5t-103 231.5q0 193 91.5 305t260.5 145q-81 24 -126.5 87.5t-45.5 144.5q0 218 127 328t356 110q171 0 256.5 -67.5t85.5 -196.5q0 -342 -309 -424zM934 440
q0 123 -83 183.5t-220 60.5q-65 0 -121 -9t-113.5 -34t-98 -65.5t-66 -108.5t-25.5 -158q0 -69 25.5 -119t70.5 -78.5t100 -41.5t121 -13q193 0 301.5 95.5t108.5 287.5zM1028 1124q0 201 -274 201q-367 0 -367 -340q0 -111 74 -165t188 -54q169 0 274 96t105 262z" />
    <glyph glyph-name="nine" unicode="9" horiz-adv-x="1122" 
d="M975 711q-128 -185 -420 -185q-178 0 -265 83.5t-87 230.5q0 131 30 233.5t107 190.5q66 74 157.5 109.5t227.5 35.5q373 0 373 -373q0 -137 -26.5 -299.5t-91.5 -335.5t-155 -266q-82 -83 -185 -123.5t-257 -40.5q-167 0 -240 27q-14 6 -14 20q0 24 12 48q8 16 21 16
q3 0 43 -8q97 -19 178 -19q139 0 229.5 36.5t153.5 109.5q72 82 118.5 202.5t90.5 307.5zM1010 1030q0 48 -6 86.5t-24.5 78.5t-49 67t-83.5 44t-124 17q-222 0 -322 -123q-104 -131 -104 -342q0 -110 65 -179t209 -69q127 0 234 51t164 138q20 30 28 78q13 76 13 153z" />
    <glyph glyph-name="colon" unicode=":" horiz-adv-x="448" 
d="M244 82q0 -56 -33 -82q-19 -16 -51 -16q-66 0 -66 53t31 80q21 18 55 18q64 0 64 -53zM430 950q0 -56 -33 -82q-19 -16 -51 -16q-65 0 -65 53q0 54 30 80q22 19 56 19q63 0 63 -54z" />
    <glyph glyph-name="semicolon" unicode=";" horiz-adv-x="448" 
d="M430 950q0 -56 -33 -82q-19 -16 -51 -16q-65 0 -65 53q0 54 30 80q22 19 56 19q63 0 63 -54zM215 164q31 0 31 -27q0 -15 -8 -43q-27 -109 -101 -221.5t-162 -171.5q-21 -14 -36 -14q-14 0 -23 12q-10 13 -10 22q0 16 20 29q27 21 54.5 50.5t60 74.5t58.5 108.5t38 133.5
q7 47 41 47h37z" />
    <glyph glyph-name="less" unicode="&#x3c;" horiz-adv-x="1435" 
d="M1141 143q-6 -20 -21 -20q-4 0 -20 8l-770 410q-15 9 -15 28q0 7 7 47q7 26 24 35l959 424q9 6 22 6q16 0 16 -18q0 -11 -8 -55q-6 -25 -24 -31l-891 -387l715 -369q14 -8 14 -28q0 -11 -8 -50z" />
    <glyph glyph-name="equal" unicode="=" horiz-adv-x="1435" 
d="M1266 389q-3 -24 -29 -24h-1012q-24 0 -24 22q0 15 6 39q3 25 29 25h1011q25 0 25 -25q0 -13 -6 -37zM1350 770q-3 -25 -29 -25h-1014q-22 0 -22 25q0 13 6 37q3 24 28 24h1012q25 0 25 -22q0 -15 -6 -39z" />
    <glyph glyph-name="greater" unicode="&#x3e;" horiz-adv-x="1435" 
d="M414 1065q3 20 16 20q10 0 19 -6l774 -413q16 -8 16 -27q0 -12 -8 -51q-3 -24 -25 -33l-958 -422q-12 -8 -23 -8q-16 0 -16 20q0 17 8 56q5 20 25 30l891 387l-713 369q-17 9 -17 29q0 4 1.5 10t4.5 17.5t5 21.5z" />
    <glyph glyph-name="question" unicode="?" horiz-adv-x="796" 
d="M352 418h-28q-21 0 -21 28q0 15 19 113q24 119 69 180.5t162 124.5q115 62 176.5 137.5t61.5 198.5q0 82 -52.5 134t-165.5 52q-85 0 -136 -9.5t-113 -30.5q-21 -7 -27 -7q-14 0 -18 15q-9 27 -9 37q0 13 19 24q128 58 297 58q81 0 141.5 -21.5t94 -58.5t49.5 -80t16 -92
q0 -96 -32 -170.5t-90 -131t-153 -114.5q-112 -68 -148 -109t-56 -129q-11 -51 -25 -121q-7 -28 -31 -28zM371 82q0 -56 -33 -82q-19 -16 -51 -16q-66 0 -66 53t31 80q21 18 55 18q64 0 64 -53z" />
    <glyph glyph-name="at" unicode="@" horiz-adv-x="1644" 
d="M1022 223q-110 -110 -285 -110q-116 0 -179.5 61t-63.5 176q0 142 66.5 287.5t180.5 236.5q116 96 306 99q109 0 180 -41l4 10q13 25 37 25h14q23 0 23 -19q0 -8 -11 -45l-161 -567q-17 -66 -17 -82q0 -24 9.5 -36.5t35.5 -12.5q45 0 96 28q127 76 197 234t70 332
q0 458 -498 458q-173 0 -322 -71.5t-249.5 -191.5t-157.5 -277.5t-57 -329.5q0 -267 145.5 -410t441.5 -143q151 0 245 18.5t206 57.5q50 16 55 16q15 0 23 -24q4 -20 4 -25q-3 -19 -51 -37q-222 -86 -494 -86q-318 0 -489.5 159.5t-171.5 467.5q0 144 37.5 282t113 258
t179.5 211.5t246 144t304 52.5q276 0 426 -130.5t150 -387.5q0 -117 -34.5 -237.5t-95.5 -221t-154.5 -164t-201.5 -63.5q-52 0 -76.5 22t-25.5 76zM1196 858q-60 35 -170 35q-143 -2 -238 -78q-92 -73 -146 -197t-54 -249q0 -87 43 -131.5t139 -44.5q117 0 217 75
q21 15 33 31q19 22 27 57z" />
    <glyph glyph-name="A" unicode="A" horiz-adv-x="1357" 
d="M307 0h-350q-29 0 -29 18q0 9 6 33q8 27 41 27h95l772 1341q20 33 45 33h20q19 0 27.5 -6.5t11.5 -26.5l203 -1341h94q29 0 29 -21q0 -14 -6 -32q-4 -15 -12 -20t-27 -5h-350q-29 0 -29 18q0 9 6 33q8 27 41 27h160l-64 420h-575l-244 -420h152q28 0 28 -21q0 -14 -6 -32
q-4 -15 -12 -20t-27 -5zM872 1313q-17 -30 -71.5 -129.5t-138 -248t-199.5 -353.5h516q-62 406 -107 731z" />
    <glyph glyph-name="B" unicode="B" horiz-adv-x="1302" 
d="M520 0h-444q-29 0 -29 18q0 9 6 33q9 29 41 29h119l272 1286h-131q-28 0 -28 18q0 11 6 35q8 27 41 27h407q125 0 207 -10q250 -30 250 -281q0 -342 -270 -397q96 -20 143 -88t47 -172q0 -363 -266 -457q-114 -41 -371 -41zM305 80h236q220 0 327 43q98 42 144.5 138.5
t46.5 219.5q0 149 -96 199q-66 35 -234 35h-291zM457 795h291q152 0 229 34q168 74 168 322q0 78 -36 128t-87 67q-59 20 -254 20h-190z" />
    <glyph glyph-name="C" unicode="C" horiz-adv-x="1253" 
d="M1167 1362q-98 24 -303 24q-234 0 -372 -155q-107 -121 -169.5 -358t-62.5 -437q0 -79 17.5 -143.5t56.5 -119t110.5 -84.5t171.5 -30q215 0 375 54q11 4 24.5 9t20.5 7t13 2q9 0 13.5 -6.5t10.5 -24.5q4 -12 4 -24q0 -18 -51 -37q-177 -66 -403 -66q-222 0 -339.5 108
t-117.5 343q0 133 26 288t86.5 316t143.5 258q85 97 205.5 142t300.5 45q154 0 305 -31q22 -4 30.5 -13.5t8.5 -25.5q0 -7 -37 -215q-6 -25 -29 -25h-32q-25 0 -25 25q0 9 18 174z" />
    <glyph glyph-name="D" unicode="D" horiz-adv-x="1462" 
d="M498 0h-422q-29 0 -29 18q0 9 6 33q9 29 41 29h117l274 1286h-131q-28 0 -28 18q0 11 6 35q8 27 41 27h428q225 0 356 -41q128 -39 195 -148.5t67 -273.5q0 -112 -13 -219t-47 -222.5t-87 -209t-139.5 -170t-196.5 -113.5q-76 -25 -204.5 -37t-233.5 -12zM305 80h223
q270 0 404 55q105 43 183.5 135t121.5 210t63.5 237.5t20.5 240.5q0 270 -168 355q-103 53 -369 53h-206z" />
    <glyph glyph-name="E" unicode="E" horiz-adv-x="1208" 
d="M981 0h-905q-29 0 -29 18q0 11 6 35q8 27 41 27h117l276 1286h-133q-28 0 -28 18q0 11 6 35q8 27 41 27h825q19 0 25 -6.5t6 -20.5q0 -3 -37 -219q-5 -24 -29 -24h-33q-24 0 -24 24q0 3 18 166h-546l-121 -571h520q31 0 31 -21q0 -7 -7 -35q-4 -16 -12.5 -21t-27.5 -5
h-523l-133 -633h639l43 162q6 28 31 28h33q24 0 24 -24q0 -8 -43 -201q-6 -30 -14 -37.5t-37 -7.5z" />
    <glyph glyph-name="F" unicode="F" horiz-adv-x="1146" 
d="M467 0h-391q-29 0 -29 18q0 11 6 35q8 27 41 27h117l276 1286h-133q-28 0 -28 18q0 11 6 35q8 27 41 27h837q27 0 27 -23q0 -8 -37 -223q-5 -24 -29 -24h-32q-25 0 -25 24q0 3 1 12t6 51.5t12 102.5h-555l-134 -616h488q31 0 31 -21q0 -7 -7 -35q-4 -16 -13 -21t-28 -5
h-489l-123 -588h180q29 0 29 -21q0 -16 -6 -34q-4 -15 -12 -20t-27 -5z" />
    <glyph glyph-name="G" unicode="G" horiz-adv-x="1361" 
d="M1159 123q-6 -28 -16.5 -42.5t-36.5 -25.5q-188 -82 -449 -82q-230 0 -359.5 109t-129.5 342q0 136 26.5 291t87.5 314.5t144 256.5q85 97 209 142t307 45q197 0 322 -33q21 -5 30 -12.5t9 -26.5q0 -10 -35 -213q-6 -25 -29 -25h-33q-24 0 -24 25q0 16 20 172
q-110 26 -323 26q-247 0 -385 -155q-107 -121 -169.5 -358.5t-62.5 -436.5q0 -64 12 -117.5t41 -102.5t73.5 -83t113.5 -54t157 -20q246 0 406 68l106 485h-368q-29 0 -29 21t4 33q6 17 13 21.5t28 4.5h414q39 0 39 -28q0 -13 -4 -37z" />
    <glyph glyph-name="H" unicode="H" horiz-adv-x="1511" 
d="M426 0h-350q-29 0 -29 18q0 11 6 35q8 27 41 27h117l274 1286h-131q-28 0 -28 18q0 11 6 35q8 27 41 27h348q29 0 29 -21q0 -13 -7 -34q-5 -15 -12 -20t-26 -5h-125l-123 -571h747l121 571h-131q-29 0 -29 18q0 11 6 35q8 27 41 27h349q28 0 28 -21q0 -16 -6 -34
q-4 -15 -12 -20t-27 -5h-125l-276 -1286h139q29 0 29 -21q0 -16 -6 -34q-4 -15 -12 -20t-27 -5h-351q-28 0 -28 18q0 11 6 35q8 27 41 27h117l135 635h-748l-135 -635h139q29 0 29 -21q0 -16 -6 -34q-4 -15 -12 -20t-27 -5z" />
    <glyph glyph-name="I" unicode="I" horiz-adv-x="671" 
d="M426 0h-350q-29 0 -29 18q0 11 6 35q8 27 41 27h117l274 1286h-131q-28 0 -28 18q0 11 6 35q8 27 41 27h348q29 0 29 -21q0 -13 -7 -34q-5 -15 -12 -20t-26 -5h-125l-277 -1286h139q29 0 29 -21q0 -16 -6 -34q-4 -15 -12 -20t-27 -5z" />
    <glyph glyph-name="J" unicode="J" horiz-adv-x="647" 
d="M307 115q-21 -101 -45 -155t-69 -95q-84 -76 -236 -76q-45 0 -74 4q-24 3 -24 25q0 13 6 37q5 20 33 20l30 -2q29 -2 45 -2q92 0 150 45q33 26 54 71t38 128l266 1251h-153q-29 0 -29 18q0 11 6 35q8 27 41 27h361q28 0 28 -21q0 -16 -6 -34q-4 -15 -12 -20t-27 -5h-117z
" />
    <glyph glyph-name="K" unicode="K" horiz-adv-x="1314" 
d="M1380 1366h-110q-424 -485 -557 -625q89 -148 336 -620q13 -25 28.5 -33t46.5 -8h111q29 0 29 -21q0 -13 -7 -34q-5 -15 -12 -20t-26 -5h-123q-44 0 -72 13.5t-39 29t-31 51.5l-307 584q-11 22 -27 28.5t-45 6.5h-137l-135 -633h139q29 0 29 -21q0 -16 -6 -34
q-4 -15 -12 -20t-27 -5h-350q-29 0 -29 18q0 11 6 35q8 27 41 27h117l274 1286h-131q-28 0 -28 18q0 11 6 35q8 27 41 27h348q29 0 29 -21q0 -13 -7 -34q-5 -15 -12 -20t-26 -5h-125l-123 -571h133q66 0 96 32l465 539h-113q-28 0 -28 18q0 11 6 35q8 27 41 27h340
q28 0 28 -21q0 -16 -6 -34q-4 -15 -12 -20t-27 -5z" />
    <glyph glyph-name="L" unicode="L" horiz-adv-x="1144" 
d="M997 0h-921q-29 0 -29 18q0 11 6 35q8 27 41 27h117l276 1286h-133q-28 0 -28 18q0 11 6 35q8 27 41 27h348q29 0 29 -21q0 -13 -7 -34q-5 -15 -12 -20t-26 -5h-125l-275 -1286h639l43 162q6 28 31 28h33q24 0 24 -24q0 -8 -43 -201q-4 -17 -6.5 -24.5t-9.5 -14t-19 -6.5
z" />
    <glyph glyph-name="M" unicode="M" horiz-adv-x="1775" 
d="M426 0h-350q-29 0 -29 18q0 11 6 35q8 27 41 27h117l276 1286h-133q-28 0 -28 18q0 11 6 35q8 27 41 27h229q24 0 33 -31q230 -848 256 -952q67 105 645 952q22 31 55 31h224q28 0 28 -21q0 -16 -6 -34q-4 -15 -12 -20t-27 -5h-131l-258 -1286h143q29 0 29 -21
q0 -14 -6 -32q-5 -15 -13 -21t-26 -6h-350q-29 0 -29 18q0 11 6 35q8 27 41 27h117q45 226 99.5 498.5t71 354.5t38.5 186.5t45 203.5q-251 -373 -655 -954q-20 -27 -46 -27h-12q-28 0 -37 37q-86 301 -139.5 498t-82.5 310t-38 146q-55 -278 -262 -1253h139q29 0 29 -21
q0 -14 -6 -32q-5 -15 -13 -21t-26 -6z" />
    <glyph glyph-name="N" unicode="N" horiz-adv-x="1505" 
d="M426 0h-350q-29 0 -29 18q0 11 6 35q8 27 41 27h121l270 1286h-131q-28 0 -28 18q0 11 6 35q8 27 41 27h190q8 0 17 -6t12 -13q437 -1045 524 -1273q51 268 254 1212h-141q-29 0 -29 18q0 11 6 35q8 27 41 27h348q29 0 29 -21q0 -16 -6 -34q-4 -15 -12 -20t-27 -5h-119
l-282 -1337q-8 -35 -41 -35h-19q-29 0 -41 31q-473 1146 -518 1269q-49 -261 -254 -1214h137q29 0 29 -21q0 -16 -6 -34q-4 -15 -12 -20t-27 -5z" />
    <glyph glyph-name="O" unicode="O" horiz-adv-x="1392" 
d="M1348 1049q0 -130 -25.5 -291t-86 -334.5t-142.5 -271.5q-80 -95 -189.5 -137t-263.5 -42q-90 0 -159 11.5t-130.5 40.5t-101.5 76.5t-63 123t-23 176.5q0 140 27.5 303.5t94.5 336.5t160 272q141 149 420 149q94 0 162.5 -9t132 -35.5t102.5 -71.5t62 -119.5t23 -177.5z
M1253 1038q0 103 -22 169t-72.5 104t-121.5 52.5t-181 14.5q-237 0 -352 -129q-78 -86 -136 -242.5t-83 -310t-25 -282.5q0 -103 23 -171.5t73.5 -109.5t123 -57.5t179.5 -16.5q129 0 216 33.5t153 118.5q70 88 123.5 249.5t77.5 312.5t24 265z" />
    <glyph glyph-name="P" unicode="P" horiz-adv-x="1300" 
d="M453 0h-377q-29 0 -29 18q0 11 6 35q8 27 41 27h117l274 1286h-131q-28 0 -28 18q0 11 6 35q8 27 41 27h452q223 0 330 -49q74 -34 111 -99.5t37 -150.5q0 -188 -83 -313.5t-257 -169.5q-102 -27 -293 -27h-246l-121 -557h166q29 0 29 -21q0 -16 -6 -34q-4 -15 -12 -20
t-27 -5zM442 721h254q204 0 299 39q105 42 157 142t52 228q0 144 -102 199q-66 35 -291 35h-231z" />
    <glyph glyph-name="Q" unicode="Q" horiz-adv-x="1392" 
d="M1348 1049q0 -99 -17.5 -228t-54 -275t-105 -276t-157.5 -196l354 -234q18 -11 18 -24t-24 -43q-14 -17 -25 -17t-22 8l-389 261q-119 -52 -285 -52q-90 0 -159 11.5t-130.5 40.5t-101.5 76.5t-63 123t-23 176.5q0 140 27.5 303.5t94.5 336.5t160 272q141 149 420 149
q94 0 162.5 -9t132 -35.5t102.5 -71.5t62 -119.5t23 -177.5zM1253 1038q0 103 -22 169t-72.5 104t-121.5 52.5t-181 14.5q-237 0 -352 -129q-78 -86 -136 -242.5t-83 -310t-25 -282.5q0 -103 23 -171.5t73.5 -109.5t123 -57.5t179.5 -16.5q129 0 216 33.5t153 118.5
q70 88 123.5 249.5t77.5 312.5t24 265z" />
    <glyph glyph-name="R" unicode="R" horiz-adv-x="1331" 
d="M426 0h-350q-29 0 -29 18q0 11 6 35q8 27 41 27h117l274 1286h-131q-28 0 -28 18q0 11 6 35q8 27 41 27h444q218 0 309 -39q75 -32 115.5 -105t40.5 -157q0 -196 -104 -318.5t-304 -154.5l228 -551q10 -27 23.5 -34t48.5 -7h90q28 0 28 -21q0 -16 -6 -34q-4 -15 -12 -20
t-27 -5h-121q-50 0 -70 13t-34 50l-242 601q-49 -5 -121 -5h-231l-125 -579h139q29 0 29 -21q0 -16 -6 -34q-4 -15 -12 -20t-27 -5zM446 743h242q193 0 291 39q205 81 205 342q0 72 -29.5 128.5t-75.5 78.5q-68 35 -276 35h-225z" />
    <glyph glyph-name="S" unicode="S" horiz-adv-x="1116" 
d="M82 90v207q0 33 29 33h30q23 0 27 -29l12 -174q135 -66 316 -66q96 0 168.5 14.5t131 49.5t89 98.5t30.5 155.5q0 31 -3.5 54.5t-17.5 56t-39 59.5t-72.5 58t-114.5 57l-172 69q-111 45 -169.5 132.5t-58.5 199.5q0 211 134.5 309.5t379.5 98.5q174 0 308 -46
q17 -6 22.5 -12t5.5 -20q0 -19 -26 -217q-3 -25 -29 -25h-33q-24 0 -24 25q0 10 10 174q-131 34 -258 34q-95 0 -163.5 -14.5t-122 -49.5t-80.5 -98.5t-27 -156.5q0 -92 52 -159t185 -120l148 -59q136 -53 199 -136.5t63 -201.5q0 -418 -525 -418q-215 0 -372 74
q-17 7 -25 16t-8 27z" />
    <glyph glyph-name="T" unicode="T" horiz-adv-x="1126" 
d="M657 0h-350q-28 0 -28 18q0 11 6 35q8 27 41 27h114l275 1286h-377l-37 -160q-7 -30 -31 -30h-32q-25 0 -25 24q0 8 37 201q5 28 13 36.5t34 8.5h963q28 0 28 -23q0 -8 -37 -223q-5 -24 -28 -24h-33q-25 0 -25 24q0 2 0.5 6t2 15.5t3 27t5.5 47.5t8 70h-377l-272 -1286
h139q28 0 28 -21q0 -16 -6 -34q-4 -15 -12 -20t-27 -5z" />
    <glyph glyph-name="U" unicode="U" horiz-adv-x="1486" 
d="M1249 578q-23 -104 -32 -144t-26.5 -103.5t-35.5 -101t-43 -73.5q-69 -100 -177 -142.5t-278 -42.5q-403 0 -403 299q0 102 43 303l168 793h-119q-29 0 -29 18q0 7 7 35q8 27 41 27h348q28 0 28 -21q0 -16 -6 -34q-4 -15 -12 -20t-27 -5h-137l-180 -844
q-27 -132 -27 -233q0 -230 322 -230q74 0 131.5 9t121 41t103.5 88q66 93 115 315l182 854h-153q-29 0 -29 18q0 11 6 35q8 27 41 27h348q29 0 29 -21q0 -16 -6 -34q-4 -15 -12 -20t-27 -5h-105z" />
    <glyph glyph-name="V" unicode="V" horiz-adv-x="1341" 
d="M573 -6h-22q-30 0 -33 35l-180 1337h-105q-28 0 -28 18q0 11 6 35q8 27 41 27h348q29 0 29 -21q0 -16 -6 -34q-4 -15 -12 -20t-27 -5h-154q115 -843 162 -1231q105 196 690 1231h-147q-29 0 -29 18q0 11 6 35q8 27 41 27h348q29 0 29 -21q0 -16 -6 -34q-4 -15 -12 -20
t-27 -5h-99l-765 -1339q-12 -21 -21 -27t-27 -6z" />
    <glyph glyph-name="W" unicode="W" horiz-adv-x="2021" 
d="M500 -6h-23q-30 0 -33 33l-63 1339h-107q-28 0 -28 18q0 11 6 35q8 27 41 27h348q29 0 29 -21q0 -16 -6 -34q-4 -15 -12 -20t-27 -5h-152q18 -377 29.5 -638.5t16.5 -392t7 -179.5q92 191 623 1192q11 24 21 33.5t28 9.5h23q29 0 32 -43q28 -290 52 -534t34 -343
t17.5 -178t11.5 -137q103 233 565 1210h-149q-29 0 -29 18q0 11 6 35q8 27 41 27h348q29 0 29 -21q0 -16 -6 -34q-4 -15 -12 -20t-27 -5h-100l-641 -1339q-10 -21 -19.5 -27t-27.5 -6h-23q-30 0 -33 33q-92 972 -106 1220q-22 -45 -45 -91t-42.5 -85.5t-55 -107.5t-60 -115
t-80.5 -152.5t-92 -174t-120 -227t-142 -267.5q-10 -21 -19.5 -27t-27.5 -6z" />
    <glyph glyph-name="X" unicode="X" horiz-adv-x="1386" 
d="M1243 0h-350q-29 0 -29 18q0 11 6 35q8 27 41 27h133q-240 476 -301 606q-182 -205 -546 -606h131q28 0 28 -21q0 -16 -6 -34q-4 -15 -12 -20t-27 -5h-350q-29 0 -29 18q0 7 7 35q8 27 41 27h96l616 680l-297 606h-121q-28 0 -28 18q0 11 6 35q8 27 41 27h348
q29 0 29 -21q0 -16 -6 -34q-4 -15 -12 -20t-27 -5h-127q74 -151 137.5 -279t88.5 -179t44 -91q241 268 498 549h-121q-29 0 -29 18q0 11 6 35q8 27 41 27h348q29 0 29 -21q0 -16 -6 -34q-4 -15 -12 -20t-27 -5h-113l-563 -623l328 -663h113q28 0 28 -21q0 -16 -6 -34
q-4 -15 -12 -20t-27 -5z" />
    <glyph glyph-name="Y" unicode="Y" horiz-adv-x="1327" 
d="M1470 1366h-116l-606 -721l-121 -565h135q29 0 29 -21q0 -13 -7 -34q-4 -15 -12 -20t-27 -5h-350q-28 0 -28 18q0 11 6 35q8 27 41 27h121l120 565l-303 721h-119q-28 0 -28 18q0 11 6 35q8 27 41 27h348q29 0 29 -21q0 -16 -6 -34q-4 -15 -12 -20t-27 -5h-129
q216 -530 258 -643q123 162 526 643h-119q-28 0 -28 18q0 11 6 35q8 27 41 27h348q29 0 29 -21q0 -13 -7 -34q-4 -15 -12 -20t-27 -5z" />
    <glyph glyph-name="Z" unicode="Z" horiz-adv-x="1206" 
d="M1032 0h-1001q-29 0 -29 23q0 10 4 26q5 15 21 31q373 429 643 740t351 404.5t124 141.5h-760l-39 -164q-6 -26 -29 -26h-32q-25 0 -25 24q0 8 37 201q5 23 15.5 34t37.5 11h907q25 0 25 -19q0 -8 -4 -28q-3 -15 -16 -31q-1025 -1180 -1123 -1288h852l39 164q7 30 35 30
h29q24 0 24 -24q0 -8 -37 -205q-3 -24 -12.5 -34.5t-36.5 -10.5z" />
    <glyph glyph-name="bracketleft" unicode="[" horiz-adv-x="546" 
d="M332 -285h-287q-16 0 -16 19q0 8 4 24l364 1717q4 22 27 22h289q18 0 18 -16q0 -10 -6 -37q-3 -19 -29 -19h-221l-346 -1636h221q19 0 19 -16q0 -11 -7 -39q-5 -19 -30 -19z" />
    <glyph glyph-name="backslash" unicode="\" horiz-adv-x="835" 
d="M737 -145q6 -21 6 -33q0 -10 -7.5 -18.5t-22.5 -8.5h-19q-17 0 -24.5 6t-12.5 21l-434 1640q-10 40 -10 49q0 12 9 19.5t24 7.5h20q16 0 23 -10t14 -35z" />
    <glyph glyph-name="bracketright" unicode="]" horiz-adv-x="546" 
d="M291 1497h287q16 0 16 -18q0 -9 -4 -25l-365 -1716q-4 -23 -26 -23h-289q-8 0 -13.5 5t-5.5 12q0 6 7 37q3 18 28 18h221l347 1636h-222q-18 0 -18 17q0 15 6 39q5 18 31 18z" />
    <glyph glyph-name="asciicircum" unicode="^" horiz-adv-x="1439" 
d="M1200 625q4 -16 4 -23q0 -27 -24 -27h-41q-22 0 -29 27l-170 680l-481 -686q-14 -21 -33 -21h-49q-9 0 -15 6.5t-6 14.5t6 20l525 744q16 22 41 22h53q29 0 35 -26z" />
    <glyph glyph-name="underscore" unicode="_" horiz-adv-x="1009" 
d="M-37 -160h1010v-112h-1010v112z" />
    <glyph glyph-name="grave" unicode="`" horiz-adv-x="403" 
d="M279 1206l-232 277q-14 14 -14 28q0 19 22 19h60q22 0 37 -21l208 -282q11 -15 11 -23q0 -6 -6 -11t-13 -5h-35q-23 0 -38 18z" />
    <glyph glyph-name="a" unicode="a" horiz-adv-x="1183" 
d="M965 0h-172q-33 0 -33 29q0 8 4 33.5t4 29.5q-112 -117 -342 -117q-155 0 -235 74t-80 234q0 165 61.5 348.5t171.5 279.5q129 115 377 115q160 0 240 -53q8 24 15.5 32.5t20.5 8.5h23q24 0 24 -21q0 -8 -4 -28l-190 -887h131q29 0 29 -21q0 -2 -6 -32q-3 -15 -11.5 -20
t-27.5 -5zM801 236l137 659q-31 23 -97 37t-143 14q-190 0 -299 -92q-92 -80 -145 -241t-53 -316q0 -124 59 -184t193 -60q176 0 284 88q28 22 43 45q15 25 21 50z" />
    <glyph glyph-name="b" unicode="b" horiz-adv-x="1128" 
d="M199 59l-15 -43q-8 -22 -34 -22h-19q-22 0 -22 22q0 5 4 29l299 1409h-121q-29 0 -29 19q0 8 6 32q8 27 41 27h170q29 0 29 -21q0 -1 -8 -47l-119 -563q49 66 143 96.5t205 30.5q315 0 315 -307q0 -147 -44 -313.5t-128 -264.5q-73 -87 -172 -120t-249 -33q-62 0 -141 20
t-111 49zM217 137q23 -25 100 -46t144 -21q128 0 209.5 27.5t136.5 90.5q68 78 107.5 234t39.5 285q0 118 -60.5 178.5t-197.5 60.5q-158 0 -284 -76q-25 -15 -43 -51q-11 -22 -17 -49z" />
    <glyph glyph-name="c" unicode="c" horiz-adv-x="923" 
d="M827 950q-84 13 -161 13q-191 0 -291 -105q-82 -83 -128 -252t-46 -295q0 -119 64.5 -188.5t205.5 -69.5q88 0 136 7.5t106 27.5q35 12 47 12q11 0 18 -14q8 -16 8 -29q0 -12 -8.5 -19t-29.5 -15q-138 -50 -285 -50q-165 0 -258.5 77.5t-93.5 246.5q0 91 18 197.5
t66 225.5t116 189q130 133 373 133q130 0 209 -20q18 -5 24.5 -11.5t6.5 -21.5q0 -7 -35 -201q-5 -24 -31 -24h-22q-27 0 -27 18q0 9 18 168z" />
    <glyph glyph-name="d" unicode="d" horiz-adv-x="1148" 
d="M969 0h-178q-31 0 -31 20q0 14 8 72q-109 -117 -342 -117q-155 0 -235 74t-80 234q0 97 22.5 211.5t76.5 233.5t128 183q129 115 381 115q152 0 235 -45l105 473h-123q-29 0 -29 19q0 10 6 34q4 15 13 20t28 5h160q21 0 29 -6t8 -21q0 -13 -6 -43l-295 -1384h135
q29 0 29 -19q0 -12 -6 -36q-4 -15 -12 -19t-27 -4zM799 229l139 670q-29 20 -97.5 33.5t-144.5 13.5q-190 0 -299 -92q-92 -80 -144 -240.5t-52 -316.5q0 -123 59.5 -183.5t192.5 -60.5q86 0 151.5 19.5t130.5 66.5q27 19 43 43q15 20 21 47z" />
    <glyph glyph-name="e" unicode="e" horiz-adv-x="1030" 
d="M213 485q-14 -88 -14 -153q0 -159 72.5 -219t238.5 -60q148 0 272 43q37 13 45 13q11 0 19 -15q8 -20 8 -31q0 -12 -8 -19t-29 -15q-137 -56 -330 -56q-202 0 -289 84t-87 262q0 85 19 190.5t69.5 225.5t122.5 187q118 110 342 110q163 0 237 -67t74 -195q0 -84 -23 -215
q-8 -47 -22 -59q-14 -11 -41 -11h-676zM227 563h635q25 105 25 191q0 99 -51 148.5t-187 49.5q-172 0 -256 -73q-108 -92 -166 -316z" />
    <glyph glyph-name="f" unicode="f" horiz-adv-x="641" 
d="M424 0h-375q-29 0 -29 18q0 5 7 33q8 27 41 27h110l180 846h-116q-25 0 -25 18q0 17 6 35q5 15 12.5 21t24.5 6h117l39 184q25 119 54 183t77 104q84 73 229 73q80 0 121 -12q14 -6 14 -23q0 -14 -8 -34q-7 -21 -29 -21q-2 0 -42.5 5t-73.5 5q-121 0 -176 -67
q-49 -58 -82 -219l-37 -178h201q24 0 24 -23q0 -16 -8 -37q-5 -11 -12 -15.5t-23 -4.5h-201l-180 -846h176q29 0 29 -21q0 -14 -6 -32q-4 -15 -12 -20t-27 -5z" />
    <glyph glyph-name="g" unicode="g" horiz-adv-x="999" 
d="M160 41q-58 19 -84.5 56t-26.5 100q0 88 45 154.5t127 90.5q-47 60 -47 158q0 122 45.5 223.5t147.5 157.5q92 51 245 51q95 0 168 -28h275q32 0 32 -25q0 -13 -2 -25q-6 -28 -43 -28h-161q47 -62 47 -152q0 -233 -123 -346q-104 -94 -311 -94q-106 0 -179 33
q-40 16 -59 16q-24 0 -55 -21q-32 -20 -49 -62.5t-17 -84.5q0 -82 51 -96q53 -17 318 -17q227 0 317 -47t90 -176q0 -92 -25 -160t-68.5 -111t-111 -69t-144.5 -36.5t-177 -10.5q-98 0 -172.5 17t-117.5 43.5t-69.5 63.5t-35 70.5t-8.5 71.5q0 105 42.5 173.5t135.5 109.5z
M819 -141q0 39 -13.5 67t-45.5 50.5t-89.5 35t-140.5 13.5q-92 2 -188 2q-59 0 -96 -11q-85 -23 -131.5 -87t-46.5 -156q0 -201 325 -201q55 0 92.5 1.5t86 8t81 18t66.5 32.5t54 51t33 74.5t13 101.5zM842 762q0 108 -61 149t-187 41q-130 0 -188 -32q-76 -38 -110 -123.5
t-34 -190.5q0 -60 19 -100t56 -59.5t77.5 -27t95.5 -7.5q164 0 242 73q90 85 90 277z" />
    <glyph glyph-name="h" unicode="h" horiz-adv-x="1208" 
d="M356 0h-333q-29 0 -29 18q0 9 6 33q8 27 41 27h111l292 1376h-120q-29 0 -29 19q0 8 6 32q8 27 41 27h168q31 0 31 -23q0 -9 -6 -39l-123 -577q28 51 99.5 83.5t138.5 42t136 9.5q51 0 93 -8t78 -26.5t56.5 -52.5t20.5 -81q0 -61 -22 -174l-131 -608h127q30 0 30 -19
q0 -15 -6 -36q-4 -15 -12 -19t-27 -4h-174q-15 0 -24 7t-9 18q0 8 7 43l135 630q16 73 16 133q0 65 -46 90t-140 25q-84 0 -151 -14t-95 -27t-61 -33q-31 -20 -45 -47q-11 -19 -19 -53l-149 -694h135q28 0 28 -21q0 -14 -6 -32q-4 -15 -12 -20t-27 -5z" />
    <glyph glyph-name="i" unicode="i" horiz-adv-x="598" 
d="M383 0h-334q-29 0 -29 18q0 5 7 33q8 27 41 27h110l180 848h-122q-29 0 -29 18q0 9 6 33q8 27 41 27h170q31 0 31 -25q0 -13 -4 -29l-187 -872h135q29 0 29 -21q0 -12 -6 -30q-5 -15 -13 -21t-26 -6zM530 1382q0 -53 -30 -79q-20 -17 -51 -17q-64 0 -64 53t29 78
q22 19 55 19q61 0 61 -54z" />
    <glyph glyph-name="j" unicode="j" horiz-adv-x="520" 
d="M164 -195q-21 -101 -48 -154.5t-71 -88.5q-93 -74 -270 -74q-37 0 -37 25q0 17 6 38q4 12 13 15.5t30 3.5q136 0 199 47q34 28 55 67.5t37 118.5l239 1123h-124q-29 0 -29 18q0 7 6 31q9 29 41 29h170q31 0 31 -25q0 -13 -4 -29zM487 1382q0 -53 -30 -79q-20 -17 -51 -17
q-64 0 -64 53t29 78q22 19 55 19q61 0 61 -54z" />
    <glyph glyph-name="k" unicode="k" horiz-adv-x="1038" 
d="M1042 926h-96q-144 -151 -350 -357q123 -252 221 -448q13 -27 30 -35t56 -8h66q28 0 28 -21q0 -13 -6 -34q-6 -23 -39 -23h-94q-52 0 -79 22t-48 64l-192 406q-10 21 -26 27.5t-46 6.5h-133l-96 -448h135q28 0 28 -21q0 -14 -6 -32q-4 -15 -12 -20t-27 -5h-333
q-29 0 -29 18q0 9 6 33q8 27 41 27h111l292 1376h-122q-29 0 -29 19q0 8 6 32q5 15 13 21t26 6h168q33 0 33 -27q0 -10 -4 -30l-185 -873h105q67 0 98 33l272 291h-98q-29 0 -29 18q0 5 7 33q5 15 13.5 21t26.5 6h314q28 0 28 -21q0 -15 -6 -33q-4 -15 -12 -19.5t-27 -4.5z
" />
    <glyph glyph-name="l" unicode="l" horiz-adv-x="540" 
d="M356 0h-333q-29 0 -29 18q0 9 6 33q8 27 41 27h111l294 1376h-122q-29 0 -29 19q0 8 6 32q8 27 41 27h170q29 0 29 -27q0 -11 -9 -47l-294 -1380h135q28 0 28 -21q0 -14 -6 -32q-4 -15 -12 -20t-27 -5z" />
    <glyph glyph-name="m" unicode="m" horiz-adv-x="1853" 
d="M383 0h-334q-29 0 -29 18q0 5 7 33q8 27 41 27h110l180 848h-125q-28 0 -28 18q0 12 6 33q5 16 12 21.5t25 5.5h178q29 0 29 -21q0 -3 -1.5 -10.5l-6 -30t-9.5 -51.5q36 71 145.5 104t219.5 33q39 0 77.5 -7t74.5 -21.5t61 -41t31 -61.5q43 64 153 97.5t213 33.5
q268 0 268 -162q0 -67 -20 -170l-133 -618h127q28 0 28 -21q0 -11 -6 -32q-4 -15 -12 -20t-27 -5h-178q-28 0 -28 18q0 10 6 37l137 641q16 82 16 133q0 117 -182 117q-194 0 -301 -72q-26 -18 -43 -51q-11 -22 -27 -100l-139 -645h127q29 0 29 -21q0 -14 -6 -32
q-4 -15 -12 -20t-27 -5h-176q-31 0 -31 23q0 11 6 38l137 637q19 97 19 136q0 35 -16 58.5t-45 34.5t-58 15t-66 4q-183 0 -301 -72q-22 -13 -37 -32q-15 -15 -24 -54l-154 -710h135q29 0 29 -21q0 -14 -6 -32q-4 -15 -12 -20t-27 -5z" />
    <glyph glyph-name="n" unicode="n" horiz-adv-x="1234" 
d="M383 0h-334q-29 0 -29 18q0 3 7 31q9 29 41 29h110l180 848h-122q-29 0 -29 18q0 9 6 33q8 27 41 27h170q31 0 31 -25q0 -16 -17 -88q24 49 93.5 82t140.5 44t141 11q51 0 93 -8t78 -26.5t56.5 -52.5t20.5 -81q0 -56 -23 -174l-131 -608h127q31 0 31 -19q0 -15 -6 -36
q-4 -15 -12 -19t-27 -4h-178q-29 0 -29 23q0 6 4 30l137 645q17 78 17 133q0 65 -47 90t-133 25q-198 0 -308 -69q-31 -19 -45 -41q-15 -22 -24 -64l-150 -694h135q29 0 29 -21q0 -14 -6 -32q-4 -15 -12 -20t-27 -5z" />
    <glyph glyph-name="o" unicode="o" horiz-adv-x="1101" 
d="M1020 735q0 -114 -43 -300.5t-113 -295.5q-109 -166 -375 -166q-68 0 -121.5 8t-103 29t-82 56.5t-52 93t-19.5 135.5q0 136 49.5 318.5t136.5 283.5q116 135 344 135q69 0 118 -5t102 -22.5t85 -49t53 -87t21 -133.5zM932 721q0 60 -16 103t-42 68t-67.5 39t-83 18.5
t-98.5 4.5q-172 0 -267 -112q-71 -85 -114 -260t-43 -283q0 -141 73.5 -193.5t227.5 -52.5q215 0 301 148q53 91 91 260t38 260z" />
    <glyph glyph-name="p" unicode="p" horiz-adv-x="1155" 
d="M268 -500h-346q-28 0 -28 19q0 8 6 32q8 27 41 27h102l287 1348h-121q-29 0 -29 18q0 7 6 31q9 29 41 29h166q29 0 29 -21q0 -28 -12 -82q48 63 140.5 95t207.5 32q315 0 315 -307q0 -144 -44.5 -312t-127.5 -266q-72 -87 -168 -120t-241 -33q-82 0 -159 20t-102 47
l-102 -479h156q28 0 28 -20q0 -15 -6 -33q-4 -15 -12 -20t-27 -5zM246 135q25 -23 99.5 -44t143.5 -21q128 0 210 27.5t137 90.5q68 78 107.5 234t39.5 285q0 118 -63.5 178.5t-200.5 60.5q-154 0 -275 -74q-28 -17 -43 -43q-13 -26 -18 -55z" />
    <glyph glyph-name="q" unicode="q" horiz-adv-x="1134" 
d="M838 -500h-346q-29 0 -29 19q0 6 6 30q9 29 41 29h147l109 510q-65 -62 -146.5 -87.5t-193.5 -25.5q-155 0 -235 74t-80 234q0 97 22.5 211.5t76.5 233.5t128 183q129 115 381 115q167 0 237 -47l9 27q6 18 13 23t21 5h25q25 0 25 -18q0 -2 -1 -5.5t-2 -9.5t-2 -10
l-301 -1413h111q29 0 29 -20q0 -15 -6 -33q-4 -15 -12 -20t-27 -5zM801 246l137 653q-28 20 -96.5 33.5t-145.5 13.5q-194 0 -303 -92q-91 -80 -141.5 -239.5t-50.5 -317.5q0 -123 59.5 -183.5t192.5 -60.5q173 0 280 84q28 22 41 41q22 37 27 68z" />
    <glyph glyph-name="r" unicode="r" horiz-adv-x="782" 
d="M424 0h-375q-29 0 -29 18q0 5 7 33q8 27 41 27h110l180 848h-122q-29 0 -29 18q0 9 6 33q8 27 41 27h170q31 0 31 -25q0 -8 -17 -88q28 60 122 98.5t194 38.5q34 0 57 -4q18 -3 18 -25q0 -20 -8 -41q-7 -20 -28 -20q-1 0 -29 1t-49 1q-65 0 -128.5 -20t-103.5 -46
q-36 -22 -51 -53q-15 -30 -22 -71l-146 -672h176q29 0 29 -21q0 -14 -6 -32q-4 -15 -12 -20t-27 -5z" />
    <glyph glyph-name="s" unicode="s" horiz-adv-x="833" 
d="M45 61v179q1 20 9 27t26 7h14q28 0 31 -26l12 -158q78 -37 197 -37q101 0 157 17t89 51q55 58 55 149q0 29 -4.5 48t-20.5 42.5t-53 45t-96 43.5l-135 51q-81 29 -126.5 86t-45.5 127q0 71 26 135t80 106q96 74 299 74q97 0 211 -27q29 -7 29 -38q0 -15 -21 -191
q-3 -24 -30 -24h-25q-23 0 -23 26q0 28 7 158q-71 18 -170 18q-163 0 -224 -49q-71 -59 -71 -172q0 -52 38 -94.5t136 -79.5l123 -45q89 -34 137.5 -85t48.5 -134q0 -137 -86 -223q-50 -50 -126 -72.5t-194 -22.5q-64 0 -133 13t-112 34q-29 14 -29 41z" />
    <glyph glyph-name="t" unicode="t" horiz-adv-x="604" 
d="M412 924l-146 -678q-12 -66 -12 -101q0 -47 28 -65.5t83 -18.5q34 0 75 7.5t43 7.5q15 0 23 -15q6 -15 6 -32q-6 -22 -35 -29q-65 -18 -160 -18q-69 0 -110 35.5t-41 115.5q0 47 16 125l144 666h-123q-25 0 -25 18q0 13 6 37q6 25 37 25h121q47 206 57 245q8 37 33 37h25
q20 0 20 -22q0 -17 -4 -33l-47 -227h219q29 0 29 -21q0 -17 -4 -33q-4 -17 -13.5 -21.5t-27.5 -4.5h-217z" />
    <glyph glyph-name="u" unicode="u" horiz-adv-x="1234" 
d="M1001 0h-170q-21 0 -27.5 8t-6.5 21q0 16 10 61q-118 -115 -346 -115q-52 0 -97 9t-85.5 29.5t-64.5 59.5t-24 93q0 48 23 166l129 594h-121q-28 0 -28 18q0 9 6 33q8 27 41 27h170q28 0 28 -21q0 -7 -6 -37l-133 -627q-18 -86 -18 -131q0 -133 208 -133q166 0 281 80
q32 23 45 41q17 29 23 55l149 695h-121q-28 0 -28 18q0 9 6 33q8 27 41 27h164q32 0 32 -25q0 -9 -4 -33l-188 -868h129q29 0 29 -21q0 -11 -7 -32q-4 -15 -12 -20t-27 -5z" />
    <glyph glyph-name="v" unicode="v" horiz-adv-x="1040" 
d="M1075 926h-69l-543 -899q-12 -20 -20.5 -25.5t-24.5 -5.5h-19q-29 0 -32 31l-158 899h-86q-29 0 -29 18q0 9 6 33q8 27 41 27h299q29 0 29 -21q0 -15 -6 -33q-4 -15 -12 -19.5t-27 -4.5h-125q99 -584 133 -805q24 45 43 78.5t57.5 98.5t72.5 122t123.5 208t176.5 298
h-131q-29 0 -29 18q0 5 7 33q8 27 41 27h299q28 0 28 -21q0 -15 -6 -33q-4 -15 -12 -19.5t-27 -4.5z" />
    <glyph glyph-name="w" unicode="w" horiz-adv-x="1603" 
d="M1628 926h-78l-458 -897q-16 -35 -45 -35h-23q-15 0 -22.5 7.5t-10.5 27.5q-100 697 -114 817q-78 -149 -457 -817q-20 -35 -47 -35h-19q-32 0 -35 37l-81 895h-95q-28 0 -28 18q0 9 6 33q8 27 41 27h299q28 0 28 -21q0 -15 -6 -33q-4 -15 -12 -19.5t-27 -4.5h-118
q19 -198 32 -347t17 -197.5t10 -148t6 -104.5q29 53 60.5 110t67.5 119.5t123 217t194 344.5q14 26 25 37.5t30 11.5h18q16 0 23 -12t10 -37q22 -141 44 -284.5t31.5 -204t19.5 -125t14.5 -100t9.5 -77.5q116 245 393 797h-127q-29 0 -29 18q0 5 7 33q8 27 41 27h299
q28 0 28 -21q0 -15 -6 -33q-4 -15 -12 -19.5t-27 -4.5z" />
    <glyph glyph-name="x" unicode="x" horiz-adv-x="1120" 
d="M965 0h-334q-29 0 -29 18q0 9 6 33q8 27 41 27h121q-51 95 -99 184.5t-70.5 132t-41.5 76.5q-68 -75 -375 -393h129q29 0 29 -21q0 -14 -6 -32q-4 -15 -12 -20t-27 -5h-334q-29 0 -29 18q0 5 7 33q8 27 41 27h94l438 450l-217 398h-100q-29 0 -29 18q0 9 6 33q8 27 41 27
h299q29 0 29 -21q0 -15 -6 -33q-4 -15 -12 -19.5t-27 -4.5h-101q43 -82 86.5 -163t63.5 -119t35 -69q39 46 333 351h-100q-29 0 -29 18q0 5 7 33q8 27 41 27h299q28 0 28 -21q0 -15 -6 -33q-4 -15 -12 -19.5t-27 -4.5h-90l-397 -408l243 -440h109q29 0 29 -21q0 -14 -6 -32
q-4 -15 -12 -20t-27 -5z" />
    <glyph glyph-name="y" unicode="y" horiz-adv-x="1040" 
d="M1079 926h-65l-584 -955q-14 -23 -53 -86t-62 -99.5t-54 -83.5t-52 -75q-107 -139 -275 -139q-57 0 -77 4q-31 6 -31 27q0 25 8 41q9 16 29 16q3 0 32 -3t48 -3q59 0 103 22t87 76q47 58 209 322l27 43l-164 893h-78q-29 0 -29 18q0 9 6 33q8 27 41 27h299q29 0 29 -21
q0 -15 -6 -33q-4 -15 -12 -19.5t-27 -4.5h-129q119 -686 137 -797q95 165 475 797h-133q-28 0 -28 18q0 9 6 33q8 27 41 27h299q28 0 28 -21q0 -15 -6 -33q-4 -15 -12 -19.5t-27 -4.5z" />
    <glyph glyph-name="z" unicode="z" horiz-adv-x="929" 
d="M743 0h-729q-22 0 -22 18q0 13 4 25q3 12 24 35l775 846h-516l-39 -146q-5 -14 -11.5 -19t-21.5 -5h-25q-24 0 -24 20q0 8 39 193q4 21 14 29t31 8h661q31 0 31 -21q0 -10 -2 -18q-5 -18 -25 -41l-776 -846h574l49 155q8 25 34 25h21q22 0 22 -18q0 -13 -47 -203
q-4 -15 -7 -21.5t-11 -11t-23 -4.5z" />
    <glyph glyph-name="braceleft" unicode="{" horiz-adv-x="602" 
d="M215 608q58 -18 89.5 -54t31.5 -114q0 -40 -17 -123l-65 -317q-16 -72 -16 -115q0 -45 26 -71q39 -39 154 -39q20 0 20 -21t-6 -37t-29 -16q-144 4 -200 41q-62 42 -62 129q0 52 19 139l63 305q15 71 15 117q0 67 -32.5 102.5t-101.5 47.5q-18 3 -18 18t4 29q6 21 25 24
q104 18 155.5 70t75.5 172l64 297q36 167 90 229q43 52 111 71t173 19q23 0 23 -20q0 -17 -6 -35q-5 -18 -27 -18q-154 0 -207 -72q-34 -47 -57 -160l-66 -301q-17 -78 -39.5 -131t-55 -84.5t-60 -47t-74.5 -34.5z" />
    <glyph glyph-name="bar" unicode="|" horiz-adv-x="417" 
d="M102 -272q-4 -17 -11.5 -26t-27.5 -9h-22q-25 0 -25 24q0 11 4 31l377 1768q2 11 5 17.5t11 11.5t21 5h23q28 0 28 -20q0 -3 -6 -33z" />
    <glyph glyph-name="braceright" unicode="}" horiz-adv-x="651" 
d="M473 604q-58 18 -89.5 54t-31.5 114q0 40 17 123l65 317q17 76 17 115q0 45 -27 72q-39 39 -154 39q-20 0 -20 20q0 21 6 37t29 16q144 -4 200 -41q62 -42 62 -129q0 -52 -19 -139l-63 -305q-14 -66 -14 -117q0 -67 32 -102t101 -47q18 -3 18 -19q0 -14 -4 -28
q-6 -22 -25 -25q-104 -18 -155.5 -70t-75.5 -172l-63 -297q-36 -166 -91 -229q-43 -52 -111 -71t-173 -19q-23 0 -23 20q0 17 6 35q5 19 27 19q155 0 207 71q34 47 57 160l66 301q17 78 39.5 131t55 84.5t60 47t74.5 34.5z" />
    <glyph glyph-name="asciitilde" unicode="~" horiz-adv-x="1435" 
d="M305 512q-11 -14 -24 -14q-15 0 -33 16q-12 12 -12 27q0 11 8 22q87 99 155.5 137.5t147.5 38.5q46 0 97 -21t144 -79q122 -74 201 -74q61 0 113 32.5t115 113.5q14 18 26 18t25 -8q26 -21 26 -35q0 -11 -8 -22q-68 -94 -139 -140.5t-160 -46.5q-98 0 -237 84
q-143 88 -213 88q-59 0 -112 -32t-120 -105z" />
    <glyph glyph-name="exclamdown" unicode="&#xa1;" horiz-adv-x="569" 
d="M236 561q6 31 28 31h31q22 0 22 -21q0 -6 -4 -30q-184 -921 -190 -942q-6 -35 -39 -35h-35q-17 0 -23 6.5t-6 21.5q0 7 216 969zM276 928q0 56 33 82q19 16 51 16q66 0 66 -53t-31 -80q-22 -19 -55 -19q-64 0 -64 54z" />
    <glyph glyph-name="cent" unicode="&#xa2;" horiz-adv-x="983" 
d="M467 -158q-2 -11 -5 -17.5t-11 -12t-21 -5.5h-22q-27 0 -27 23q0 5 4 25l29 141q-279 23 -279 309q0 145 50.5 324.5t148.5 281.5q108 111 303 129l31 140q2 11 5 17t10 11.5t19 5.5h25q27 0 27 -20q0 -9 -6 -33l-27 -119q148 -3 227 -22q27 -6 27 -35q0 -13 -35 -199
q-5 -24 -31 -24h-22q-27 0 -27 18q0 1 19 166q-78 12 -174 15l-189 -887q133 3 232 37q30 12 47 12q15 0 22 -14q8 -16 8 -29q0 -21 -39 -35q-125 -47 -288 -51zM227 319q0 -108 46.5 -170t158.5 -73l189 880q-140 -14 -222 -96q-55 -56 -96.5 -163.5t-58.5 -205.5t-17 -172
z" />
    <glyph glyph-name="sterling" unicode="&#xa3;" horiz-adv-x="1138" 
d="M999 0h-862q-28 0 -28 18q0 19 4 31q8 20 24 27q63 33 111 65.5t96 79t74 106t26 128.5q0 82 -8 139h-178q-29 0 -29 18q0 7 7 35q4 18 13 23.5t25 5.5h154q-12 118 -12 219q0 117 28.5 209.5t89 162.5t161 108t237.5 38q155 0 264 -35q21 -7 21 -28q0 -14 -27 -211
q-3 -23 -29 -23h-33q-24 0 -24 25q0 23 10 168q-83 24 -203 24q-399 -3 -399 -415q0 -148 12 -242h441q30 0 30 -23q0 -16 -6 -37q-5 -22 -39 -22h-418q9 -79 9 -109q0 -133 -65.5 -230t-201.5 -175h742q33 0 33 -23q0 -1 -7 -32q-4 -17 -13 -21t-30 -4z" />
    <glyph glyph-name="currency" unicode="&#xa4;" horiz-adv-x="1101" 
d="M1012 260q-10 -10 -21 -10q-10 0 -22 12l-111 105q-107 -82 -244 -82q-140 0 -247 82l-101 -105q-14 -14 -24 -14q-13 0 -25 12l-16 16q-13 13 -13 23q0 12 13 25l108 108q-84 108 -84 248q0 133 84 244l-108 108q-13 13 -13 23q0 9 15 24l16 17q12 12 21 12q13 0 22 -12
l107 -109q109 86 245 86q145 0 242 -84l109 107q12 12 22 12q11 0 23 -12l16 -17q12 -12 12 -22q0 -11 -12 -23l-108 -108q83 -100 83 -246q0 -145 -83 -246l112 -110q10 -10 10 -23t-12 -25zM915 680q0 133 -86 220t-215 87q-128 0 -215.5 -87.5t-87.5 -217.5
q0 -136 86.5 -223.5t216.5 -87.5t215.5 87.5t85.5 221.5z" />
    <glyph glyph-name="yen" unicode="&#xa5;" horiz-adv-x="1153" 
d="M643 0h-350q-29 0 -29 18q0 11 6 35q8 27 41 27h121l78 366h-307q-29 0 -29 19q0 13 4 29q4 18 12 22t29 4h307l21 94l-43 99h-252q-10 0 -15 0.5t-9.5 5t-4.5 12.5q0 13 4 29q4 18 12 22t29 4h205l-223 519h-111q-28 0 -28 18q0 11 6 35q4 15 13 20.5t28 5.5h348
q29 0 29 -20q0 -14 -7 -35q-4 -15 -12 -19.5t-27 -4.5h-137q217 -518 252 -613q70 90 510 613h-127q-29 0 -29 18q0 7 7 35q4 15 13 20.5t28 5.5h348q28 0 28 -20q0 -17 -6 -35q-4 -15 -12 -19.5t-27 -4.5h-110l-445 -519h217q29 0 29 -20q0 -17 -4 -31q-7 -22 -37 -22h-266
l-84 -99l-21 -94h332q29 0 29 -20q0 -7 -2 -23q-6 -31 -43 -31h-332l-78 -366h137q29 0 29 -21q0 -16 -6 -34q-4 -15 -12 -20t-27 -5z" />
    <glyph glyph-name="brokenbar" unicode="&#xa6;" horiz-adv-x="417" 
d="M346 877q-4 -17 -11.5 -26t-27.5 -9h-22q-25 0 -25 24q0 11 4 31l117 539q2 11 5 17.5t11 11.5t21 5h22q29 0 29 -20q0 -3 -6 -33zM158 -2q-4 -17 -11.5 -26t-27.5 -9h-23q-24 0 -24 25q0 10 4 30l117 539q3 11 5.5 17.5t10 12t20.5 5.5h23q29 0 29 -21q0 -5 -3.5 -17.5
t-3.5 -14.5z" />
    <glyph glyph-name="section" unicode="&#xa7;" horiz-adv-x="970" 
d="M666 219q41 -38 61.5 -82t20.5 -117q0 -46 -9.5 -89.5t-37 -93t-71 -85.5t-119 -60t-173.5 -24q-175 0 -277 60q-38 23 -38 47q0 81 10 196q2 12 10 19.5t20 7.5h25q26 0 29 -25v-170q58 -30 110 -40.5t131 -10.5q141 0 217 70t76 196q0 70 -51.5 124t-193.5 134l-62 35
q-199 112 -199 275q0 81 27.5 141t72.5 92.5t91 48.5t96 19q-36 24 -60 76t-24 102q0 21 2 44t11 59.5t23.5 69t43.5 67t67 59.5t97.5 41t132.5 16q142 0 229 -41q33 -16 33 -45q0 -26 -18 -198q-3 -25 -29 -25h-27q-28 0 -28 25q0 33 2 172q-76 28 -187 28
q-135 0 -196.5 -72t-61.5 -180q0 -65 40.5 -120.5t142.5 -112.5l51 -29q135 -75 188.5 -141t53.5 -150q0 -254 -252 -313zM821 504q0 68 -29 114t-102 93q-89 60 -162 96q-28 14 -53 14q-36 0 -67 -8q-168 -39 -168 -211q0 -58 27.5 -103t101.5 -93q104 -67 200 -113
q16 -8 37 -8q34 0 64 12q67 24 109 75.5t42 131.5z" />
    <glyph glyph-name="dieresis" unicode="&#xa8;" horiz-adv-x="403" 
d="M94 1382q0 -52 -28 -77q-20 -17 -52 -17q-61 0 -61 51q0 52 27 76q22 19 55 19q59 0 59 -52zM446 1382q0 -52 -28 -77q-20 -17 -51 -17q-62 0 -62 51q0 52 27 76q22 19 55 19q59 0 59 -52z" />
    <glyph glyph-name="copyright" unicode="&#xa9;" horiz-adv-x="1699" 
d="M1632 707q0 -208 -89 -375t-255.5 -264t-382.5 -97q-162 0 -299 56.5t-230 155t-145.5 234t-52.5 290.5q0 208 89.5 375.5t255.5 264.5t380 97q221 0 388.5 -97t254 -263.5t86.5 -376.5zM1559 707q0 191 -79 342t-229.5 239t-347.5 88q-194 0 -343 -88.5t-227.5 -240
t-78.5 -340.5q0 -141 46 -263.5t129 -212t206 -141t270 -51.5q196 0 346 88t229 239t79 341zM1133 1071q-72 10 -144 10q-99 0 -162.5 -27.5t-107.5 -80.5q-123 -145 -123 -385q0 -113 60 -186.5t186 -73.5q133 0 219 30q37 13 43 13q13 0 20 -23q6 -24 6 -31q0 -16 -34 -28
q-113 -45 -260 -45q-152 0 -245 88.5t-93 251.5q0 103 34.5 225.5t108.5 210.5q122 145 373 145q102 0 192 -20q17 -4 22 -10.5t5 -20.5q0 -10 -27 -180q-3 -23 -28 -23h-39q-19 0 -19 23q0 2 1 12t4.5 44.5t7.5 80.5z" />
    <glyph glyph-name="ordfeminine" unicode="&#xaa;" horiz-adv-x="776" 
d="M555 606q-41 -40 -89 -60t-124 -20q-197 0 -197 189q0 98 37.5 211.5t106.5 171.5q80 69 239 69q95 0 148 -32q3 15 8.5 20.5t17.5 5.5h31q21 0 21 -16q0 -9 -4 -25l-115 -518h82q17 0 24 -3.5t7 -14.5q0 -7 -5 -27q-3 -12 -8.5 -16t-21.5 -4h-144q-22 0 -22 20q0 3 8 49
zM580 719l75 344q-42 29 -135 29q-120 0 -176 -50q-52 -43 -81.5 -132.5t-29.5 -176.5q0 -69 33.5 -101t108.5 -32q93 0 164 55q19 15 26 29q11 17 15 35z" />
    <glyph glyph-name="guillemotleft" unicode="&#xab;" horiz-adv-x="925" 
d="M213 545l193 -350q12 -22 12 -39q0 -9 -8.5 -15t-18.5 -6h-20q-5 0 -9.5 1t-7.5 2t-6.5 4t-5 4.5t-5 6.5t-5 7t-5 8.5t-5.5 9.5l-191 326q-12 21 -12 43q0 20 20 43l336 315q3 3 9 8.5t8.5 8t7.5 7t7.5 6t6.5 4.5t7 4l7.5 2.5t8.5 2t8 0.5h26q23 0 23 -20q0 -12 -33 -45z
M571 545l193 -350q12 -22 12 -39q0 -9 -8 -15t-18 -6h-21q-5 0 -9.5 1t-7.5 2t-6.5 4t-5 4.5t-5 6.5t-5 7t-5 8.5t-5.5 9.5l-191 326q-12 21 -12 43q0 19 21 43l336 315q3 3 11 10.5t11 10l9 7.5t9 6.5t8.5 4.5t10 3.5t10.5 0.5h27q22 0 22 -20q0 -13 -32 -45z" />
    <glyph glyph-name="logicalnot" unicode="&#xac;" horiz-adv-x="1435" 
d="M1192 94q-3 -22 -29 -22h-35q-22 0 -22 22q0 9 2 17l98 448h-950q-25 0 -25 25q0 14 7 39q6 26 28 26h1012q25 0 25 -24q0 -4 -5 -29z" />
    <glyph glyph-name="uni00AD" unicode="&#xad;" horiz-adv-x="661" 
d="M541 504h-387q-25 0 -25 20q0 12 8 39q5 16 11.5 21.5t23.5 5.5h383q27 0 27 -21q0 -11 -9 -43q-4 -13 -10.5 -17.5t-21.5 -4.5z" />
    <glyph glyph-name="registered" unicode="&#xae;" horiz-adv-x="1699" 
d="M1632 707q0 -208 -89 -375t-255.5 -264t-382.5 -97q-162 0 -299 56.5t-230 155t-145.5 234t-52.5 290.5q0 208 89.5 375.5t255.5 264.5t380 97q221 0 388.5 -97t254 -263.5t86.5 -376.5zM1559 707q0 191 -79 342t-229.5 239t-347.5 88q-194 0 -343 -88.5t-227.5 -240
t-78.5 -340.5q0 -141 46 -263.5t129 -212t206 -141t270 -51.5q196 0 346 88t229 239t79 341zM760 279h-277q-18 0 -18 20q0 7 6 31q6 26 37 26h78l153 725h-106q-19 0 -19 21q0 3 7 31q6 26 36 26h308q141 0 211 -31q44 -20 69 -67t25 -107q0 -223 -228 -280l113 -287
q10 -31 41 -31h78q24 0 24 -22q0 -9 -6 -33q-6 -22 -32 -22h-95q-68 0 -90 63l-119 317q-29 -2 -88 -2h-129l-65 -301h100q25 0 25 -22q0 -9 -6 -33q-6 -22 -33 -22zM756 733h135q119 0 164 19q60 23 93.5 73t33.5 113q0 99 -66 125q-44 18 -160 18h-129z" />
    <glyph glyph-name="macron" unicode="&#xaf;" horiz-adv-x="403" 
d="M428 1268h-469q-25 0 -25 20q0 13 9 43q5 16 11.5 21.5t22.5 5.5h465q27 0 27 -21q0 -19 -8 -47q-4 -13 -11 -17.5t-22 -4.5z" />
    <glyph glyph-name="degree" unicode="&#xb0;" horiz-adv-x="688" 
d="M795 1206q0 -141 -81 -226t-222 -85q-120 0 -191.5 67.5t-71.5 190.5q0 139 84 222t224 83q121 0 189.5 -65t68.5 -187zM707 1198q0 91 -46.5 137.5t-132.5 46.5q-95 0 -150.5 -58t-55.5 -173q0 -86 48.5 -133t131.5 -47q93 0 149 58.5t56 168.5z" />
    <glyph glyph-name="plusminus" unicode="&#xb1;" horiz-adv-x="1435" 
d="M741 272q-4 -26 -28 -26h-33q-25 0 -25 22q0 11 4 27l95 430h-459q-25 0 -25 23q0 14 6 38q3 27 29 27h465l96 444q7 27 27 27h35q24 0 24 -24q0 -7 -4 -27l-92 -420h461q24 0 24 -25q0 -14 -6 -38q-3 -25 -28 -25h-467zM1182 0h-1014q-25 0 -25 25q0 3 1.5 9.5t3 15
t2.5 13.5q6 25 28 25h1016q23 0 23 -25q0 -7 -7 -38q-4 -25 -28 -25z" />
    <glyph glyph-name="twosuperior" unicode="&#xb2;" 
d="M748 860h-558q-10 0 -16 5t-6 12q0 14 6 34q4 15 19 25q317 211 444 328q127 116 127 241q0 66 -40 103t-136 37q-72 0 -156 -25q-40 -12 -47 -12q-15 0 -18 12q-7 25 -7 35q0 18 39 31q115 34 213 34q132 0 186 -51.5t54 -142.5q0 -170 -141 -299q-187 -166 -396 -291
q72 2 394 2l30 125q6 22 29 22h29q18 0 18 -18q0 -10 -33 -178q-5 -29 -34 -29z" />
    <glyph glyph-name="threesuperior" unicode="&#xb3;" 
d="M643 1305q141 -16 141 -160q0 -139 -71 -213q-85 -88 -287 -88q-128 0 -193 24q-26 12 -26 27q0 11 16 43q7 10 21 10q1 0 41 -10q70 -18 151 -18q161 0 215 63q49 54 49 158q0 61 -46.5 92t-157.5 31h-27q-23 0 -23 18t5 35q5 22 30 22h31q122 0 184 52q56 43 56 141
q0 113 -164 113q-91 0 -156 -23q-36 -12 -43 -12q-14 0 -18 12q-6 24 -6 35q0 18 38 31q88 32 207 32q126 0 177 -45t51 -131q0 -102 -46.5 -159t-148.5 -80z" />
    <glyph glyph-name="acute" unicode="&#xb4;" horiz-adv-x="403" 
d="M96 1206q-18 -18 -41 -18h-32q-19 0 -19 18q0 11 10 21l260 282q18 21 41 21h68q20 0 20 -19q0 -10 -18 -28z" />
    <glyph glyph-name="mu" unicode="&#xb5;" horiz-adv-x="1081" 
d="M180 49l-90 -434q-4 -16 -11.5 -24.5t-27.5 -8.5h-22q-29 0 -29 21q0 8 6 32l285 1342q4 16 11.5 24.5t27.5 8.5h20q27 0 27 -19q0 -17 -4 -33l-137 -641q-21 -99 -21 -145q0 -113 209 -113q212 0 334 64q31 13 39 22q12 12 20 48l166 784q4 16 11.5 24.5t27.5 8.5h20
q29 0 29 -21q0 -2 -4 -22l-201 -944q-6 -29 -37 -29h-20q-27 0 -27 22q0 3 11 60q-61 -50 -170.5 -74.5t-219.5 -24.5q-175 0 -223 72z" />
    <glyph glyph-name="paragraph" unicode="&#xb6;" horiz-adv-x="1132" 
d="M479 -227q-4 -17 -11.5 -26t-27.5 -9h-20q-29 0 -29 22q0 9 4 25l152 713q-189 0 -280 94t-91 246q0 359 252 514q155 94 399 94h271q39 0 39 -31q0 -15 -7 -43l-339 -1599q-4 -17 -11.5 -26t-27.5 -9h-23q-27 0 -27 22q0 10 5 25l335 1577h-225z" />
    <glyph glyph-name="periodcentered" unicode="&#xb7;" horiz-adv-x="409" 
d="M293 571q0 -56 -33 -82q-19 -16 -51 -16q-66 0 -66 53t31 80q22 19 55 19q64 0 64 -54z" />
    <glyph glyph-name="cedilla" unicode="&#xb8;" horiz-adv-x="403" 
d="M205 -135q174 0 174 -139q0 -107 -63.5 -155t-186.5 -48q-64 0 -92 12q-17 6 -17 21q0 2 7 30q6 21 26 21q5 0 25 -4q45 -9 67 -9q70 0 108 24.5t38 90.5q0 84 -101 84q-7 0 -22.5 -1t-17.5 -1q-29 0 -29 29q0 13 14 53l51 147h68z" />
    <glyph glyph-name="onesuperior" unicode="&#xb9;" 
d="M664 860h-351q-20 0 -20 21q0 10 6 28q8 25 39 25h121l157 678l-143 -56q-15 -6 -27 -6q-10 0 -14 11q-10 25 -10 34q0 13 20 23l187 76q23 10 39 10h24q21 0 21 -16q0 -13 -4 -29l-166 -725h131q26 0 26 -21q0 -9 -6 -30q-2 -9 -4.5 -13t-8.5 -7t-17 -3z" />
    <glyph glyph-name="ordmasculine" unicode="&#xba;" horiz-adv-x="727" 
d="M739 987q0 -76 -26.5 -187.5t-73.5 -176.5q-71 -99 -246 -99q-56 0 -97.5 8.5t-77.5 29.5t-54.5 62t-18.5 101q0 87 30 195.5t87 169.5q76 84 225 84q45 0 77.5 -3t68 -14.5t57 -31t35.5 -54.5t14 -84zM653 973q0 76 -44 99.5t-132 23.5q-104 0 -155 -62
q-41 -47 -66 -145t-25 -158q0 -77 42.5 -104t129.5 -27q127 0 177 78q31 50 52 146.5t21 148.5z" />
    <glyph glyph-name="guillemotright" unicode="&#xbb;" horiz-adv-x="925" 
d="M758 539l-193 350q-12 22 -12 39q0 8 8.5 14t18.5 6h20q5 0 9.5 -1t7.5 -2t6.5 -4t5 -4.5t5 -6.5t5 -7t5 -8.5t5.5 -9.5l191 -325q12 -21 12 -43q0 -19 -21 -43l-335 -316q-3 -3 -9 -8.5t-8.5 -8t-7.5 -7t-7.5 -6t-6.5 -4.5t-7 -4l-7.5 -2.5t-8.5 -2t-8 -0.5h-27
q-22 0 -22 21q0 12 33 45zM399 539l-192 350q-12 22 -12 39q0 9 8 14.5t18 5.5h21q5 0 9.5 -1t7.5 -2t6.5 -4t5 -4.5t5 -6.5t5 -7t5 -8.5t5.5 -9.5l190 -325q13 -23 13 -43q0 -19 -21 -43l-336 -316q-3 -3 -11 -10.5t-11 -10l-9 -7.5t-9 -6.5t-8.5 -4.5t-10 -3.5t-10.5 -0.5
h-27q-23 0 -23 21q0 12 33 45z" />
    <glyph glyph-name="onequarter" unicode="&#xbc;" horiz-adv-x="1712" 
d="M494 -33q-14 -20 -23.5 -26.5t-26.5 -6.5h-26q-21 0 -21 19q0 14 19 41l921 1417q27 45 58 45h26q23 0 23 -20q0 -15 -29 -56zM621 541h-351q-20 0 -20 20q0 11 6 29q5 14 13 19t26 5h121l157 678l-143 -55q-15 -6 -27 -6q-11 0 -14 10q-10 25 -10 35q0 12 20 22l187 76
q23 10 39 10h24q21 0 21 -16q0 -13 -4 -29l-166 -725h131q26 0 26 -20q0 -10 -6 -31q-2 -8 -4.5 -12t-8.5 -7t-17 -3zM1503 0h-303q-20 0 -20 20q0 11 6 29q8 25 39 25h102l39 172h-379q-14 0 -19 5.5t-5 16.5q0 23 4 35q2 8 20 31l399 481q23 29 46 29h34q19 0 19 -15
q0 -10 -19 -32q-214 -261 -393 -475h309l54 221q5 24 26 24h31q23 0 23 -16q0 -2 -1 -6.5t-2.5 -14t-3.5 -18.5l-45 -190h131q25 0 25 -15q0 -7 -8 -43q-5 -18 -29 -18h-137l-39 -172h106q27 0 27 -21q0 -9 -6 -30q-2 -8 -4.5 -12.5t-9 -7.5t-17.5 -3z" />
    <glyph glyph-name="onehalf" unicode="&#xbd;" horiz-adv-x="1712" 
d="M485 -33q-14 -20 -23.5 -26.5t-25.5 -6.5h-26q-21 0 -21 19q0 14 19 41l921 1417q27 45 57 45h27q23 0 23 -20q0 -15 -29 -56zM604 541h-350q-21 0 -21 20q0 8 7 29q5 14 13 19t26 5h120l158 678l-143 -55q-15 -6 -27 -6q-11 0 -14 10q-11 28 -11 35q0 12 21 22l186 76
q23 10 39 10h25q20 0 20 -16q0 -13 -4 -29l-166 -725h131q27 0 27 -20q0 -10 -6 -31q-3 -12 -9 -17t-22 -5zM1538 0h-557q-10 0 -16.5 5t-6.5 11q0 12 7 35q4 16 18 25q321 214 444 327q127 116 127 242q0 66 -40 102.5t-136 36.5q-74 0 -155 -24q-40 -12 -47 -12
q-16 0 -19 12q-6 21 -6 35q0 17 39 30q119 35 213 35q132 0 185.5 -51.5t53.5 -142.5q0 -170 -141 -299q-189 -168 -395 -291q72 2 393 2l31 125q6 22 29 22h28q19 0 19 -18q0 -10 -33 -178q-5 -29 -35 -29z" />
    <glyph glyph-name="threequarters" unicode="&#xbe;" horiz-adv-x="1712" 
d="M551 -33q-14 -20 -23.5 -26.5t-25.5 -6.5h-27q-20 0 -20 19q0 16 18 41l922 1417q27 45 57 45h27q22 0 22 -20q0 -16 -28 -56zM623 985q141 -16 141 -160q0 -138 -72 -213q-85 -88 -286 -88q-125 0 -193 25q-27 12 -27 26q0 9 17 43q7 11 20 11q4 0 10.5 -2t15.5 -5
t15 -4q70 -18 152 -18q160 0 215 64q49 54 49 157q0 61 -47 92t-158 31h-26q-23 0 -23 19q0 20 4 34q6 23 31 23h31q123 0 184 51q55 42 55 141q0 113 -164 113q-93 0 -155 -22q-39 -13 -43 -13q-15 0 -19 13q-6 24 -6 34q0 18 39 31q91 33 207 33q126 0 176.5 -45
t50.5 -131q0 -102 -46 -159.5t-148 -80.5zM1534 0h-303q-21 0 -21 20q0 8 7 29q5 14 12.5 19.5t25.5 5.5h103l39 172h-379q-25 0 -25 22q0 23 4 35q1 6 21 31l399 481q23 29 45 29h35q19 0 19 -15q0 -10 -19 -32q-214 -261 -393 -475h309l53 221q5 24 27 24h31q22 0 22 -16
q0 -5 -6 -39l-45 -190h131q25 0 25 -15q0 -3 -9 -43q-5 -18 -28 -18h-137l-39 -172h106q27 0 27 -21q0 -9 -6 -30q-2 -8 -4.5 -12.5t-9 -7.5t-17.5 -3z" />
    <glyph glyph-name="questiondown" unicode="&#xbf;" horiz-adv-x="796" 
d="M469 592h29q20 0 20 -29q0 -19 -18 -112q-24 -119 -69.5 -181t-162.5 -125q-115 -62 -176 -137t-61 -198q0 -82 52.5 -134.5t164.5 -52.5q85 0 136 9.5t114 31.5q18 6 26 6q16 0 19 -14q8 -24 8 -37q0 -14 -19 -25q-126 -57 -296 -57q-81 0 -141.5 21.5t-94.5 58.5
t-50 80t-16 92q0 96 32 170.5t90 131t153 114.5q79 48 113.5 75.5t56 63.5t35.5 98q3 14 24 121q7 29 31 29zM451 928q0 56 32 82q19 16 52 16q65 0 65 -53t-31 -80q-22 -19 -55 -19q-63 0 -63 54z" />
    <glyph glyph-name="Agrave" unicode="&#xc0;" horiz-adv-x="1357" 
d="M307 0h-350q-29 0 -29 18q0 9 6 33q8 27 41 27h95l772 1341q20 33 45 33h20q19 0 27.5 -6.5t11.5 -26.5l203 -1341h94q29 0 29 -21q0 -14 -6 -32q-4 -15 -12 -20t-27 -5h-350q-29 0 -29 18q0 9 6 33q8 27 41 27h160l-64 420h-575l-244 -420h152q28 0 28 -21q0 -14 -6 -32
q-4 -15 -12 -20t-27 -5zM872 1313q-17 -30 -71.5 -129.5t-138 -248t-199.5 -353.5h516q-62 406 -107 731zM926 1581l-285 227q-20 15 -20 33q0 9 7 15t17 6h62q25 0 49 -21l258 -229q16 -13 16 -29q0 -20 -22 -20h-31q-28 0 -51 18z" />
    <glyph glyph-name="Aacute" unicode="&#xc1;" horiz-adv-x="1357" 
d="M307 0h-350q-29 0 -29 18q0 9 6 33q8 27 41 27h95l772 1341q20 33 45 33h20q19 0 27.5 -6.5t11.5 -26.5l203 -1341h94q29 0 29 -21q0 -14 -6 -32q-4 -15 -12 -20t-27 -5h-350q-29 0 -29 18q0 9 6 33q8 27 41 27h160l-64 420h-575l-244 -420h152q28 0 28 -21q0 -14 -6 -32
q-4 -15 -12 -20t-27 -5zM872 1313q-17 -30 -71.5 -129.5t-138 -248t-199.5 -353.5h516q-62 406 -107 731zM872 1563q-24 -19 -51 -19h-37q-22 0 -22 21q0 15 16 28l318 230q23 20 49 20h69q25 0 25 -20q0 -18 -20 -33z" />
    <glyph glyph-name="Acircumflex" unicode="&#xc2;" horiz-adv-x="1357" 
d="M307 0h-350q-29 0 -29 18q0 9 6 33q8 27 41 27h95l772 1341q20 33 45 33h20q19 0 27.5 -6.5t11.5 -26.5l203 -1341h94q29 0 29 -21q0 -14 -6 -32q-4 -15 -12 -20t-27 -5h-350q-29 0 -29 18q0 9 6 33q8 27 41 27h160l-64 420h-575l-244 -420h152q28 0 28 -21q0 -14 -6 -32
q-4 -15 -12 -20t-27 -5zM872 1313q-17 -30 -71.5 -129.5t-138 -248t-199.5 -353.5h516q-62 406 -107 731zM670 1563h-37q-19 0 -19 18q0 12 17 29l256 209q31 24 55 24h25q21 0 41 -20l186 -215q8 -12 8 -23q0 -22 -26 -22h-21q-20 0 -45 22l-170 158l-221 -156
q-33 -24 -49 -24z" />
    <glyph glyph-name="Atilde" unicode="&#xc3;" horiz-adv-x="1357" 
d="M307 0h-350q-29 0 -29 18q0 9 6 33q8 27 41 27h95l772 1341q20 33 45 33h20q19 0 27.5 -6.5t11.5 -26.5l203 -1341h94q29 0 29 -21q0 -14 -6 -32q-4 -15 -12 -20t-27 -5h-350q-29 0 -29 18q0 9 6 33q8 27 41 27h160l-64 420h-575l-244 -420h152q28 0 28 -21q0 -14 -6 -32
q-4 -15 -12 -20t-27 -5zM872 1313q-17 -30 -71.5 -129.5t-138 -248t-199.5 -353.5h516q-62 406 -107 731zM649 1599h-20q-21 0 -21 19q0 11 15 41q42 75 83.5 108t98.5 33q24 0 51.5 -12.5t93.5 -50.5q51 -30 76 -39.5t49 -9.5q30 0 52.5 16.5t52.5 71.5q20 34 37 34h26
q23 0 23 -16q0 -17 -11 -39q-42 -89 -84.5 -124.5t-101.5 -35.5q-30 0 -61.5 12t-92.5 46q-60 33 -85.5 44t-43.5 11q-30 0 -51.5 -17t-46.5 -65q-7 -15 -14.5 -21t-24.5 -6z" />
    <glyph glyph-name="Adieresis" unicode="&#xc4;" horiz-adv-x="1357" 
d="M307 0h-350q-29 0 -29 18q0 9 6 33q8 27 41 27h95l772 1341q20 33 45 33h20q19 0 27.5 -6.5t11.5 -26.5l203 -1341h94q29 0 29 -21q0 -14 -6 -32q-4 -15 -12 -20t-27 -5h-350q-29 0 -29 18q0 9 6 33q8 27 41 27h160l-64 420h-575l-244 -420h152q28 0 28 -21q0 -14 -6 -32
q-4 -15 -12 -20t-27 -5zM872 1313q-17 -30 -71.5 -129.5t-138 -248t-199.5 -353.5h516q-62 406 -107 731zM813 1690q0 -52 -29 -78q-20 -17 -51 -17q-61 0 -61 52t26 75q22 19 56 19q59 0 59 -51zM1186 1690q0 -52 -29 -78q-20 -17 -51 -17q-62 0 -62 52q0 51 27 75
q22 19 55 19q60 0 60 -51z" />
    <glyph glyph-name="Aring" unicode="&#xc5;" horiz-adv-x="1357" 
d="M307 0h-350q-29 0 -29 18q0 9 6 33q8 27 41 27h95l772 1341q20 33 45 33h20q19 0 27.5 -6.5t11.5 -26.5l203 -1341h94q29 0 29 -21q0 -14 -6 -32q-4 -15 -12 -20t-27 -5h-350q-29 0 -29 18q0 9 6 33q8 27 41 27h160l-64 420h-575l-244 -420h152q28 0 28 -21q0 -14 -6 -32
q-4 -15 -12 -20t-27 -5zM872 1313q-17 -30 -71.5 -129.5t-138 -248t-199.5 -353.5h516q-62 406 -107 731zM1133 1710q0 -94 -54.5 -148.5t-148.5 -54.5q-77 0 -121.5 44t-44.5 122q0 88 56 143.5t145 55.5q77 0 122.5 -43t45.5 -119zM1065 1708q0 50 -28.5 77t-80.5 27
q-54 0 -91.5 -35t-37.5 -98q0 -55 29.5 -84.5t81.5 -29.5q56 0 91.5 36t35.5 107z" />
    <glyph glyph-name="AE" unicode="&#xc6;" horiz-adv-x="2002" 
d="M326 0h-373q-29 0 -29 18q0 9 6 33q9 29 41 29h95l1122 1286h-160q-29 0 -29 18q0 7 7 35q8 27 41 27h944q20 0 26 -6.5t6 -18.5q0 -16 -36 -221q-5 -24 -29 -24h-33q-24 0 -24 24q0 7 18 166h-549l-121 -569h506q31 0 31 -21q0 -13 -6 -37q-4 -16 -13 -21t-28 -5h-508
l-133 -631h643l43 160q6 28 31 28h32q25 0 25 -24q0 -14 -43 -201q-5 -23 -15 -34t-34 -11h-908q-28 0 -28 18q0 9 6 33q9 29 41 29h115l94 438h-547l-371 -438h160q29 0 29 -23q0 -14 -6 -32q-4 -15 -12 -20t-27 -5zM627 602h491l160 754q-155 -192 -651 -754z" />
    <glyph glyph-name="Ccedilla" unicode="&#xc7;" horiz-adv-x="1253" 
d="M588 -139q178 0 178 -146q0 -110 -65 -159.5t-191 -49.5q-64 0 -94 13q-19 5 -19 22q0 7 6 31q6 22 29 22q10 0 25 -6q40 -8 69 -8q72 0 111 26t39 93q0 86 -103 86q-8 0 -24.5 -1t-18.5 -1q-28 0 -28 31q0 11 14 55l37 108q-189 14 -288 122t-99 325q0 133 26 288
t86.5 316t143.5 258q85 97 205.5 142t300.5 45q154 0 305 -31q22 -4 30.5 -13.5t8.5 -25.5q0 -7 -37 -215q-6 -25 -29 -25h-32q-25 0 -25 25q0 9 18 174q-98 24 -303 24q-234 0 -372 -155q-107 -121 -169.5 -358t-62.5 -437q0 -79 17.5 -143.5t56.5 -119t110.5 -84.5
t171.5 -30q215 0 375 54q11 4 24.5 9t20.5 7t13 2q9 0 13.5 -6.5t10.5 -24.5q4 -12 4 -24q0 -18 -51 -37q-177 -66 -403 -66z" />
    <glyph glyph-name="Egrave" unicode="&#xc8;" horiz-adv-x="1208" 
d="M981 0h-905q-29 0 -29 18q0 11 6 35q8 27 41 27h117l276 1286h-133q-28 0 -28 18q0 11 6 35q8 27 41 27h825q19 0 25 -6.5t6 -20.5q0 -3 -37 -219q-5 -24 -29 -24h-33q-24 0 -24 24q0 3 18 166h-546l-121 -571h520q31 0 31 -21q0 -7 -7 -35q-4 -16 -12.5 -21t-27.5 -5
h-523l-133 -633h639l43 162q6 28 31 28h33q24 0 24 -24q0 -8 -43 -201q-6 -30 -14 -37.5t-37 -7.5zM850 1581l-285 227q-20 15 -20 33q0 9 7 15t17 6h62q25 0 49 -21l258 -229q16 -13 16 -29q0 -20 -22 -20h-31q-28 0 -51 18z" />
    <glyph glyph-name="Eacute" unicode="&#xc9;" horiz-adv-x="1208" 
d="M981 0h-905q-29 0 -29 18q0 11 6 35q8 27 41 27h117l276 1286h-133q-28 0 -28 18q0 11 6 35q8 27 41 27h825q19 0 25 -6.5t6 -20.5q0 -3 -37 -219q-5 -24 -29 -24h-33q-24 0 -24 24q0 3 18 166h-546l-121 -571h520q31 0 31 -21q0 -7 -7 -35q-4 -16 -12.5 -21t-27.5 -5
h-523l-133 -633h639l43 162q6 28 31 28h33q24 0 24 -24q0 -8 -43 -201q-6 -30 -14 -37.5t-37 -7.5zM831 1563q-24 -19 -51 -19h-37q-22 0 -22 21q0 15 16 28l318 230q23 20 49 20h70q24 0 24 -20q0 -18 -20 -33z" />
    <glyph glyph-name="Ecircumflex" unicode="&#xca;" horiz-adv-x="1208" 
d="M981 0h-905q-29 0 -29 18q0 11 6 35q8 27 41 27h117l276 1286h-133q-28 0 -28 18q0 11 6 35q8 27 41 27h825q19 0 25 -6.5t6 -20.5q0 -3 -37 -219q-5 -24 -29 -24h-33q-24 0 -24 24q0 3 18 166h-546l-121 -571h520q31 0 31 -21q0 -7 -7 -35q-4 -16 -12.5 -21t-27.5 -5
h-523l-133 -633h639l43 162q6 28 31 28h33q24 0 24 -24q0 -8 -43 -201q-6 -30 -14 -37.5t-37 -7.5zM604 1563h-37q-18 0 -18 18q0 13 16 29l256 209q31 24 56 24h24q21 0 41 -20l186 -215q9 -14 9 -23q0 -22 -27 -22h-20q-21 0 -46 22l-170 158l-221 -156q-33 -24 -49 -24z
" />
    <glyph glyph-name="Edieresis" unicode="&#xcb;" horiz-adv-x="1208" 
d="M981 0h-905q-29 0 -29 18q0 11 6 35q8 27 41 27h117l276 1286h-133q-28 0 -28 18q0 11 6 35q8 27 41 27h825q19 0 25 -6.5t6 -20.5q0 -3 -37 -219q-5 -24 -29 -24h-33q-24 0 -24 24q0 3 18 166h-546l-121 -571h520q31 0 31 -21q0 -7 -7 -35q-4 -16 -12.5 -21t-27.5 -5
h-523l-133 -633h639l43 162q6 28 31 28h33q24 0 24 -24q0 -8 -43 -201q-6 -30 -14 -37.5t-37 -7.5zM737 1690q0 -53 -28 -78q-20 -17 -52 -17q-61 0 -61 52q0 51 27 75q22 19 55 19q59 0 59 -51zM1110 1690q0 -52 -29 -78q-20 -17 -51 -17q-61 0 -61 52t26 75q22 19 56 19
q59 0 59 -51z" />
    <glyph glyph-name="Igrave" unicode="&#xcc;" horiz-adv-x="671" 
d="M426 0h-350q-29 0 -29 18q0 11 6 35q8 27 41 27h117l274 1286h-131q-28 0 -28 18q0 11 6 35q8 27 41 27h348q29 0 29 -21q0 -13 -7 -34q-5 -15 -12 -20t-26 -5h-125l-277 -1286h139q29 0 29 -21q0 -16 -6 -34q-4 -15 -12 -20t-27 -5zM592 1581l-285 227q-20 15 -20 33
q0 9 7 15t17 6h62q25 0 49 -21l258 -229q16 -13 16 -29q0 -20 -22 -20h-31q-28 0 -51 18z" />
    <glyph glyph-name="Iacute" unicode="&#xcd;" horiz-adv-x="671" 
d="M426 0h-350q-29 0 -29 18q0 11 6 35q8 27 41 27h117l274 1286h-131q-28 0 -28 18q0 11 6 35q8 27 41 27h348q29 0 29 -21q0 -13 -7 -34q-5 -15 -12 -20t-26 -5h-125l-277 -1286h139q29 0 29 -21q0 -16 -6 -34q-4 -15 -12 -20t-27 -5zM510 1581q-23 -18 -51 -18h-37
q-23 0 -23 20q0 15 17 29l317 229q24 21 49 21h70q11 0 18 -6t7 -15q0 -17 -21 -33z" />
    <glyph glyph-name="Icircumflex" unicode="&#xce;" horiz-adv-x="671" 
d="M426 0h-350q-29 0 -29 18q0 11 6 35q8 27 41 27h117l274 1286h-131q-28 0 -28 18q0 11 6 35q8 27 41 27h348q29 0 29 -21q0 -13 -7 -34q-5 -15 -12 -20t-26 -5h-125l-277 -1286h139q29 0 29 -21q0 -16 -6 -34q-4 -15 -12 -20t-27 -5zM342 1563h-37q-18 0 -18 18
q0 13 16 29l256 209q31 24 55 24h25q21 0 41 -20l186 -215q8 -12 8 -23q0 -22 -26 -22h-21q-20 0 -45 22l-170 158l-221 -156q-33 -24 -49 -24z" />
    <glyph glyph-name="Idieresis" unicode="&#xcf;" horiz-adv-x="671" 
d="M426 0h-350q-29 0 -29 18q0 11 6 35q8 27 41 27h117l274 1286h-131q-28 0 -28 18q0 11 6 35q8 27 41 27h348q29 0 29 -21q0 -13 -7 -34q-5 -15 -12 -20t-26 -5h-125l-277 -1286h139q29 0 29 -21q0 -16 -6 -34q-4 -15 -12 -20t-27 -5zM485 1690q0 -53 -28 -78
q-20 -17 -51 -17q-62 0 -62 52q0 51 27 75q22 19 55 19q59 0 59 -51zM858 1690q0 -52 -29 -78q-20 -17 -51 -17q-61 0 -61 52t26 75q22 19 56 19q59 0 59 -51z" />
    <glyph glyph-name="Eth" unicode="&#xd0;" horiz-adv-x="1462" 
d="M498 0h-422q-29 0 -29 18q0 9 6 33q9 29 41 29h117l135 633h-217q-25 0 -25 20q0 13 7 37q5 16 11.5 21.5t22.5 5.5h217l123 569h-131q-28 0 -28 18q0 11 6 35q8 27 41 27h428q225 0 356 -41q128 -39 195 -148.5t67 -273.5q0 -112 -13 -219t-47 -222.5t-87 -209
t-139.5 -170t-196.5 -113.5q-76 -25 -204.5 -37t-233.5 -12zM305 80h223q270 0 404 55q105 43 183.5 135t121.5 210t63.5 237.5t20.5 240.5q0 270 -168 355q-103 53 -369 53h-206l-121 -569h340q26 0 26 -21q0 -17 -8 -41q-7 -22 -37 -22h-340z" />
    <glyph glyph-name="Ntilde" unicode="&#xd1;" horiz-adv-x="1505" 
d="M426 0h-350q-29 0 -29 18q0 11 6 35q8 27 41 27h121l270 1286h-131q-28 0 -28 18q0 11 6 35q8 27 41 27h190q8 0 17 -6t12 -13q437 -1045 524 -1273q51 268 254 1212h-141q-29 0 -29 18q0 11 6 35q8 27 41 27h348q29 0 29 -21q0 -16 -6 -34q-4 -15 -12 -20t-27 -5h-119
l-282 -1337q-8 -35 -41 -35h-19q-29 0 -41 31q-473 1146 -518 1269q-49 -261 -254 -1214h137q29 0 29 -21q0 -16 -6 -34q-4 -15 -12 -20t-27 -5zM758 1599h-21q-20 0 -20 19q0 13 14 41q42 75 83.5 108t98.5 33q25 0 53 -13t93 -50q51 -30 76 -39.5t49 -9.5q30 0 52 16.5
t52 71.5q20 34 37 34h27q22 0 22 -16q0 -19 -10 -39q-42 -89 -84.5 -124.5t-101.5 -35.5q-30 0 -61.5 12t-92.5 46q-60 33 -85.5 44t-43.5 11q-30 0 -51.5 -17t-46.5 -65q-7 -15 -14.5 -21t-24.5 -6z" />
    <glyph glyph-name="Ograve" unicode="&#xd2;" horiz-adv-x="1392" 
d="M1348 1049q0 -130 -25.5 -291t-86 -334.5t-142.5 -271.5q-80 -95 -189.5 -137t-263.5 -42q-90 0 -159 11.5t-130.5 40.5t-101.5 76.5t-63 123t-23 176.5q0 140 27.5 303.5t94.5 336.5t160 272q141 149 420 149q94 0 162.5 -9t132 -35.5t102.5 -71.5t62 -119.5t23 -177.5z
M1253 1038q0 103 -22 169t-72.5 104t-121.5 52.5t-181 14.5q-237 0 -352 -129q-78 -86 -136 -242.5t-83 -310t-25 -282.5q0 -103 23 -171.5t73.5 -109.5t123 -57.5t179.5 -16.5q129 0 216 33.5t153 118.5q70 88 123.5 249.5t77.5 312.5t24 265zM940 1581l-285 227
q-20 15 -20 33q0 9 7 15t17 6h62q25 0 49 -21l258 -229q16 -13 16 -29q0 -20 -22 -20h-31q-28 0 -51 18z" />
    <glyph glyph-name="Oacute" unicode="&#xd3;" horiz-adv-x="1392" 
d="M1348 1049q0 -130 -25.5 -291t-86 -334.5t-142.5 -271.5q-80 -95 -189.5 -137t-263.5 -42q-90 0 -159 11.5t-130.5 40.5t-101.5 76.5t-63 123t-23 176.5q0 140 27.5 303.5t94.5 336.5t160 272q141 149 420 149q94 0 162.5 -9t132 -35.5t102.5 -71.5t62 -119.5t23 -177.5z
M1253 1038q0 103 -22 169t-72.5 104t-121.5 52.5t-181 14.5q-237 0 -352 -129q-78 -86 -136 -242.5t-83 -310t-25 -282.5q0 -103 23 -171.5t73.5 -109.5t123 -57.5t179.5 -16.5q129 0 216 33.5t153 118.5q70 88 123.5 249.5t77.5 312.5t24 265zM922 1581q-23 -18 -52 -18
h-36q-23 0 -23 20q0 16 16 29l318 229q24 21 49 21h70q10 0 17 -6t7 -15q0 -18 -20 -33z" />
    <glyph glyph-name="Ocircumflex" unicode="&#xd4;" horiz-adv-x="1392" 
d="M1348 1049q0 -130 -25.5 -291t-86 -334.5t-142.5 -271.5q-80 -95 -189.5 -137t-263.5 -42q-90 0 -159 11.5t-130.5 40.5t-101.5 76.5t-63 123t-23 176.5q0 140 27.5 303.5t94.5 336.5t160 272q141 149 420 149q94 0 162.5 -9t132 -35.5t102.5 -71.5t62 -119.5t23 -177.5z
M1253 1038q0 103 -22 169t-72.5 104t-121.5 52.5t-181 14.5q-237 0 -352 -129q-78 -86 -136 -242.5t-83 -310t-25 -282.5q0 -103 23 -171.5t73.5 -109.5t123 -57.5t179.5 -16.5q129 0 216 33.5t153 118.5q70 88 123.5 249.5t77.5 312.5t24 265zM684 1563h-37q-18 0 -18 18
q0 13 16 29l256 209q31 24 55 24h25q21 0 41 -20l186 -215q9 -14 9 -23q0 -22 -27 -22h-21q-20 0 -45 22l-170 158l-221 -156q-33 -24 -49 -24z" />
    <glyph glyph-name="Otilde" unicode="&#xd5;" horiz-adv-x="1392" 
d="M1348 1049q0 -130 -25.5 -291t-86 -334.5t-142.5 -271.5q-80 -95 -189.5 -137t-263.5 -42q-90 0 -159 11.5t-130.5 40.5t-101.5 76.5t-63 123t-23 176.5q0 140 27.5 303.5t94.5 336.5t160 272q141 149 420 149q94 0 162.5 -9t132 -35.5t102.5 -71.5t62 -119.5t23 -177.5z
M1253 1038q0 103 -22 169t-72.5 104t-121.5 52.5t-181 14.5q-237 0 -352 -129q-78 -86 -136 -242.5t-83 -310t-25 -282.5q0 -103 23 -171.5t73.5 -109.5t123 -57.5t179.5 -16.5q129 0 216 33.5t153 118.5q70 88 123.5 249.5t77.5 312.5t24 265zM686 1599h-20q-21 0 -21 19
q0 13 14 41q42 75 84 108t99 33q24 0 51.5 -12.5t93.5 -50.5q51 -30 76 -39.5t49 -9.5q30 0 52.5 16.5t52.5 71.5q8 13 11.5 18.5t10 10.5t14.5 5h27q23 0 23 -16q0 -17 -11 -39q-42 -89 -84.5 -124.5t-101.5 -35.5q-30 0 -61.5 12t-92.5 46q-60 33 -85.5 44t-43.5 11
q-30 0 -51.5 -17t-46.5 -65q-7 -15 -14.5 -21t-24.5 -6z" />
    <glyph glyph-name="Odieresis" unicode="&#xd6;" horiz-adv-x="1392" 
d="M1348 1049q0 -130 -25.5 -291t-86 -334.5t-142.5 -271.5q-80 -95 -189.5 -137t-263.5 -42q-90 0 -159 11.5t-130.5 40.5t-101.5 76.5t-63 123t-23 176.5q0 140 27.5 303.5t94.5 336.5t160 272q141 149 420 149q94 0 162.5 -9t132 -35.5t102.5 -71.5t62 -119.5t23 -177.5z
M1253 1038q0 103 -22 169t-72.5 104t-121.5 52.5t-181 14.5q-237 0 -352 -129q-78 -86 -136 -242.5t-83 -310t-25 -282.5q0 -103 23 -171.5t73.5 -109.5t123 -57.5t179.5 -16.5q129 0 216 33.5t153 118.5q70 88 123.5 249.5t77.5 312.5t24 265zM840 1690q0 -52 -29 -78
q-20 -17 -51 -17q-62 0 -62 52q0 51 27 75q22 19 55 19q60 0 60 -51zM1212 1690q0 -53 -28 -78q-20 -17 -51 -17q-62 0 -62 52q0 51 27 75q22 19 55 19q59 0 59 -51z" />
    <glyph glyph-name="multiply" unicode="&#xd7;" horiz-adv-x="1435" 
d="M1163 264q8 -8 8 -20q0 -11 -10 -21l-26 -26q-15 -9 -23 -9q-9 0 -18 9l-316 342l-377 -346q-9 -9 -20 -9q-8 0 -19 11l-18 24q-10 7 -10 19q0 11 14 22l375 348l-315 346q-9 14 -9 19q0 9 15 24l24 21q8 8 21 8q10 0 18 -8l314 -346l387 348q8 8 18 8t18 -10l21 -25
q8 -8 8 -16q0 -10 -10 -23l-391 -348z" />
    <glyph glyph-name="Oslash" unicode="&#xd8;" horiz-adv-x="1392" 
d="M172 -20q-15 -15 -27 -15q-13 0 -36 21q-13 10 -13 22t13 25l104 123q-49 91 -49 245q0 140 27.5 303.5t94.5 336.5t160 272q141 149 420 149q131 0 223.5 -21t151.5 -75l92 109q17 20 29 20t22 -10q27 -19 27 -33q-3 -13 -10 -22l-109 -127q56 -98 56 -254
q0 -130 -25.5 -291t-86 -334.5t-142.5 -271.5q-80 -95 -189.5 -137t-263.5 -42q-269 0 -379 115zM1253 1038q0 112 -28 185l-899 -1061q46 -55 126.5 -79t206.5 -24q129 0 216 33.5t153 118.5q70 88 123.5 249.5t77.5 312.5t24 265zM260 414q0 -104 25 -174l895 1052
q-45 47 -123.5 66.5t-200.5 19.5q-237 0 -352 -129q-78 -86 -136 -242.5t-83 -310t-25 -282.5z" />
    <glyph glyph-name="Ugrave" unicode="&#xd9;" horiz-adv-x="1486" 
d="M1249 578q-23 -104 -32 -144t-26.5 -103.5t-35.5 -101t-43 -73.5q-69 -100 -177 -142.5t-278 -42.5q-403 0 -403 299q0 102 43 303l168 793h-119q-29 0 -29 18q0 7 7 35q8 27 41 27h348q28 0 28 -21q0 -16 -6 -34q-4 -15 -12 -20t-27 -5h-137l-180 -844
q-27 -132 -27 -233q0 -230 322 -230q74 0 131.5 9t121 41t103.5 88q66 93 115 315l182 854h-153q-29 0 -29 18q0 11 6 35q8 27 41 27h348q29 0 29 -21q0 -16 -6 -34q-4 -15 -12 -20t-27 -5h-105zM954 1581l-284 227q-21 16 -21 33q0 9 7 15t18 6h61q25 0 49 -21l258 -229
q17 -14 17 -29q0 -20 -23 -20h-30q-29 0 -52 18z" />
    <glyph glyph-name="Uacute" unicode="&#xda;" horiz-adv-x="1486" 
d="M1249 578q-23 -104 -32 -144t-26.5 -103.5t-35.5 -101t-43 -73.5q-69 -100 -177 -142.5t-278 -42.5q-403 0 -403 299q0 102 43 303l168 793h-119q-29 0 -29 18q0 7 7 35q8 27 41 27h348q28 0 28 -21q0 -16 -6 -34q-4 -15 -12 -20t-27 -5h-137l-180 -844
q-27 -132 -27 -233q0 -230 322 -230q74 0 131.5 9t121 41t103.5 88q66 93 115 315l182 854h-153q-29 0 -29 18q0 11 6 35q8 27 41 27h348q29 0 29 -21q0 -16 -6 -34q-4 -15 -12 -20t-27 -5h-105zM928 1581q-23 -18 -51 -18h-37q-23 0 -23 20q0 15 17 29l317 229q24 21 49 21
h70q10 0 17 -6t7 -15q0 -18 -20 -33z" />
    <glyph glyph-name="Ucircumflex" unicode="&#xdb;" horiz-adv-x="1486" 
d="M1249 578q-23 -104 -32 -144t-26.5 -103.5t-35.5 -101t-43 -73.5q-69 -100 -177 -142.5t-278 -42.5q-403 0 -403 299q0 102 43 303l168 793h-119q-29 0 -29 18q0 7 7 35q8 27 41 27h348q28 0 28 -21q0 -16 -6 -34q-4 -15 -12 -20t-27 -5h-137l-180 -844
q-27 -132 -27 -233q0 -230 322 -230q74 0 131.5 9t121 41t103.5 88q66 93 115 315l182 854h-153q-29 0 -29 18q0 11 6 35q8 27 41 27h348q29 0 29 -21q0 -16 -6 -34q-4 -15 -12 -20t-27 -5h-105zM741 1563h-36q-19 0 -19 18q0 13 16 29l256 209q31 24 56 24h24q21 0 41 -20
l187 -215q8 -12 8 -23q0 -22 -27 -22h-20q-20 0 -45 22l-170 158l-221 -156q-33 -24 -50 -24z" />
    <glyph glyph-name="Udieresis" unicode="&#xdc;" horiz-adv-x="1486" 
d="M1249 578q-23 -104 -32 -144t-26.5 -103.5t-35.5 -101t-43 -73.5q-69 -100 -177 -142.5t-278 -42.5q-403 0 -403 299q0 102 43 303l168 793h-119q-29 0 -29 18q0 7 7 35q8 27 41 27h348q28 0 28 -21q0 -16 -6 -34q-4 -15 -12 -20t-27 -5h-137l-180 -844
q-27 -132 -27 -233q0 -230 322 -230q74 0 131.5 9t121 41t103.5 88q66 93 115 315l182 854h-153q-29 0 -29 18q0 11 6 35q8 27 41 27h348q29 0 29 -21q0 -16 -6 -34q-4 -15 -12 -20t-27 -5h-105zM883 1690q0 -52 -29 -78q-20 -17 -51 -17q-62 0 -62 52q0 51 27 75
q22 19 55 19q60 0 60 -51zM1255 1690q0 -53 -28 -78q-20 -17 -51 -17q-62 0 -62 52q0 51 27 75q22 19 55 19q59 0 59 -51z" />
    <glyph glyph-name="Yacute" unicode="&#xdd;" horiz-adv-x="1327" 
d="M1470 1366h-116l-606 -721l-121 -565h135q29 0 29 -21q0 -13 -7 -34q-4 -15 -12 -20t-27 -5h-350q-28 0 -28 18q0 11 6 35q8 27 41 27h121l120 565l-303 721h-119q-28 0 -28 18q0 11 6 35q8 27 41 27h348q29 0 29 -21q0 -16 -6 -34q-4 -15 -12 -20t-27 -5h-129
q216 -530 258 -643q123 162 526 643h-119q-28 0 -28 18q0 11 6 35q8 27 41 27h348q29 0 29 -21q0 -13 -7 -34q-4 -15 -12 -20t-27 -5zM831 1581q-23 -18 -51 -18h-37q-22 0 -22 20q0 16 16 29l318 229q24 21 49 21h70q10 0 17 -6t7 -15q0 -18 -20 -33z" />
    <glyph glyph-name="Thorn" unicode="&#xde;" horiz-adv-x="1300" 
d="M705 1366h-125l-52 -233h230q220 0 329 -50q74 -34 111 -99t37 -150q0 -188 -83 -314t-257 -170q-98 -26 -293 -26h-246l-53 -244h139q29 0 29 -21q0 -16 -6 -34q-4 -15 -12 -20t-27 -5h-350q-29 0 -29 18q0 11 6 35q8 27 41 27h117l274 1286h-131q-28 0 -28 18
q0 11 6 35q8 27 41 27h348q29 0 29 -21q0 -13 -7 -34q-5 -15 -12 -20t-26 -5zM373 408h256q206 0 299 38q105 42 157 142.5t52 228.5q0 139 -103 195q-70 37 -291 37h-233z" />
    <glyph glyph-name="germandbls" unicode="&#xdf;" horiz-adv-x="1120" 
d="M195 0h-172q-29 0 -29 18q0 7 6 31q5 16 12 21.5t25 5.5h117l200 950q17 76 27 117.5t29.5 97.5t40.5 88q59 86 138 120t193 34q161 0 231 -71.5t70 -201.5q0 -159 -76 -273t-225 -140q115 -13 173.5 -82t58.5 -176q0 -258 -101 -402q-59 -85 -143.5 -120t-208.5 -35
q-106 0 -172 18q-20 6 -20 27q0 16 10 36q9 19 29 19q4 0 19 -3.5t19 -4.5q53 -13 132 -13q104 0 164.5 28t103.5 95q80 132 80 338q0 42 -7.5 74t-29 62.5t-57.5 49.5t-95 30.5t-139 11.5h-35q-24 0 -24 14q0 19 6 37q4 15 11.5 19.5t25.5 4.5h34q152 0 250 76
q127 100 127 305q0 98 -53 147.5t-170 49.5q-86 0 -144.5 -24t-97.5 -81q-19 -27 -36.5 -77.5t-26.5 -86t-25 -106.5l-209 -989q-3 -14 -5 -20t-9.5 -12.5t-21.5 -6.5z" />
    <glyph glyph-name="agrave" unicode="&#xe0;" horiz-adv-x="1183" 
d="M965 0h-172q-33 0 -33 29q0 8 4 33.5t4 29.5q-112 -117 -342 -117q-155 0 -235 74t-80 234q0 165 61.5 348.5t171.5 279.5q129 115 377 115q160 0 240 -53q8 24 15.5 32.5t20.5 8.5h23q24 0 24 -21q0 -8 -4 -28l-190 -887h131q29 0 29 -21q0 -2 -6 -32q-3 -15 -11.5 -20
t-27.5 -5zM801 236l137 659q-31 23 -97 37t-143 14q-190 0 -299 -92q-92 -80 -145 -241t-53 -316q0 -124 59 -184t193 -60q176 0 284 88q28 22 43 45q15 25 21 50zM739 1206l-231 277q-14 14 -14 28q0 19 22 19h59q22 0 37 -21l209 -282q10 -13 10 -23q0 -6 -5.5 -11
t-12.5 -5h-35q-24 0 -39 18z" />
    <glyph glyph-name="aacute" unicode="&#xe1;" horiz-adv-x="1183" 
d="M965 0h-172q-33 0 -33 29q0 8 4 33.5t4 29.5q-112 -117 -342 -117q-155 0 -235 74t-80 234q0 165 61.5 348.5t171.5 279.5q129 115 377 115q160 0 240 -53q8 24 15.5 32.5t20.5 8.5h23q24 0 24 -21q0 -8 -4 -28l-190 -887h131q29 0 29 -21q0 -2 -6 -32q-3 -15 -11.5 -20
t-27.5 -5zM801 236l137 659q-31 23 -97 37t-143 14q-190 0 -299 -92q-92 -80 -145 -241t-53 -316q0 -124 59 -184t193 -60q176 0 284 88q28 22 43 45q15 25 21 50zM739 1206q-18 -18 -41 -18h-32q-19 0 -19 18q0 11 10 21l261 282q18 21 40 21h68q21 0 21 -19q0 -9 -19 -28z
" />
    <glyph glyph-name="acircumflex" unicode="&#xe2;" horiz-adv-x="1183" 
d="M965 0h-172q-33 0 -33 29q0 8 4 33.5t4 29.5q-112 -117 -342 -117q-155 0 -235 74t-80 234q0 165 61.5 348.5t171.5 279.5q129 115 377 115q160 0 240 -53q8 24 15.5 32.5t20.5 8.5h23q24 0 24 -21q0 -8 -4 -28l-190 -887h131q29 0 29 -21q0 -2 -6 -32q-3 -15 -11.5 -20
t-27.5 -5zM801 236l137 659q-31 23 -97 37t-143 14q-190 0 -299 -92q-92 -80 -145 -241t-53 -316q0 -124 59 -184t193 -60q176 0 284 88q28 22 43 45q15 25 21 50zM535 1167h-29q-19 0 -19 19q0 11 17 28l260 291q22 25 51 25h27q24 0 35 -21l145 -299q6 -18 6 -24
q0 -9 -7 -14t-17 -5h-17q-24 0 -37 23l-137 244l-235 -240q-27 -27 -43 -27z" />
    <glyph glyph-name="atilde" unicode="&#xe3;" horiz-adv-x="1183" 
d="M965 0h-172q-33 0 -33 29q0 8 4 33.5t4 29.5q-112 -117 -342 -117q-155 0 -235 74t-80 234q0 165 61.5 348.5t171.5 279.5q129 115 377 115q160 0 240 -53q8 24 15.5 32.5t20.5 8.5h23q24 0 24 -21q0 -8 -4 -28l-190 -887h131q29 0 29 -21q0 -2 -6 -32q-3 -15 -11.5 -20
t-27.5 -5zM801 236l137 659q-31 23 -97 37t-143 14q-190 0 -299 -92q-92 -80 -145 -241t-53 -316q0 -124 59 -184t193 -60q176 0 284 88q28 22 43 45q15 25 21 50zM485 1247h-20q-21 0 -21 19q0 11 15 41q41 75 80.5 108t93.5 33q24 0 49 -12.5t90 -51.5q50 -30 73.5 -39.5
t47.5 -9.5q29 0 50.5 16.5t49.5 71.5q17 35 35 35h25q22 0 22 -16q0 -19 -10 -39q-40 -89 -81 -124.5t-97 -35.5q-31 0 -62 11t-86 44l-1 1h-1l-1 1h-1l-1 1l-1 1h-1l-1 1h-1l-1 1l-1 1h-1l-2 1q-79 46 -99 49l-10 1q-28 0 -49.5 -17t-44.5 -65q-7 -15 -14 -21t-23 -6z" />
    <glyph glyph-name="adieresis" unicode="&#xe4;" horiz-adv-x="1183" 
d="M965 0h-172q-33 0 -33 29q0 8 4 33.5t4 29.5q-112 -117 -342 -117q-155 0 -235 74t-80 234q0 165 61.5 348.5t171.5 279.5q129 115 377 115q160 0 240 -53q8 24 15.5 32.5t20.5 8.5h23q24 0 24 -21q0 -8 -4 -28l-190 -887h131q29 0 29 -21q0 -2 -6 -32q-3 -15 -11.5 -20
t-27.5 -5zM801 236l137 659q-31 23 -97 37t-143 14q-190 0 -299 -92q-92 -80 -145 -241t-53 -316q0 -124 59 -184t193 -60q176 0 284 88q28 22 43 45q15 25 21 50zM688 1382q0 -51 -29 -77q-20 -17 -51 -17q-61 0 -61 51q0 53 26 76q22 19 56 19q59 0 59 -52zM1040 1382
q0 -52 -28 -77q-20 -17 -51 -17q-62 0 -62 51q0 52 27 76q22 19 55 19q59 0 59 -52z" />
    <glyph glyph-name="aring" unicode="&#xe5;" horiz-adv-x="1183" 
d="M965 0h-172q-33 0 -33 29q0 8 4 33.5t4 29.5q-112 -117 -342 -117q-155 0 -235 74t-80 234q0 165 61.5 348.5t171.5 279.5q129 115 377 115q160 0 240 -53q8 24 15.5 32.5t20.5 8.5h23q24 0 24 -21q0 -8 -4 -28l-190 -887h131q29 0 29 -21q0 -2 -6 -32q-3 -15 -11.5 -20
t-27.5 -5zM801 236l137 659q-31 23 -97 37t-143 14q-190 0 -299 -92q-92 -80 -145 -241t-53 -316q0 -124 59 -184t193 -60q176 0 284 88q28 22 43 45q15 25 21 50zM975 1397q0 -98 -57 -155.5t-154 -57.5q-80 0 -126 46.5t-46 127.5q0 93 58 151t151 58q81 0 127.5 -44.5
t46.5 -125.5zM907 1395q0 55 -29.5 83.5t-84.5 28.5q-59 0 -98.5 -37.5t-39.5 -105.5q0 -59 31 -91t86 -32q61 0 98 38t37 116z" />
    <glyph glyph-name="ae" unicode="&#xe6;" horiz-adv-x="1734" 
d="M852 137q-38 -36 -69.5 -59.5t-82.5 -50t-119.5 -39.5t-154.5 -13q-155 0 -235 74t-80 234q0 97 23 211.5t77.5 233.5t128.5 183q129 115 381 115q133 0 225 -45l6 18q10 31 33 31h21q22 0 22 -20q0 -4 -10 -54l-19 -84q41 72 141.5 116t217.5 44q321 0 321 -262
q0 -89 -22 -215q-8 -46 -23 -59q-14 -11 -41 -11h-671q-15 -94 -15 -153q0 -158 75.5 -218.5t242.5 -60.5q138 0 262 43q37 13 45 13q10 0 18 -15q9 -23 9 -31q0 -12 -8 -19t-29 -15q-137 -56 -320 -56q-146 0 -231 40t-119 124zM829 209q-4 39 -4 127q0 111 56 354l47 207
q-28 22 -91 35.5t-139 13.5q-194 0 -303 -92q-91 -80 -142.5 -240t-51.5 -317q0 -123 59.5 -183.5t192.5 -60.5q114 0 205 36t171 120zM936 561h631q24 101 24 193q0 48 -10 82.5t-35.5 61.5t-73 40.5t-118.5 13.5q-163 0 -262 -71q-109 -78 -156 -320z" />
    <glyph glyph-name="ccedilla" unicode="&#xe7;" horiz-adv-x="923" 
d="M418 -135q174 0 174 -139q0 -107 -63.5 -155t-186.5 -48q-64 0 -92 12q-17 6 -17 21q0 2 7 30q6 21 26 21q5 0 25 -4q45 -9 67 -9q70 0 108 24.5t38 90.5q0 84 -101 84q-7 0 -23 -1t-18 -1q-28 0 -28 29q0 13 14 53l37 104q-274 33 -274 320q0 91 18 197.5t66 225.5
t116 189q130 133 373 133q130 0 209 -20q18 -5 24.5 -11.5t6.5 -21.5q0 -7 -35 -201q-5 -24 -31 -24h-22q-27 0 -27 18q0 9 18 168q-84 13 -161 13q-191 0 -291 -105q-82 -83 -128 -252t-46 -295q0 -119 64.5 -188.5t205.5 -69.5q88 0 136 7.5t106 27.5q35 12 47 12
q11 0 18 -14q8 -16 8 -29q0 -12 -8.5 -19t-29.5 -15q-138 -50 -285 -50h-12z" />
    <glyph glyph-name="egrave" unicode="&#xe8;" horiz-adv-x="1030" 
d="M213 485q-14 -88 -14 -153q0 -159 72.5 -219t238.5 -60q148 0 272 43q37 13 45 13q11 0 19 -15q8 -20 8 -31q0 -12 -8 -19t-29 -15q-137 -56 -330 -56q-202 0 -289 84t-87 262q0 85 19 190.5t69.5 225.5t122.5 187q118 110 342 110q163 0 237 -67t74 -195q0 -84 -23 -215
q-8 -47 -22 -59q-14 -11 -41 -11h-676zM227 563h635q25 105 25 191q0 99 -51 148.5t-187 49.5q-172 0 -256 -73q-108 -92 -166 -316zM645 1206l-231 277q-15 15 -15 28q0 19 23 19h59q22 0 37 -21l209 -282q10 -13 10 -23q0 -6 -5.5 -11t-12.5 -5h-35q-24 0 -39 18z" />
    <glyph glyph-name="eacute" unicode="&#xe9;" horiz-adv-x="1030" 
d="M213 485q-14 -88 -14 -153q0 -159 72.5 -219t238.5 -60q148 0 272 43q37 13 45 13q11 0 19 -15q8 -20 8 -31q0 -12 -8 -19t-29 -15q-137 -56 -330 -56q-202 0 -289 84t-87 262q0 85 19 190.5t69.5 225.5t122.5 187q118 110 342 110q163 0 237 -67t74 -195q0 -84 -23 -215
q-8 -47 -22 -59q-14 -11 -41 -11h-676zM227 563h635q25 105 25 191q0 99 -51 148.5t-187 49.5q-172 0 -256 -73q-108 -92 -166 -316zM659 1206q-18 -18 -41 -18h-32q-19 0 -19 18q0 10 11 21l260 282q18 21 41 21h67q21 0 21 -19q0 -9 -19 -28z" />
    <glyph glyph-name="ecircumflex" unicode="&#xea;" horiz-adv-x="1030" 
d="M213 485q-14 -88 -14 -153q0 -159 72.5 -219t238.5 -60q148 0 272 43q37 13 45 13q11 0 19 -15q8 -20 8 -31q0 -12 -8 -19t-29 -15q-137 -56 -330 -56q-202 0 -289 84t-87 262q0 85 19 190.5t69.5 225.5t122.5 187q118 110 342 110q163 0 237 -67t74 -195q0 -84 -23 -215
q-8 -47 -22 -59q-14 -11 -41 -11h-676zM227 563h635q25 105 25 191q0 99 -51 148.5t-187 49.5q-172 0 -256 -73q-108 -92 -166 -316zM467 1167h-29q-18 0 -18 19q0 12 16 28l260 291q22 25 52 25h26q24 0 35 -21l145 -299q7 -21 7 -24q0 -9 -7.5 -14t-17.5 -5h-16
q-24 0 -37 23l-138 244l-235 -240q-27 -27 -43 -27z" />
    <glyph glyph-name="edieresis" unicode="&#xeb;" horiz-adv-x="1030" 
d="M213 485q-14 -88 -14 -153q0 -159 72.5 -219t238.5 -60q148 0 272 43q37 13 45 13q11 0 19 -15q8 -20 8 -31q0 -12 -8 -19t-29 -15q-137 -56 -330 -56q-202 0 -289 84t-87 262q0 85 19 190.5t69.5 225.5t122.5 187q118 110 342 110q163 0 237 -67t74 -195q0 -84 -23 -215
q-8 -47 -22 -59q-14 -11 -41 -11h-676zM227 563h635q25 105 25 191q0 99 -51 148.5t-187 49.5q-172 0 -256 -73q-108 -92 -166 -316zM610 1382q0 -52 -28 -77q-20 -17 -52 -17q-61 0 -61 51q0 52 27 76q22 19 55 19q59 0 59 -52zM963 1382q0 -51 -29 -77q-20 -17 -51 -17
q-62 0 -62 51q0 52 27 76q22 19 55 19q60 0 60 -52z" />
    <glyph glyph-name="igrave" unicode="&#xec;" horiz-adv-x="598" 
d="M381 1206l-231 277q-15 15 -15 28q0 19 23 19h59q22 0 37 -21l209 -282q10 -13 10 -23q0 -6 -5.5 -11t-12.5 -5h-35q-24 0 -39 18zM383 0h-334q-29 0 -29 18q0 3 7 31q8 27 41 27h110l180 852h-122q-29 0 -29 18q0 7 6 31q8 27 41 27h170q31 0 31 -25q0 -13 -4 -29
l-187 -874h135q29 0 29 -21q0 -12 -6 -30q-4 -15 -12 -20t-27 -5z" />
    <glyph glyph-name="iacute" unicode="&#xed;" horiz-adv-x="598" 
d="M383 0h-334q-29 0 -29 18q0 3 7 31q8 27 41 27h110l180 852h-122q-29 0 -29 18q0 7 6 31q8 27 41 27h170q31 0 31 -25q0 -13 -4 -29l-187 -874h135q29 0 29 -21q0 -12 -6 -30q-4 -15 -12 -20t-27 -5zM375 1206q-18 -18 -41 -18h-33q-18 0 -18 18q0 11 10 21l260 282
q18 21 41 21h68q20 0 20 -19q0 -10 -18 -28z" />
    <glyph glyph-name="icircumflex" unicode="&#xee;" horiz-adv-x="598" 
d="M383 0h-334q-29 0 -29 18q0 3 7 31q8 27 41 27h110l180 852h-122q-29 0 -29 18q0 7 6 31q8 27 41 27h170q31 0 31 -25q0 -13 -4 -29l-187 -874h135q29 0 29 -21q0 -12 -6 -30q-4 -15 -12 -20t-27 -5zM174 1167h-29q-18 0 -18 19q0 12 16 28l260 291q22 25 52 25h26
q25 0 35 -21l146 -299q6 -18 6 -24q0 -9 -7.5 -14t-17.5 -5h-16q-24 0 -37 23l-137 244l-236 -240q-27 -27 -43 -27z" />
    <glyph glyph-name="idieresis" unicode="&#xef;" horiz-adv-x="598" 
d="M313 1382q0 -52 -28 -77q-20 -17 -52 -17q-61 0 -61 51q0 52 27 76q22 19 55 19q59 0 59 -52zM666 1382q0 -51 -29 -77q-20 -17 -51 -17q-62 0 -62 51q0 52 27 76q22 19 55 19q60 0 60 -52zM383 0h-334q-29 0 -29 18q0 3 7 31q8 27 41 27h110l180 852h-122q-29 0 -29 18
q0 7 6 31q8 27 41 27h170q31 0 31 -25q0 -13 -4 -29l-187 -874h135q29 0 29 -21q0 -12 -6 -30q-4 -15 -12 -20t-27 -5z" />
    <glyph glyph-name="eth" unicode="&#xf0;" horiz-adv-x="1118" 
d="M1114 1450l-174 -104q107 -145 107 -402q0 -211 -41.5 -438.5t-128.5 -366.5q-105 -166 -383 -166q-69 0 -122.5 8t-104 29t-83.5 56.5t-53 93t-20 135.5q0 84 18 191t61.5 224.5t102.5 186.5q116 135 352 135q256 0 318 -114q0 259 -97 382l-209 -124q-26 -15 -32 -15
q-13 0 -25 21q-12 24 -12 28q0 12 18 23l207 123q-112 86 -313 100q-25 3 -25 23q0 16 6 34q3 17 27 17q40 0 63 -2q203 -20 320 -127l176 106q18 11 29 11q10 0 18 -11q16 -22 16 -34t-16 -23zM940 721q0 60 -16.5 103t-43 68t-68.5 39t-84 18.5t-99 4.5q-184 0 -275 -108
q-71 -85 -112 -261t-41 -286q0 -141 75.5 -193.5t229.5 -52.5q106 0 184.5 31.5t124.5 112.5q53 92 89 261.5t36 262.5z" />
    <glyph glyph-name="ntilde" unicode="&#xf1;" horiz-adv-x="1234" 
d="M383 0h-334q-29 0 -29 18q0 3 7 31q9 29 41 29h110l180 848h-122q-29 0 -29 18q0 9 6 33q8 27 41 27h170q31 0 31 -25q0 -16 -17 -88q24 49 93.5 82t140.5 44t141 11q51 0 93 -8t78 -26.5t56.5 -52.5t20.5 -81q0 -56 -23 -174l-131 -608h127q31 0 31 -19q0 -15 -6 -36
q-4 -15 -12 -19t-27 -4h-178q-29 0 -29 23q0 6 4 30l137 645q17 78 17 133q0 65 -47 90t-133 25q-198 0 -308 -69q-31 -19 -45 -41q-15 -22 -24 -64l-150 -694h135q29 0 29 -21q0 -14 -6 -32q-4 -15 -12 -20t-27 -5zM494 1247h-21q-20 0 -20 19q0 13 14 41q41 75 80.5 108
t93.5 33q24 0 49 -12.5t90 -51.5q50 -30 73.5 -39.5t47.5 -9.5q29 0 50.5 16.5t49.5 71.5q17 35 35 35h25q22 0 22 -16q0 -19 -10 -39q-40 -89 -81 -124.5t-97 -35.5q-30 0 -61 11t-86 44l-1 1h-1l-1 1h-1l-1 1l-1 1h-1l-1 1h-1l-1 1l-1 1h-1l-2 1q-79 46 -99 49l-10 1
q-29 0 -50.5 -17t-44.5 -65q-7 -15 -13.5 -21t-22.5 -6z" />
    <glyph glyph-name="ograve" unicode="&#xf2;" horiz-adv-x="1101" 
d="M1020 735q0 -114 -43 -300.5t-113 -295.5q-109 -166 -375 -166q-68 0 -121.5 8t-103 29t-82 56.5t-52 93t-19.5 135.5q0 136 49.5 318.5t136.5 283.5q116 135 344 135q69 0 118 -5t102 -22.5t85 -49t53 -87t21 -133.5zM932 721q0 60 -16 103t-42 68t-67.5 39t-83 18.5
t-98.5 4.5q-172 0 -267 -112q-71 -85 -114 -260t-43 -283q0 -141 73.5 -193.5t227.5 -52.5q215 0 301 148q53 91 91 260t38 260zM702 1206l-231 277q-14 14 -14 28q0 19 22 19h60q21 0 36 -21l209 -282q11 -15 11 -23q0 -6 -6 -11t-13 -5h-35q-24 0 -39 18z" />
    <glyph glyph-name="oacute" unicode="&#xf3;" horiz-adv-x="1101" 
d="M1020 735q0 -114 -43 -300.5t-113 -295.5q-109 -166 -375 -166q-68 0 -121.5 8t-103 29t-82 56.5t-52 93t-19.5 135.5q0 136 49.5 318.5t136.5 283.5q116 135 344 135q69 0 118 -5t102 -22.5t85 -49t53 -87t21 -133.5zM932 721q0 60 -16 103t-42 68t-67.5 39t-83 18.5
t-98.5 4.5q-172 0 -267 -112q-71 -85 -114 -260t-43 -283q0 -141 73.5 -193.5t227.5 -52.5q215 0 301 148q53 91 91 260t38 260zM680 1206q-18 -18 -41 -18h-33q-18 0 -18 18q0 11 10 21l260 282q18 21 41 21h68q20 0 20 -19q0 -10 -18 -28z" />
    <glyph glyph-name="ocircumflex" unicode="&#xf4;" horiz-adv-x="1101" 
d="M1020 735q0 -114 -43 -300.5t-113 -295.5q-109 -166 -375 -166q-68 0 -121.5 8t-103 29t-82 56.5t-52 93t-19.5 135.5q0 136 49.5 318.5t136.5 283.5q116 135 344 135q69 0 118 -5t102 -22.5t85 -49t53 -87t21 -133.5zM932 721q0 60 -16 103t-42 68t-67.5 39t-83 18.5
t-98.5 4.5q-172 0 -267 -112q-71 -85 -114 -260t-43 -283q0 -141 73.5 -193.5t227.5 -52.5q215 0 301 148q53 91 91 260t38 260zM485 1167h-28q-19 0 -19 19q0 11 17 28l260 291q22 25 51 25h27q23 0 34 -21l146 -299q6 -18 6 -24q0 -9 -7.5 -14t-17.5 -5h-16q-24 0 -37 23
l-137 244l-236 -240q-27 -27 -43 -27z" />
    <glyph glyph-name="otilde" unicode="&#xf5;" horiz-adv-x="1101" 
d="M1020 735q0 -114 -43 -300.5t-113 -295.5q-109 -166 -375 -166q-68 0 -121.5 8t-103 29t-82 56.5t-52 93t-19.5 135.5q0 136 49.5 318.5t136.5 283.5q116 135 344 135q69 0 118 -5t102 -22.5t85 -49t53 -87t21 -133.5zM932 721q0 60 -16 103t-42 68t-67.5 39t-83 18.5
t-98.5 4.5q-172 0 -267 -112q-71 -85 -114 -260t-43 -283q0 -141 73.5 -193.5t227.5 -52.5q215 0 301 148q53 91 91 260t38 260zM469 1247h-20q-21 0 -21 19q0 13 14 41q41 75 80.5 108t93.5 33q24 0 50 -12.5t90 -51.5q50 -30 73.5 -39.5t47.5 -9.5q29 0 50.5 16.5
t49.5 71.5q17 35 35 35h24q23 0 23 -16q0 -19 -10 -39q-40 -88 -81.5 -124t-97.5 -36q-30 0 -61 11t-86 44l-1 1h-1l-1 1h-1l-1 1l-1 1h-1l-1 1h-1l-1 1l-1 1h-1l-2 1q-79 46 -99 49l-10 1q-28 0 -49.5 -17t-44.5 -65q-7 -15 -14 -21t-23 -6z" />
    <glyph glyph-name="odieresis" unicode="&#xf6;" horiz-adv-x="1101" 
d="M1020 735q0 -114 -43 -300.5t-113 -295.5q-109 -166 -375 -166q-68 0 -121.5 8t-103 29t-82 56.5t-52 93t-19.5 135.5q0 136 49.5 318.5t136.5 283.5q116 135 344 135q69 0 118 -5t102 -22.5t85 -49t53 -87t21 -133.5zM932 721q0 60 -16 103t-42 68t-67.5 39t-83 18.5
t-98.5 4.5q-172 0 -267 -112q-71 -85 -114 -260t-43 -283q0 -141 73.5 -193.5t227.5 -52.5q215 0 301 148q53 91 91 260t38 260zM641 1382q0 -51 -29 -77q-20 -17 -51 -17q-61 0 -61 51q0 53 26 76q22 19 56 19q59 0 59 -52zM993 1382q0 -52 -28 -77q-20 -17 -52 -17
q-61 0 -61 51q0 52 27 76q22 19 55 19q59 0 59 -52z" />
    <glyph glyph-name="divide" unicode="&#xf7;" horiz-adv-x="1435" 
d="M905 942q0 -38 -21 -66t-59 -28q-24 0 -40.5 14.5t-16.5 44.5q0 44 22.5 68t55.5 24q24 0 41.5 -14t17.5 -43zM1272 561h-1012q-22 0 -22 25q0 5 4 37q6 26 28 26h1012q25 0 25 -24q0 -21 -4 -39q-7 -25 -31 -25zM760 293q0 -38 -21 -66t-59 -28q-24 0 -40.5 14.5
t-16.5 44.5q0 44 22 67t55 23q60 0 60 -55z" />
    <glyph glyph-name="oslash" unicode="&#xf8;" horiz-adv-x="1101" 
d="M139 -43q-14 -14 -24 -14q-13 0 -31 18q-14 14 -14 25q0 10 12 22l76 88q-47 71 -47 199q0 84 18 191t61.5 224.5t102.5 186.5q116 135 348 135q192 0 274 -53l78 90q12 14 25 14q12 0 24 -10q21 -16 21 -29q0 -11 -10 -24l-82 -94q49 -71 49 -191q0 -116 -41.5 -301.5
t-110.5 -294.5q-109 -166 -379 -166q-187 0 -278 68zM932 721q0 75 -27 127l-635 -739q66 -56 232 -56q106 0 182.5 31.5t122.5 112.5q53 92 89 261.5t36 262.5zM201 299q0 -75 22 -127l631 735q-69 47 -229 47q-180 0 -271 -108q-71 -85 -112 -261t-41 -286z" />
    <glyph glyph-name="ugrave" unicode="&#xf9;" horiz-adv-x="1234" 
d="M1001 0h-170q-21 0 -27.5 8t-6.5 21q0 16 10 61q-118 -115 -346 -115q-52 0 -97 9t-85.5 29.5t-64.5 59.5t-24 93q0 48 23 166l129 594h-121q-28 0 -28 18q0 9 6 33q8 27 41 27h170q28 0 28 -21q0 -7 -6 -37l-133 -627q-18 -86 -18 -131q0 -133 208 -133q166 0 281 80
q32 23 45 41q17 29 23 55l149 695h-121q-28 0 -28 18q0 9 6 33q8 27 41 27h164q32 0 32 -25q0 -9 -4 -33l-188 -868h129q29 0 29 -21q0 -11 -7 -32q-4 -15 -12 -20t-27 -5zM696 1210l-231 277q-14 14 -14 29q0 18 22 18h59q22 0 37 -21l209 -282q10 -13 10 -23
q0 -6 -5.5 -11t-12.5 -5h-35q-24 0 -39 18z" />
    <glyph glyph-name="uacute" unicode="&#xfa;" horiz-adv-x="1234" 
d="M1001 0h-170q-21 0 -27.5 8t-6.5 21q0 16 10 61q-118 -115 -346 -115q-52 0 -97 9t-85.5 29.5t-64.5 59.5t-24 93q0 48 23 166l129 594h-121q-28 0 -28 18q0 9 6 33q8 27 41 27h170q28 0 28 -21q0 -7 -6 -37l-133 -627q-18 -86 -18 -131q0 -133 208 -133q166 0 281 80
q32 23 45 41q17 29 23 55l149 695h-121q-28 0 -28 18q0 9 6 33q8 27 41 27h164q32 0 32 -25q0 -9 -4 -33l-188 -868h129q29 0 29 -21q0 -11 -7 -32q-4 -15 -12 -20t-27 -5zM696 1206q-18 -18 -41 -18h-32q-19 0 -19 18q0 11 10 21l260 282q18 21 41 21h68q21 0 21 -19
q0 -9 -19 -28z" />
    <glyph glyph-name="ucircumflex" unicode="&#xfb;" horiz-adv-x="1234" 
d="M1001 0h-170q-21 0 -27.5 8t-6.5 21q0 16 10 61q-118 -115 -346 -115q-52 0 -97 9t-85.5 29.5t-64.5 59.5t-24 93q0 48 23 166l129 594h-121q-28 0 -28 18q0 9 6 33q8 27 41 27h170q28 0 28 -21q0 -7 -6 -37l-133 -627q-18 -86 -18 -131q0 -133 208 -133q166 0 281 80
q32 23 45 41q17 29 23 55l149 695h-121q-28 0 -28 18q0 9 6 33q8 27 41 27h164q32 0 32 -25q0 -9 -4 -33l-188 -868h129q29 0 29 -21q0 -11 -7 -32q-4 -15 -12 -20t-27 -5zM500 1167h-29q-18 0 -18 19q0 12 16 28l260 291q22 25 51 25h27q25 0 35 -21l145 -299q6 -18 6 -24
q0 -9 -7 -14t-17 -5h-17q-24 0 -37 23l-137 244l-235 -240q-27 -27 -43 -27z" />
    <glyph glyph-name="udieresis" unicode="&#xfc;" horiz-adv-x="1234" 
d="M1001 0h-170q-21 0 -27.5 8t-6.5 21q0 16 10 61q-118 -115 -346 -115q-52 0 -97 9t-85.5 29.5t-64.5 59.5t-24 93q0 48 23 166l129 594h-121q-28 0 -28 18q0 9 6 33q8 27 41 27h170q28 0 28 -21q0 -7 -6 -37l-133 -627q-18 -86 -18 -131q0 -133 208 -133q166 0 281 80
q32 23 45 41q17 29 23 55l149 695h-121q-28 0 -28 18q0 9 6 33q8 27 41 27h164q32 0 32 -25q0 -9 -4 -33l-188 -868h129q29 0 29 -21q0 -11 -7 -32q-4 -15 -12 -20t-27 -5zM647 1382q0 -51 -29 -77q-20 -17 -51 -17q-61 0 -61 51q0 53 26 76q22 19 56 19q59 0 59 -52z
M999 1382q0 -52 -28 -77q-20 -17 -51 -17q-62 0 -62 51q0 52 27 76q22 19 55 19q59 0 59 -52z" />
    <glyph glyph-name="yacute" unicode="&#xfd;" horiz-adv-x="1040" 
d="M1079 926h-65l-584 -955q-14 -23 -53 -86t-62 -99.5t-54 -83.5t-52 -75q-107 -139 -275 -139q-57 0 -77 4q-31 6 -31 27q0 25 8 41q9 16 29 16q3 0 32 -3t48 -3q59 0 103 22t87 76q47 58 209 322l27 43l-164 893h-78q-29 0 -29 18q0 9 6 33q8 27 41 27h299q29 0 29 -21
q0 -15 -6 -33q-4 -15 -12 -19.5t-27 -4.5h-129q119 -686 137 -797q95 165 475 797h-133q-28 0 -28 18q0 9 6 33q8 27 41 27h299q28 0 28 -21q0 -15 -6 -33q-4 -15 -12 -19.5t-27 -4.5zM643 1206q-18 -18 -41 -18h-33q-18 0 -18 18q0 11 10 21l260 282q18 21 41 21h68
q20 0 20 -19q0 -10 -18 -28z" />
    <glyph glyph-name="thorn" unicode="&#xfe;" horiz-adv-x="1155" 
d="M242 -500h-346q-29 0 -29 19q0 8 6 32q8 27 41 27h100l402 1876h-123q-29 0 -29 19q0 8 6 32q8 27 41 27h170q31 0 31 -25q0 -6 -4 -26l-119 -549q117 94 344 94q155 0 234.5 -74t79.5 -231q0 -144 -45 -313t-128 -267q-71 -86 -168 -118.5t-247 -32.5q-81 0 -152 19.5
t-102 43.5l-105 -475h158q29 0 29 -20q0 -15 -6 -33q-4 -15 -12 -20t-27 -5zM223 131q24 -23 97 -42t143 -19q128 0 209.5 27.5t136.5 90.5q68 78 107.5 234t39.5 285q0 118 -61.5 177.5t-198.5 59.5q-163 0 -276 -61q-35 -21 -43 -37q-11 -22 -17 -49z" />
    <glyph glyph-name="ydieresis" unicode="&#xff;" horiz-adv-x="1040" 
d="M1079 926h-65l-584 -955q-14 -23 -53 -86t-62 -99.5t-54 -83.5t-52 -75q-107 -139 -275 -139q-57 0 -77 4q-31 6 -31 27q0 25 8 41q9 16 29 16q3 0 32 -3t48 -3q59 0 103 22t87 76q47 58 209 322l27 43l-164 893h-78q-29 0 -29 18q0 9 6 33q8 27 41 27h299q29 0 29 -21
q0 -15 -6 -33q-4 -15 -12 -19.5t-27 -4.5h-129q119 -686 137 -797q95 165 475 797h-133q-28 0 -28 18q0 9 6 33q8 27 41 27h299q28 0 28 -21q0 -15 -6 -33q-4 -15 -12 -19.5t-27 -4.5zM561 1382q0 -51 -29 -77q-20 -17 -51 -17q-61 0 -61 51q0 53 26 76q22 19 56 19
q59 0 59 -52zM913 1382q0 -52 -28 -77q-20 -17 -51 -17q-62 0 -62 51q0 52 27 76q22 19 55 19q59 0 59 -52z" />
    <glyph glyph-name="Amacron" unicode="&#x100;" horiz-adv-x="1357" 
d="M307 0h-350q-29 0 -29 18q0 9 6 33q8 27 41 27h95l772 1341q20 33 45 33h20q19 0 27.5 -6.5t11.5 -26.5l203 -1341h94q29 0 29 -21q0 -14 -6 -32q-4 -15 -12 -20t-27 -5h-350q-29 0 -29 18q0 9 6 33q8 27 41 27h160l-64 420h-575l-244 -420h152q28 0 28 -21q0 -14 -6 -32
q-4 -15 -12 -20t-27 -5zM872 1313q-17 -30 -71.5 -129.5t-138 -248t-199.5 -353.5h516q-62 406 -107 731zM1182 1642h-502q-25 0 -25 21q0 13 9 43q5 16 11.5 21.5t22.5 5.5h498q27 0 27 -21q0 -16 -9 -47q-5 -14 -11 -18.5t-21 -4.5z" />
    <glyph glyph-name="amacron" unicode="&#x101;" horiz-adv-x="1183" 
d="M965 0h-172q-33 0 -33 29q0 8 4 33.5t4 29.5q-112 -117 -342 -117q-155 0 -235 74t-80 234q0 165 61.5 348.5t171.5 279.5q129 115 377 115q160 0 240 -53q8 24 15.5 32.5t20.5 8.5h23q24 0 24 -21q0 -8 -4 -28l-190 -887h131q29 0 29 -21q0 -2 -6 -32q-3 -15 -11.5 -20
t-27.5 -5zM801 236l137 659q-31 23 -97 37t-143 14q-190 0 -299 -92q-92 -80 -145 -241t-53 -316q0 -124 59 -184t193 -60q176 0 284 88q28 22 43 45q15 25 21 50zM993 1268h-469q-24 0 -24 20q0 16 8 43q5 16 11.5 21.5t23.5 5.5h465q26 0 26 -21q0 -19 -8 -47
q-4 -13 -11 -17.5t-22 -4.5z" />
    <glyph glyph-name="Abreve" unicode="&#x102;" horiz-adv-x="1357" 
d="M307 0h-350q-29 0 -29 18q0 9 6 33q8 27 41 27h95l772 1341q20 33 45 33h20q19 0 27.5 -6.5t11.5 -26.5l203 -1341h94q29 0 29 -21q0 -14 -6 -32q-4 -15 -12 -20t-27 -5h-350q-29 0 -29 18q0 9 6 33q8 27 41 27h160l-64 420h-575l-244 -420h152q28 0 28 -21q0 -14 -6 -32
q-4 -15 -12 -20t-27 -5zM872 1313q-17 -30 -71.5 -129.5t-138 -248t-199.5 -353.5h516q-62 406 -107 731zM1221 1841q20 0 20 -20q0 -16 -16 -66q-74 -192 -297 -192q-254 0 -254 206q0 31 6 52q7 20 27 20h24q21 0 21 -20q0 -4 -1 -16.5t-1 -16.5q0 -71 41 -105t137 -34
q108 0 161.5 42.5t77.5 125.5q7 24 29 24h25z" />
    <glyph glyph-name="abreve" unicode="&#x103;" horiz-adv-x="1183" 
d="M965 0h-172q-33 0 -33 29q0 8 4 33.5t4 29.5q-112 -117 -342 -117q-155 0 -235 74t-80 234q0 165 61.5 348.5t171.5 279.5q129 115 377 115q160 0 240 -53q8 24 15.5 32.5t20.5 8.5h23q24 0 24 -21q0 -8 -4 -28l-190 -887h131q29 0 29 -21q0 -2 -6 -32q-3 -15 -11.5 -20
t-27.5 -5zM801 236l137 659q-31 23 -97 37t-143 14q-190 0 -299 -92q-92 -80 -145 -241t-53 -316q0 -124 59 -184t193 -60q176 0 284 88q28 22 43 45q15 25 21 50zM1018 1462q16 0 16 -20q0 -28 -16 -72q-78 -196 -285 -196q-120 0 -177.5 53t-57.5 143q0 51 6 72
q7 20 28 20h17q20 0 20 -18q0 -3 -1 -20t-1 -21q0 -75 38.5 -109t129.5 -34q99 0 152.5 48.5t75.5 135.5q3 18 26 18h29z" />
    <glyph glyph-name="Aogonek" unicode="&#x104;" horiz-adv-x="1357" 
d="M307 0h-350q-29 0 -29 18q0 9 6 33q8 27 41 27h95l772 1341q20 33 45 33h20q19 0 27.5 -6.5t11.5 -26.5l203 -1341h94q29 0 29 -21q0 -14 -6 -32q-4 -15 -12 -20t-27 -5h-105q-223 -136 -223 -283q0 -102 115 -102q26 0 58 5t36 5q18 0 22 -14q5 -25 5 -37
q-2 -17 -21 -23q-49 -16 -123 -16q-90 0 -137 43t-47 125q0 92 57 162t160 135h-147q-29 0 -29 18q0 9 6 33q8 27 41 27h160l-64 420h-575l-244 -420h152q28 0 28 -21q0 -14 -6 -32q-4 -15 -12 -20t-27 -5zM872 1313q-17 -30 -71.5 -129.5t-138 -248t-199.5 -353.5h516
q-62 406 -107 731z" />
    <glyph glyph-name="aogonek" unicode="&#x105;" horiz-adv-x="1183" 
d="M965 0h-76q-217 -129 -217 -266q0 -99 112 -99q25 0 56.5 5.5t36.5 5.5q16 0 20 -15q4 -18 4 -34q-2 -15 -18 -21q-49 -16 -121 -16q-87 0 -132.5 41t-45.5 118q0 87 55 153.5t154 127.5q-33 0 -33 29q0 8 4 33.5t4 29.5q-112 -117 -342 -117q-155 0 -235 74t-80 234
q0 165 61.5 348.5t171.5 279.5q129 115 377 115q160 0 240 -53q8 24 15.5 32.5t20.5 8.5h23q24 0 24 -21q0 -8 -4 -28l-190 -887h131q29 0 29 -21q0 -2 -6 -32q-3 -15 -11.5 -20t-27.5 -5zM801 236l137 659q-31 23 -97 37t-143 14q-190 0 -299 -92q-92 -80 -145 -241
t-53 -316q0 -124 59 -184t193 -60q176 0 284 88q28 22 43 45q15 25 21 50z" />
    <glyph glyph-name="Cacute" unicode="&#x106;" horiz-adv-x="1253" 
d="M1167 1362q-98 24 -303 24q-234 0 -372 -155q-107 -121 -169.5 -358t-62.5 -437q0 -79 17.5 -143.5t56.5 -119t110.5 -84.5t171.5 -30q215 0 375 54q11 4 24.5 9t20.5 7t13 2q9 0 13.5 -6.5t10.5 -24.5q4 -12 4 -24q0 -18 -51 -37q-177 -66 -403 -66q-222 0 -339.5 108
t-117.5 343q0 133 26 288t86.5 316t143.5 258q85 97 205.5 142t300.5 45q154 0 305 -31q22 -4 30.5 -13.5t8.5 -25.5q0 -7 -37 -215q-6 -25 -29 -25h-32q-25 0 -25 25q0 9 18 174zM887 1581q-23 -18 -51 -18h-37q-23 0 -23 20q0 15 17 29l317 229q24 21 49 21h70q10 0 17 -6
t7 -15q0 -18 -20 -33z" />
    <glyph glyph-name="cacute" unicode="&#x107;" horiz-adv-x="923" 
d="M827 950q-84 13 -161 13q-191 0 -291 -105q-82 -83 -128 -252t-46 -295q0 -119 64.5 -188.5t205.5 -69.5q88 0 136 7.5t106 27.5q35 12 47 12q11 0 18 -14q8 -16 8 -29q0 -12 -8.5 -19t-29.5 -15q-138 -50 -285 -50q-165 0 -258.5 77.5t-93.5 246.5q0 91 18 197.5
t66 225.5t116 189q130 133 373 133q130 0 209 -20q18 -5 24.5 -11.5t6.5 -21.5q0 -7 -35 -201q-5 -24 -31 -24h-22q-27 0 -27 18q0 9 18 168zM682 1206q-18 -18 -41 -18h-33q-18 0 -18 18q0 11 10 21l260 282q18 21 41 21h68q20 0 20 -19q0 -10 -18 -28z" />
    <glyph glyph-name="Ccircumflex" unicode="&#x108;" horiz-adv-x="1253" 
d="M1167 1362q-98 24 -303 24q-234 0 -372 -155q-107 -121 -169.5 -358t-62.5 -437q0 -79 17.5 -143.5t56.5 -119t110.5 -84.5t171.5 -30q215 0 375 54q11 4 24.5 9t20.5 7t13 2q9 0 13.5 -6.5t10.5 -24.5q4 -12 4 -24q0 -18 -51 -37q-177 -66 -403 -66q-222 0 -339.5 108
t-117.5 343q0 133 26 288t86.5 316t143.5 258q85 97 205.5 142t300.5 45q154 0 305 -31q22 -4 30.5 -13.5t8.5 -25.5q0 -7 -37 -215q-6 -25 -29 -25h-32q-25 0 -25 25q0 9 18 174zM678 1563h-37q-18 0 -18 18q0 13 16 29l256 209q31 24 55 24h25q21 0 41 -20l186 -215
q8 -12 8 -23q0 -22 -26 -22h-21q-20 0 -45 22l-170 158l-221 -156q-33 -24 -49 -24z" />
    <glyph glyph-name="ccircumflex" unicode="&#x109;" horiz-adv-x="923" 
d="M827 950q-84 13 -161 13q-191 0 -291 -105q-82 -83 -128 -252t-46 -295q0 -119 64.5 -188.5t205.5 -69.5q88 0 136 7.5t106 27.5q35 12 47 12q11 0 18 -14q8 -16 8 -29q0 -12 -8.5 -19t-29.5 -15q-138 -50 -285 -50q-165 0 -258.5 77.5t-93.5 246.5q0 91 18 197.5
t66 225.5t116 189q130 133 373 133q130 0 209 -20q18 -5 24.5 -11.5t6.5 -21.5q0 -7 -35 -201q-5 -24 -31 -24h-22q-27 0 -27 18q0 9 18 168zM451 1167h-29q-19 0 -19 19q0 11 17 28l260 291q22 25 51 25h27q24 0 35 -21l145 -299q6 -18 6 -24q0 -9 -7 -14t-17 -5h-17
q-24 0 -37 23l-137 244l-235 -240q-27 -27 -43 -27z" />
    <glyph glyph-name="Cdotaccent" unicode="&#x10a;" horiz-adv-x="1253" 
d="M1167 1362q-98 24 -303 24q-234 0 -372 -155q-107 -121 -169.5 -358t-62.5 -437q0 -79 17.5 -143.5t56.5 -119t110.5 -84.5t171.5 -30q215 0 375 54q11 4 24.5 9t20.5 7t13 2q9 0 13.5 -6.5t10.5 -24.5q4 -12 4 -24q0 -18 -51 -37q-177 -66 -403 -66q-222 0 -339.5 108
t-117.5 343q0 133 26 288t86.5 316t143.5 258q85 97 205.5 142t300.5 45q154 0 305 -31q22 -4 30.5 -13.5t8.5 -25.5q0 -7 -37 -215q-6 -25 -29 -25h-32q-25 0 -25 25q0 9 18 174zM1012 1690q0 -52 -29 -78q-20 -17 -51 -17q-62 0 -62 52q0 51 27 75q22 19 55 19
q60 0 60 -51z" />
    <glyph glyph-name="cdotaccent" unicode="&#x10b;" horiz-adv-x="923" 
d="M827 950q-84 13 -161 13q-191 0 -291 -105q-82 -83 -128 -252t-46 -295q0 -119 64.5 -188.5t205.5 -69.5q88 0 136 7.5t106 27.5q35 12 47 12q11 0 18 -14q8 -16 8 -29q0 -12 -8.5 -19t-29.5 -15q-138 -50 -285 -50q-165 0 -258.5 77.5t-93.5 246.5q0 91 18 197.5
t66 225.5t116 189q130 133 373 133q130 0 209 -20q18 -5 24.5 -11.5t6.5 -21.5q0 -7 -35 -201q-5 -24 -31 -24h-22q-27 0 -27 18q0 9 18 168zM780 1382q0 -52 -28 -77q-20 -17 -52 -17q-61 0 -61 51q0 52 27 76q22 19 55 19q59 0 59 -52z" />
    <glyph glyph-name="Ccaron" unicode="&#x10c;" horiz-adv-x="1253" 
d="M1167 1362q-98 24 -303 24q-234 0 -372 -155q-107 -121 -169.5 -358t-62.5 -437q0 -79 17.5 -143.5t56.5 -119t110.5 -84.5t171.5 -30q215 0 375 54q11 4 24.5 9t20.5 7t13 2q9 0 13.5 -6.5t10.5 -24.5q4 -12 4 -24q0 -18 -51 -37q-177 -66 -403 -66q-222 0 -339.5 108
t-117.5 343q0 133 26 288t86.5 316t143.5 258q85 97 205.5 142t300.5 45q154 0 305 -31q22 -4 30.5 -13.5t8.5 -25.5q0 -7 -37 -215q-6 -25 -29 -25h-32q-25 0 -25 25q0 9 18 174zM1186 1843h37q18 0 18 -18q0 -13 -16 -29l-256 -209q-31 -24 -56 -24h-24q-21 0 -41 20
l-186 215q-9 13 -9 23q0 22 27 22h20q20 0 45 -22l170 -158l222 156q33 24 49 24z" />
    <glyph glyph-name="ccaron" unicode="&#x10d;" horiz-adv-x="923" 
d="M827 950q-84 13 -161 13q-191 0 -291 -105q-82 -83 -128 -252t-46 -295q0 -119 64.5 -188.5t205.5 -69.5q88 0 136 7.5t106 27.5q35 12 47 12q11 0 18 -14q8 -16 8 -29q0 -12 -8.5 -19t-29.5 -15q-138 -50 -285 -50q-165 0 -258.5 77.5t-93.5 246.5q0 91 18 197.5
t66 225.5t116 189q130 133 373 133q130 0 209 -20q18 -5 24.5 -11.5t6.5 -21.5q0 -7 -35 -201q-5 -24 -31 -24h-22q-27 0 -27 18q0 9 18 168zM956 1530h29q19 0 19 -19q0 -11 -17 -28l-260 -291q-22 -25 -51 -25h-27q-25 0 -35 21l-145 299q-6 18 -6 24q0 9 7 14t17 5h17
q24 0 37 -23l137 -243l235 239q27 27 43 27z" />
    <glyph glyph-name="Dcaron" unicode="&#x10e;" horiz-adv-x="1462" 
d="M498 0h-422q-29 0 -29 18q0 9 6 33q9 29 41 29h117l274 1286h-131q-28 0 -28 18q0 11 6 35q8 27 41 27h428q225 0 356 -41q128 -39 195 -148.5t67 -273.5q0 -112 -13 -219t-47 -222.5t-87 -209t-139.5 -170t-196.5 -113.5q-76 -25 -204.5 -37t-233.5 -12zM305 80h223
q270 0 404 55q105 43 183.5 135t121.5 210t63.5 237.5t20.5 240.5q0 270 -168 355q-103 53 -369 53h-206zM1155 1843h37q18 0 18 -18q0 -13 -16 -29l-256 -209q-31 -24 -55 -24h-25q-21 0 -41 20l-186 215q-8 12 -8 23q0 22 26 22h21q20 0 45 -22l170 -158l221 156
q33 24 49 24z" />
    <glyph glyph-name="dcaron" unicode="&#x10f;" horiz-adv-x="1148" 
d="M969 0h-178q-31 0 -31 20q0 14 8 72q-109 -117 -342 -117q-155 0 -235 74t-80 234q0 97 22.5 211.5t76.5 233.5t128 183q129 115 381 115q152 0 235 -45l105 473h-123q-29 0 -29 19q0 10 6 34q4 15 13 20t28 5h160q21 0 29 -6t8 -21q0 -13 -6 -43l-295 -1384h135
q29 0 29 -19q0 -12 -6 -36q-4 -15 -12 -19t-27 -4zM799 229l139 670q-29 20 -97.5 33.5t-144.5 13.5q-190 0 -299 -92q-92 -80 -144 -240.5t-52 -316.5q0 -123 59.5 -183.5t192.5 -60.5q86 0 151.5 19.5t130.5 66.5q27 19 43 43q15 20 21 47zM1440 1532q28 0 28 -31
q0 -28 -22 -96q-56 -157 -162 -244q-19 -16 -33 -16q-10 0 -26 12q-13 13 -13 23q0 5 2 9.5t4 6.5t7 6.5t6 5.5q47 47 84.5 121t48.5 158q7 45 41 45h35z" />
    <glyph glyph-name="Dcroat" unicode="&#x110;" horiz-adv-x="1462" 
d="M498 0h-422q-29 0 -29 18q0 9 6 33q9 29 41 29h117l137 645h-194q-25 0 -25 20q0 16 6 37q5 16 11.5 21.5t23.5 5.5h197l118 557h-131q-28 0 -28 18q0 11 6 35q8 27 41 27h428q225 0 356 -41q128 -39 195 -148.5t67 -273.5q0 -112 -13 -219t-47 -222.5t-87 -209
t-139.5 -170t-196.5 -113.5q-76 -25 -204.5 -37t-233.5 -12zM305 80h223q270 0 404 55q105 43 183.5 135t121.5 210t63.5 237.5t20.5 240.5q0 270 -168 355q-103 53 -369 53h-206l-119 -557h362q27 0 27 -21q0 -16 -8 -40q-8 -23 -37 -23h-361z" />
    <glyph glyph-name="dcroat" unicode="&#x111;" horiz-adv-x="1148" 
d="M969 0h-178q-31 0 -31 20q0 14 8 72q-109 -117 -342 -117q-155 0 -235 74t-80 234q0 97 22.5 211.5t76.5 233.5t128 183q129 115 381 115q152 0 235 -45l52 233h-263q-24 0 -24 21q0 15 4 31q6 22 35 22h264l37 166h-123q-29 0 -29 19q0 10 6 34q4 15 13 20t28 5h160
q21 0 29 -6t8 -21q0 -13 -6 -43l-39 -174h113q26 0 26 -20q0 -7 -6 -31q-5 -23 -37 -23h-110l-242 -1136h135q29 0 29 -19q0 -12 -6 -36q-4 -15 -12 -19t-27 -4zM799 229l139 670q-29 20 -97.5 33.5t-144.5 13.5q-190 0 -299 -92q-92 -80 -144 -240.5t-52 -316.5
q0 -123 59.5 -183.5t192.5 -60.5q86 0 151.5 19.5t130.5 66.5q27 19 43 43q15 20 21 47z" />
    <glyph glyph-name="Emacron" unicode="&#x112;" horiz-adv-x="1208" 
d="M981 0h-905q-29 0 -29 18q0 11 6 35q8 27 41 27h117l276 1286h-133q-28 0 -28 18q0 11 6 35q8 27 41 27h825q19 0 25 -6.5t6 -20.5q0 -3 -37 -219q-5 -24 -29 -24h-33q-24 0 -24 24q0 3 18 166h-546l-121 -571h520q31 0 31 -21q0 -7 -7 -35q-4 -16 -12.5 -21t-27.5 -5
h-523l-133 -633h639l43 162q6 28 31 28h33q24 0 24 -24q0 -8 -43 -201q-6 -30 -14 -37.5t-37 -7.5zM1083 1642h-501q-25 0 -25 21q0 16 8 43q5 16 11.5 21.5t23.5 5.5h498q26 0 26 -21q0 -19 -8 -47q-5 -14 -11.5 -18.5t-21.5 -4.5z" />
    <glyph glyph-name="emacron" unicode="&#x113;" horiz-adv-x="1030" 
d="M213 485q-14 -88 -14 -153q0 -159 72.5 -219t238.5 -60q148 0 272 43q37 13 45 13q11 0 19 -15q8 -20 8 -31q0 -12 -8 -19t-29 -15q-137 -56 -330 -56q-202 0 -289 84t-87 262q0 85 19 190.5t69.5 225.5t122.5 187q118 110 342 110q163 0 237 -67t74 -195q0 -84 -23 -215
q-8 -47 -22 -59q-14 -11 -41 -11h-676zM227 563h635q25 105 25 191q0 99 -51 148.5t-187 49.5q-172 0 -256 -73q-108 -92 -166 -316zM930 1268h-469q-25 0 -25 20q0 16 8 43q5 16 11.5 21.5t23.5 5.5h465q27 0 27 -21q0 -19 -8 -47q-4 -13 -11 -17.5t-22 -4.5z" />
    <glyph glyph-name="Ebreve" unicode="&#x114;" horiz-adv-x="1208" 
d="M981 0h-905q-29 0 -29 18q0 11 6 35q8 27 41 27h117l276 1286h-133q-28 0 -28 18q0 11 6 35q8 27 41 27h825q19 0 25 -6.5t6 -20.5q0 -3 -37 -219q-5 -24 -29 -24h-33q-24 0 -24 24q0 3 18 166h-546l-121 -571h520q31 0 31 -21q0 -7 -7 -35q-4 -16 -12.5 -21t-27.5 -5
h-523l-133 -633h639l43 162q6 28 31 28h33q24 0 24 -24q0 -8 -43 -201q-6 -30 -14 -37.5t-37 -7.5zM1133 1841q20 0 20 -20q0 -16 -16 -66q-74 -192 -297 -192q-254 0 -254 206q0 31 6 52q7 20 26 20h25q21 0 21 -20q0 -4 -1 -16.5t-1 -16.5q0 -71 41 -105t137 -34
q108 0 161.5 42.5t77.5 125.5q7 24 29 24h25z" />
    <glyph glyph-name="ebreve" unicode="&#x115;" horiz-adv-x="1030" 
d="M213 485q-14 -88 -14 -153q0 -159 72.5 -219t238.5 -60q148 0 272 43q37 13 45 13q11 0 19 -15q8 -20 8 -31q0 -12 -8 -19t-29 -15q-137 -56 -330 -56q-202 0 -289 84t-87 262q0 85 19 190.5t69.5 225.5t122.5 187q118 110 342 110q163 0 237 -67t74 -195q0 -84 -23 -215
q-8 -47 -22 -59q-14 -11 -41 -11h-676zM227 563h635q25 105 25 191q0 99 -51 148.5t-187 49.5q-172 0 -256 -73q-108 -92 -166 -316zM952 1462q17 0 17 -20q0 -25 -17 -72q-37 -93 -104 -144.5t-180 -51.5q-120 0 -178 53t-58 143q0 51 6 72q7 20 29 20h16q21 0 21 -18
q0 -3 -1 -20t-1 -21q0 -75 38.5 -109t129.5 -34q99 0 152 48.5t75 135.5q3 18 27 18h28z" />
    <glyph glyph-name="Edotaccent" unicode="&#x116;" horiz-adv-x="1208" 
d="M981 0h-905q-29 0 -29 18q0 11 6 35q8 27 41 27h117l276 1286h-133q-28 0 -28 18q0 11 6 35q8 27 41 27h825q19 0 25 -6.5t6 -20.5q0 -3 -37 -219q-5 -24 -29 -24h-33q-24 0 -24 24q0 3 18 166h-546l-121 -571h520q31 0 31 -21q0 -7 -7 -35q-4 -16 -12.5 -21t-27.5 -5
h-523l-133 -633h639l43 162q6 28 31 28h33q24 0 24 -24q0 -8 -43 -201q-6 -30 -14 -37.5t-37 -7.5zM930 1690q0 -52 -29 -78q-20 -17 -51 -17q-62 0 -62 52q0 51 27 75q22 19 55 19q60 0 60 -51z" />
    <glyph glyph-name="edotaccent" unicode="&#x117;" horiz-adv-x="1030" 
d="M213 485q-14 -88 -14 -153q0 -159 72.5 -219t238.5 -60q148 0 272 43q37 13 45 13q11 0 19 -15q8 -20 8 -31q0 -12 -8 -19t-29 -15q-137 -56 -330 -56q-202 0 -289 84t-87 262q0 85 19 190.5t69.5 225.5t122.5 187q118 110 342 110q163 0 237 -67t74 -195q0 -84 -23 -215
q-8 -47 -22 -59q-14 -11 -41 -11h-676zM227 563h635q25 105 25 191q0 99 -51 148.5t-187 49.5q-172 0 -256 -73q-108 -92 -166 -316zM758 1382q0 -51 -29 -77q-20 -17 -51 -17q-62 0 -62 51q0 52 27 76q22 19 55 19q60 0 60 -52z" />
    <glyph glyph-name="Eogonek" unicode="&#x118;" horiz-adv-x="1208" 
d="M981 0h-59q-224 -136 -224 -283q0 -102 115 -102q26 0 58 5t36 5q19 0 23 -14q4 -20 4 -37q-2 -17 -21 -23q-49 -16 -122 -16q-91 0 -138 43t-47 125q0 92 57 162t160 135h-747q-29 0 -29 18q0 11 6 35q8 27 41 27h117l276 1286h-133q-28 0 -28 18q0 11 6 35q8 27 41 27
h825q19 0 25 -6.5t6 -20.5q0 -3 -37 -219q-5 -24 -29 -24h-33q-24 0 -24 24q0 3 18 166h-546l-121 -571h520q31 0 31 -21q0 -7 -7 -35q-4 -16 -12.5 -21t-27.5 -5h-523l-133 -633h639l43 162q6 28 31 28h33q24 0 24 -24q0 -8 -43 -201q-6 -30 -14 -37.5t-37 -7.5z" />
    <glyph glyph-name="eogonek" unicode="&#x119;" horiz-adv-x="1030" 
d="M213 485q-14 -88 -14 -153q0 -159 72.5 -219t238.5 -60q148 0 272 43q37 13 45 13q11 0 19 -15q8 -20 8 -31q0 -12 -8 -19t-29 -15q-66 -26 -129 -37q-203 -126 -203 -258q0 -99 113 -99q25 0 56 5.5t36 5.5q17 0 21 -15q4 -18 4 -34q-2 -14 -19 -21q-49 -16 -121 -16
q-87 0 -132.5 41t-45.5 118q0 140 172 256q-29 -2 -82 -2q-202 0 -289 84t-87 262q0 85 19 190.5t69.5 225.5t122.5 187q118 110 342 110q163 0 237 -67t74 -195q0 -84 -23 -215q-8 -47 -22 -59q-14 -11 -41 -11h-676zM227 563h635q25 105 25 191q0 99 -51 148.5t-187 49.5
q-172 0 -256 -73q-108 -92 -166 -316z" />
    <glyph glyph-name="Ecaron" unicode="&#x11a;" horiz-adv-x="1208" 
d="M981 0h-905q-29 0 -29 18q0 11 6 35q8 27 41 27h117l276 1286h-133q-28 0 -28 18q0 11 6 35q8 27 41 27h825q19 0 25 -6.5t6 -20.5q0 -3 -37 -219q-5 -24 -29 -24h-33q-24 0 -24 24q0 3 18 166h-546l-121 -571h520q31 0 31 -21q0 -7 -7 -35q-4 -16 -12.5 -21t-27.5 -5
h-523l-133 -633h639l43 162q6 28 31 28h33q24 0 24 -24q0 -8 -43 -201q-6 -30 -14 -37.5t-37 -7.5zM1124 1843h37q19 0 19 -18q0 -12 -17 -29l-256 -209q-31 -24 -55 -24h-25q-21 0 -41 20l-186 215q-8 12 -8 23q0 22 26 22h21q20 0 45 -22l170 -158l221 156q33 24 49 24z
" />
    <glyph glyph-name="ecaron" unicode="&#x11b;" horiz-adv-x="1030" 
d="M213 485q-14 -88 -14 -153q0 -159 72.5 -219t238.5 -60q148 0 272 43q37 13 45 13q11 0 19 -15q8 -20 8 -31q0 -12 -8 -19t-29 -15q-137 -56 -330 -56q-202 0 -289 84t-87 262q0 85 19 190.5t69.5 225.5t122.5 187q118 110 342 110q163 0 237 -67t74 -195q0 -84 -23 -215
q-8 -47 -22 -59q-14 -11 -41 -11h-676zM227 563h635q25 105 25 191q0 99 -51 148.5t-187 49.5q-172 0 -256 -73q-108 -92 -166 -316zM956 1530h29q19 0 19 -19q0 -11 -17 -28l-260 -291q-22 -25 -51 -25h-27q-25 0 -35 21l-145 299q-6 18 -6 24q0 9 7 14t17 5h17
q24 0 37 -23l137 -243l235 239q27 27 43 27z" />
    <glyph glyph-name="Gcircumflex" unicode="&#x11c;" horiz-adv-x="1361" 
d="M1159 123q-6 -28 -16.5 -42.5t-36.5 -25.5q-188 -82 -449 -82q-230 0 -359.5 109t-129.5 342q0 136 26.5 291t87.5 314.5t144 256.5q85 97 209 142t307 45q197 0 322 -33q21 -5 30 -12.5t9 -26.5q0 -10 -35 -213q-6 -25 -29 -25h-33q-24 0 -24 25q0 16 20 172
q-110 26 -323 26q-247 0 -385 -155q-107 -121 -169.5 -358.5t-62.5 -436.5q0 -64 12 -117.5t41 -102.5t73.5 -83t113.5 -54t157 -20q246 0 406 68l106 485h-368q-29 0 -29 21t4 33q6 17 13 21.5t28 4.5h414q39 0 39 -28q0 -13 -4 -37zM723 1563h-37q-18 0 -18 18q0 13 16 29
l256 209q31 24 55 24h25q21 0 41 -20l186 -215q8 -12 8 -23q0 -22 -26 -22h-21q-20 0 -45 22l-170 158l-221 -156q-33 -24 -49 -24z" />
    <glyph glyph-name="gcircumflex" unicode="&#x11d;" horiz-adv-x="999" 
d="M160 41q-58 19 -84.5 56t-26.5 100q0 88 45 154.5t127 90.5q-47 60 -47 158q0 122 45.5 223.5t147.5 157.5q92 51 245 51q95 0 168 -28h275q32 0 32 -25q0 -13 -2 -25q-6 -28 -43 -28h-161q47 -62 47 -152q0 -233 -123 -346q-104 -94 -311 -94q-106 0 -179 33
q-40 16 -59 16q-24 0 -55 -21q-32 -20 -49 -62.5t-17 -84.5q0 -82 51 -96q53 -17 318 -17q227 0 317 -47t90 -176q0 -92 -25 -160t-68.5 -111t-111 -69t-144.5 -36.5t-177 -10.5q-98 0 -172.5 17t-117.5 43.5t-69.5 63.5t-35 70.5t-8.5 71.5q0 105 42.5 173.5t135.5 109.5z
M819 -141q0 39 -13.5 67t-45.5 50.5t-89.5 35t-140.5 13.5q-92 2 -188 2q-59 0 -96 -11q-85 -23 -131.5 -87t-46.5 -156q0 -201 325 -201q55 0 92.5 1.5t86 8t81 18t66.5 32.5t54 51t33 74.5t13 101.5zM842 762q0 108 -61 149t-187 41q-130 0 -188 -32q-76 -38 -110 -123.5
t-34 -190.5q0 -60 19 -100t56 -59.5t77.5 -27t95.5 -7.5q164 0 242 73q90 85 90 277zM428 1167h-29q-18 0 -18 19q0 12 16 28l260 291q22 25 52 25h26q25 0 35 -21l145 -299q7 -21 7 -24q0 -9 -7.5 -14t-17.5 -5h-16q-24 0 -37 23l-137 244l-236 -240q-27 -27 -43 -27z" />
    <glyph glyph-name="Gbreve" unicode="&#x11e;" horiz-adv-x="1361" 
d="M1159 123q-6 -28 -16.5 -42.5t-36.5 -25.5q-188 -82 -449 -82q-230 0 -359.5 109t-129.5 342q0 136 26.5 291t87.5 314.5t144 256.5q85 97 209 142t307 45q197 0 322 -33q21 -5 30 -12.5t9 -26.5q0 -10 -35 -213q-6 -25 -29 -25h-33q-24 0 -24 25q0 16 20 172
q-110 26 -323 26q-247 0 -385 -155q-107 -121 -169.5 -358.5t-62.5 -436.5q0 -64 12 -117.5t41 -102.5t73.5 -83t113.5 -54t157 -20q246 0 406 68l106 485h-368q-29 0 -29 21t4 33q6 17 13 21.5t28 4.5h414q39 0 39 -28q0 -13 -4 -37zM1237 1841q20 0 20 -20q0 -16 -16 -66
q-74 -192 -297 -192q-254 0 -254 206q0 31 6 52q7 20 27 20h25q20 0 20 -20q0 -4 -1 -16.5t-1 -16.5q0 -71 41 -105t137 -34q108 0 162 42.5t78 125.5q2 8 4.5 12.5t8.5 8t15 3.5h25z" />
    <glyph glyph-name="gbreve" unicode="&#x11f;" horiz-adv-x="999" 
d="M160 41q-58 19 -84.5 56t-26.5 100q0 88 45 154.5t127 90.5q-47 60 -47 158q0 122 45.5 223.5t147.5 157.5q92 51 245 51q95 0 168 -28h275q32 0 32 -25q0 -13 -2 -25q-6 -28 -43 -28h-161q47 -62 47 -152q0 -233 -123 -346q-104 -94 -311 -94q-106 0 -179 33
q-40 16 -59 16q-24 0 -55 -21q-32 -20 -49 -62.5t-17 -84.5q0 -82 51 -96q53 -17 318 -17q227 0 317 -47t90 -176q0 -92 -25 -160t-68.5 -111t-111 -69t-144.5 -36.5t-177 -10.5q-98 0 -172.5 17t-117.5 43.5t-69.5 63.5t-35 70.5t-8.5 71.5q0 105 42.5 173.5t135.5 109.5z
M819 -141q0 39 -13.5 67t-45.5 50.5t-89.5 35t-140.5 13.5q-92 2 -188 2q-59 0 -96 -11q-85 -23 -131.5 -87t-46.5 -156q0 -201 325 -201q55 0 92.5 1.5t86 8t81 18t66.5 32.5t54 51t33 74.5t13 101.5zM842 762q0 108 -61 149t-187 41q-130 0 -188 -32q-76 -38 -110 -123.5
t-34 -190.5q0 -60 19 -100t56 -59.5t77.5 -27t95.5 -7.5q164 0 242 73q90 85 90 277zM915 1462q17 0 17 -20q0 -25 -17 -72q-37 -93 -104 -144.5t-180 -51.5q-120 0 -178 53t-58 143q0 51 6 72q7 20 29 20h16q21 0 21 -18q0 -3 -1 -20t-1 -21q0 -75 38.5 -109t129.5 -34
q99 0 152 48.5t75 135.5q3 18 27 18h28z" />
    <glyph glyph-name="Gdotaccent" unicode="&#x120;" horiz-adv-x="1361" 
d="M1159 123q-6 -28 -16.5 -42.5t-36.5 -25.5q-188 -82 -449 -82q-230 0 -359.5 109t-129.5 342q0 136 26.5 291t87.5 314.5t144 256.5q85 97 209 142t307 45q197 0 322 -33q21 -5 30 -12.5t9 -26.5q0 -10 -35 -213q-6 -25 -29 -25h-33q-24 0 -24 25q0 16 20 172
q-110 26 -323 26q-247 0 -385 -155q-107 -121 -169.5 -358.5t-62.5 -436.5q0 -64 12 -117.5t41 -102.5t73.5 -83t113.5 -54t157 -20q246 0 406 68l106 485h-368q-29 0 -29 21t4 33q6 17 13 21.5t28 4.5h414q39 0 39 -28q0 -13 -4 -37zM1032 1690q0 -53 -28 -78
q-20 -17 -52 -17q-61 0 -61 52q0 51 27 75q22 19 55 19q59 0 59 -51z" />
    <glyph glyph-name="gdotaccent" unicode="&#x121;" horiz-adv-x="999" 
d="M160 41q-58 19 -84.5 56t-26.5 100q0 88 45 154.5t127 90.5q-47 60 -47 158q0 122 45.5 223.5t147.5 157.5q92 51 245 51q95 0 168 -28h275q32 0 32 -25q0 -13 -2 -25q-6 -28 -43 -28h-161q47 -62 47 -152q0 -233 -123 -346q-104 -94 -311 -94q-106 0 -179 33
q-40 16 -59 16q-24 0 -55 -21q-32 -20 -49 -62.5t-17 -84.5q0 -82 51 -96q53 -17 318 -17q227 0 317 -47t90 -176q0 -92 -25 -160t-68.5 -111t-111 -69t-144.5 -36.5t-177 -10.5q-98 0 -172.5 17t-117.5 43.5t-69.5 63.5t-35 70.5t-8.5 71.5q0 105 42.5 173.5t135.5 109.5z
M819 -141q0 39 -13.5 67t-45.5 50.5t-89.5 35t-140.5 13.5q-92 2 -188 2q-59 0 -96 -11q-85 -23 -131.5 -87t-46.5 -156q0 -201 325 -201q55 0 92.5 1.5t86 8t81 18t66.5 32.5t54 51t33 74.5t13 101.5zM842 762q0 108 -61 149t-187 41q-130 0 -188 -32q-76 -38 -110 -123.5
t-34 -190.5q0 -60 19 -100t56 -59.5t77.5 -27t95.5 -7.5q164 0 242 73q90 85 90 277zM696 1382q0 -52 -28 -77q-20 -17 -52 -17q-61 0 -61 51q0 52 27 76q22 19 55 19q59 0 59 -52z" />
    <glyph glyph-name="Gcommaaccent" unicode="&#x122;" horiz-adv-x="1361" 
d="M1159 123q-6 -28 -16.5 -42.5t-36.5 -25.5q-188 -82 -449 -82q-230 0 -359.5 109t-129.5 342q0 136 26.5 291t87.5 314.5t144 256.5q85 97 209 142t307 45q197 0 322 -33q21 -5 30 -12.5t9 -26.5q0 -10 -35 -213q-6 -25 -29 -25h-33q-24 0 -24 25q0 16 20 172
q-110 26 -323 26q-247 0 -385 -155q-107 -121 -169.5 -358.5t-62.5 -436.5q0 -64 12 -117.5t41 -102.5t73.5 -83t113.5 -54t157 -20q246 0 406 68l106 485h-368q-29 0 -29 21t4 33q6 17 13 21.5t28 4.5h414q39 0 39 -28q0 -13 -4 -37zM684 -147q29 0 29 -31q0 -25 -23 -96
q-56 -157 -162 -244q-20 -17 -32 -17q-10 0 -27 13q-12 12 -12 22q0 11 18 29q47 47 84.5 120.5t48.5 157.5q7 46 41 46h35z" />
    <glyph glyph-name="gcommaaccent" unicode="&#x123;" horiz-adv-x="999" 
d="M160 41q-58 19 -84.5 56t-26.5 100q0 88 45 154.5t127 90.5q-47 60 -47 158q0 122 45.5 223.5t147.5 157.5q92 51 245 51q95 0 168 -28h275q32 0 32 -25q0 -13 -2 -25q-5 -26 -43 -26h-161q47 -62 47 -154q0 -233 -123 -346q-104 -94 -311 -94q-106 0 -179 33
q-40 16 -59 16q-24 0 -55 -21q-32 -20 -49 -62.5t-17 -84.5q0 -82 51 -96q53 -17 318 -17q227 0 317 -47t90 -176q0 -92 -25 -160t-68.5 -111t-111 -69t-144.5 -36.5t-177 -10.5q-98 0 -172.5 17t-117.5 43.5t-69.5 63.5t-35 70.5t-8.5 71.5q0 105 42.5 173.5t135.5 109.5z
M819 -141q0 39 -13.5 67t-45.5 50.5t-89.5 35t-140.5 13.5q-92 2 -188 2q-59 0 -96 -11q-85 -23 -131.5 -87t-46.5 -156q0 -201 325 -201q55 0 92.5 1.5t86 8t81 18t66.5 32.5t54 51t33 74.5t13 101.5zM842 762q0 108 -61 149t-187 41q-130 0 -188 -32q-76 -38 -110 -123.5
t-34 -190.5q0 -60 19 -100t56 -59.5t77.5 -27t95.5 -7.5q164 0 242 73q90 85 90 277zM614 1186h-34q-29 0 -29 31q0 28 22 96q55 156 162 243q20 17 33 17q11 0 27 -12q12 -12 12 -23q0 -5 -2 -9.5t-4 -7t-7 -7t-6 -5.5q-47 -47 -84.5 -120.5t-48.5 -157.5q-7 -45 -41 -45z
" />
    <glyph glyph-name="Hcircumflex" unicode="&#x124;" horiz-adv-x="1511" 
d="M426 0h-350q-29 0 -29 18q0 11 6 35q8 27 41 27h117l274 1286h-131q-28 0 -28 18q0 11 6 35q8 27 41 27h348q29 0 29 -21q0 -13 -7 -34q-5 -15 -12 -20t-26 -5h-125l-123 -571h747l121 571h-131q-29 0 -29 18q0 11 6 35q8 27 41 27h349q28 0 28 -21q0 -16 -6 -34
q-4 -15 -12 -20t-27 -5h-125l-276 -1286h139q29 0 29 -21q0 -16 -6 -34q-4 -15 -12 -20t-27 -5h-351q-28 0 -28 18q0 11 6 35q8 27 41 27h117l135 635h-748l-135 -635h139q29 0 29 -21q0 -16 -6 -34q-4 -15 -12 -20t-27 -5zM748 1563h-37q-19 0 -19 18q0 12 17 29l256 209
q31 24 55 24h24q21 0 41 -20l187 -215q8 -12 8 -23q0 -22 -27 -22h-20q-20 0 -45 22l-170 158l-221 -156q-33 -24 -49 -24z" />
    <glyph glyph-name="hcircumflex" unicode="&#x125;" horiz-adv-x="1165" 
d="M356 0h-333q-29 0 -29 18q0 9 6 33q8 27 41 27h111l292 1376h-120q-29 0 -29 19q0 8 6 32q8 27 41 27h168q31 0 31 -23q0 -9 -6 -39l-123 -577q28 51 99.5 83.5t138.5 42t136 9.5q51 0 93 -8t78 -26.5t56.5 -52.5t20.5 -81q0 -61 -22 -174l-131 -608h127q30 0 30 -19
q0 -15 -6 -36q-4 -15 -12 -19t-27 -4h-174q-15 0 -24 7t-9 18q0 8 7 43l135 630q16 73 16 133q0 65 -46 90t-140 25q-84 0 -151 -14t-95 -27t-61 -33q-31 -20 -45 -47q-11 -19 -19 -53l-149 -694h135q28 0 28 -21q0 -14 -6 -32q-4 -15 -12 -20t-27 -5zM283 1583h-37
q-19 0 -19 19q0 11 17 28l256 209q32 25 55 25h25q20 0 41 -21l186 -215q8 -12 8 -22q0 -23 -27 -23h-20q-19 0 -45 23l-170 157l-221 -155q-35 -25 -49 -25z" />
    <glyph glyph-name="Hbar" unicode="&#x126;" horiz-adv-x="1511" 
d="M426 0h-350q-29 0 -29 18q0 11 6 35q8 27 41 27h117l199 930h-144q-24 0 -24 20q0 16 6 37q5 16 11.5 21.5t23.5 5.5h143l59 272h-131q-28 0 -28 18q0 11 6 35q8 27 41 27h348q29 0 29 -21q0 -13 -7 -34q-5 -15 -12 -20t-26 -5h-125l-60 -272h746l59 272h-131
q-29 0 -29 18q0 11 6 35q8 27 41 27h349q28 0 28 -21q0 -16 -6 -34q-4 -15 -12 -20t-27 -5h-125l-59 -272h153q27 0 27 -21q0 -17 -8 -41q-7 -22 -37 -22h-154l-198 -930h139q29 0 29 -21q0 -16 -6 -34q-4 -15 -12 -20t-27 -5h-351q-28 0 -28 18q0 11 6 35q8 27 41 27h117
l135 635h-748l-135 -635h139q29 0 29 -21q0 -16 -6 -34q-4 -15 -12 -20t-27 -5zM457 795h747l45 215h-747z" />
    <glyph glyph-name="hbar" unicode="&#x127;" horiz-adv-x="1165" 
d="M356 0h-333q-29 0 -29 18q0 9 6 33q8 27 41 27h111l241 1136h-139q-25 0 -25 21q0 15 4 31q6 22 35 22h140l36 166h-120q-29 0 -29 19q0 8 6 32q8 27 41 27h168q31 0 31 -23q0 -9 -6 -39l-39 -182h233q27 0 27 -20q0 -7 -6 -31q-5 -23 -37 -23h-234l-67 -321
q28 51 99.5 83.5t138.5 42t136 9.5q51 0 93 -8t78 -26.5t56.5 -52.5t20.5 -81q0 -61 -22 -174l-131 -608h127q30 0 30 -19q0 -15 -6 -36q-4 -15 -12 -19t-27 -4h-174q-15 0 -24 7t-9 18q0 8 7 43l135 630q16 73 16 133q0 65 -46 90t-140 25q-84 0 -151 -14t-95 -27t-61 -33
q-31 -20 -45 -47q-11 -19 -19 -53l-149 -694h135q28 0 28 -21q0 -14 -6 -32q-4 -15 -12 -20t-27 -5z" />
    <glyph glyph-name="Itilde" unicode="&#x128;" horiz-adv-x="671" 
d="M426 0h-350q-29 0 -29 18q0 11 6 35q8 27 41 27h117l274 1286h-131q-28 0 -28 18q0 11 6 35q8 27 41 27h348q29 0 29 -21q0 -13 -7 -34q-5 -15 -12 -20t-26 -5h-125l-277 -1286h139q29 0 29 -21q0 -16 -6 -34q-4 -15 -12 -20t-27 -5zM303 1599h-20q-21 0 -21 19
q0 13 14 41q42 75 84 108t99 33q24 0 51.5 -12.5t93.5 -50.5q51 -30 76 -39.5t49 -9.5q30 0 52.5 16.5t52.5 71.5q8 13 11.5 18.5t10 10.5t14.5 5h27q23 0 23 -16q0 -17 -11 -39q-42 -89 -84.5 -124.5t-101.5 -35.5q-30 0 -61.5 12t-92.5 46q-60 33 -85.5 44t-43.5 11
q-30 0 -51.5 -17t-46.5 -65q-7 -15 -14.5 -21t-24.5 -6z" />
    <glyph glyph-name="itilde" unicode="&#x129;" horiz-adv-x="598" 
d="M152 1247h-21q-20 0 -20 19q0 13 14 41q41 75 80.5 108t93.5 33q24 0 49 -12.5t90 -51.5q50 -30 73.5 -39.5t47.5 -9.5q29 0 50.5 16.5t49.5 71.5q17 35 35 35h25q22 0 22 -16q0 -19 -10 -39q-40 -89 -81 -124.5t-97 -35.5q-30 0 -61 11t-86 44l-1 1h-1l-1 1h-1l-1 1
l-1 1h-1l-1 1h-1l-1 1l-1 1h-1l-2 1q-79 46 -99 49q-5 1 -10 1q-29 0 -50.5 -17t-44.5 -65q-7 -15 -13.5 -21t-22.5 -6zM383 0h-334q-29 0 -29 18q0 3 7 31q8 27 41 27h110l180 852h-122q-29 0 -29 18q0 7 6 31q8 27 41 27h170q31 0 31 -25q0 -13 -4 -29l-187 -874h135
q29 0 29 -21q0 -12 -6 -30q-4 -15 -12 -20t-27 -5z" />
    <glyph glyph-name="Imacron" unicode="&#x12a;" horiz-adv-x="671" 
d="M426 0h-350q-29 0 -29 18q0 11 6 35q8 27 41 27h117l274 1286h-131q-28 0 -28 18q0 11 6 35q8 27 41 27h348q29 0 29 -21q0 -13 -7 -34q-5 -15 -12 -20t-26 -5h-125l-277 -1286h139q29 0 29 -21q0 -16 -6 -34q-4 -15 -12 -20t-27 -5zM821 1642h-502q-24 0 -24 21
q0 16 8 43q5 16 11.5 21.5t23.5 5.5h498q26 0 26 -21q0 -19 -8 -47q-5 -14 -11.5 -18.5t-21.5 -4.5z" />
    <glyph glyph-name="imacron" unicode="&#x12b;" horiz-adv-x="598" 
d="M383 0h-334q-29 0 -29 18q0 3 7 31q8 27 41 27h110l180 852h-122q-29 0 -29 18q0 7 6 31q8 27 41 27h170q31 0 31 -25q0 -13 -4 -29l-187 -874h135q29 0 29 -21q0 -12 -6 -30q-4 -15 -12 -20t-27 -5zM664 1268h-469q-25 0 -25 20q0 16 8 43q5 16 11.5 21.5t23.5 5.5h465
q27 0 27 -21q0 -15 -9 -47q-4 -13 -10.5 -17.5t-21.5 -4.5z" />
    <glyph glyph-name="Ibreve" unicode="&#x12c;" horiz-adv-x="671" 
d="M426 0h-350q-29 0 -29 18q0 11 6 35q8 27 41 27h117l274 1286h-131q-28 0 -28 18q0 11 6 35q8 27 41 27h348q29 0 29 -21q0 -13 -7 -34q-5 -15 -12 -20t-26 -5h-125l-277 -1286h139q29 0 29 -21q0 -16 -6 -34q-4 -15 -12 -20t-27 -5zM864 1841q21 0 21 -20q0 -13 -17 -66
q-74 -192 -297 -192q-254 0 -254 206q0 27 7 52q7 20 26 20h25q20 0 20 -20q0 -4 -1 -16.5t-1 -16.5q0 -71 41 -105t137 -34q108 0 162 42.5t78 125.5q7 24 29 24h24z" />
    <glyph glyph-name="ibreve" unicode="&#x12d;" horiz-adv-x="598" 
d="M383 0h-334q-29 0 -29 18q0 3 7 31q8 27 41 27h110l180 852h-122q-29 0 -29 18q0 7 6 31q8 27 41 27h170q31 0 31 -25q0 -13 -4 -29l-187 -874h135q29 0 29 -21q0 -12 -6 -30q-4 -15 -12 -20t-27 -5zM668 1462q16 0 16 -20q0 -28 -16 -72q-78 -196 -285 -196
q-120 0 -178 53t-58 143q0 48 7 72q7 20 28 20h17q20 0 20 -18q0 -3 -1 -20t-1 -21q0 -75 38.5 -109t129.5 -34q99 0 152 48.5t75 135.5q3 18 27 18h29z" />
    <glyph glyph-name="Iogonek" unicode="&#x12e;" horiz-adv-x="671" 
d="M426 0h-119q-223 -136 -223 -283q0 -102 115 -102q26 0 58 5t36 5q19 0 22 -14q4 -20 4 -37q-2 -17 -20 -23q-49 -16 -123 -16q-90 0 -137 43t-47 125q0 92 57 162t160 135h-133q-29 0 -29 18q0 11 6 35q8 27 41 27h117l274 1286h-131q-28 0 -28 18q0 11 6 35q8 27 41 27
h348q29 0 29 -21q0 -13 -7 -34q-5 -15 -12 -20t-26 -5h-125l-277 -1286h139q29 0 29 -21q0 -16 -6 -34q-4 -15 -12 -20t-27 -5z" />
    <glyph glyph-name="iogonek" unicode="&#x12f;" horiz-adv-x="598" 
d="M383 0h-119q-217 -129 -217 -266q0 -99 113 -99q25 0 56 5.5t36 5.5q16 0 20 -15q4 -18 4 -34q-2 -15 -18 -21q-49 -16 -121 -16q-87 0 -132.5 41t-45.5 118q0 87 55 153.5t154 127.5h-119q-29 0 -29 18q0 5 7 33q8 27 41 27h110l180 848h-122q-29 0 -29 18q0 9 6 33
q8 27 41 27h170q31 0 31 -25q0 -13 -4 -29l-187 -872h135q29 0 29 -21q0 -12 -6 -30q-5 -15 -13 -21t-26 -6zM530 1382q0 -53 -30 -79q-20 -17 -51 -17q-64 0 -64 53t29 78q22 19 55 19q61 0 61 -54z" />
    <glyph glyph-name="Idotaccent" unicode="&#x130;" horiz-adv-x="671" 
d="M426 0h-350q-29 0 -29 18q0 11 6 35q8 27 41 27h117l274 1286h-131q-28 0 -28 18q0 11 6 35q8 27 41 27h348q29 0 29 -21q0 -13 -7 -34q-5 -15 -12 -20t-26 -5h-125l-277 -1286h139q29 0 29 -21q0 -16 -6 -34q-4 -15 -12 -20t-27 -5zM659 1690q0 -53 -28 -78
q-20 -17 -51 -17q-62 0 -62 52q0 51 27 75q22 19 55 19q59 0 59 -51z" />
    <glyph glyph-name="dotlessi" unicode="&#x131;" horiz-adv-x="598" 
d="M383 0h-334q-29 0 -29 18q0 3 7 31q8 27 41 27h110l180 852h-122q-29 0 -29 18q0 7 6 31q8 27 41 27h170q31 0 31 -25q0 -13 -4 -29l-187 -874h135q29 0 29 -21q0 -12 -6 -30q-4 -15 -12 -20t-27 -5z" />
    <glyph glyph-name="IJ" unicode="&#x132;" horiz-adv-x="1318" 
d="M426 0h-350q-29 0 -29 18q0 11 6 35q8 27 41 27h117l274 1286h-131q-28 0 -28 18q0 11 6 35q8 27 41 27h348q29 0 29 -21q0 -13 -7 -34q-5 -15 -12 -20t-26 -5h-125l-277 -1286h139q29 0 29 -21q0 -16 -6 -34q-4 -15 -12 -20t-27 -5zM979 115q-21 -100 -45.5 -154.5
t-69.5 -95.5q-84 -76 -235 -76q-45 0 -74 4q-25 4 -25 25q0 9 7 37q5 20 32 20l30 -2q30 -2 46 -2q92 0 150 45q33 26 54 71t38 128l266 1251h-154q-28 0 -28 18q0 11 6 35q8 27 41 27h360q29 0 29 -21q0 -16 -6 -34q-4 -15 -12 -20t-27 -5h-117z" />
    <glyph glyph-name="ij" unicode="&#x133;" horiz-adv-x="1118" 
d="M383 0h-334q-29 0 -29 18q0 5 7 33q8 27 41 27h110l180 848h-122q-29 0 -29 18q0 9 6 33q8 27 41 27h170q31 0 31 -25q0 -13 -4 -29l-187 -872h135q29 0 29 -21q0 -12 -6 -30q-5 -15 -13 -21t-26 -6zM530 1382q0 -53 -30 -79q-20 -17 -51 -17q-64 0 -64 53t29 78
q22 19 55 19q61 0 61 -54zM762 -195q-21 -101 -48 -154.5t-71 -88.5q-93 -74 -270 -74q-37 0 -37 25q0 17 6 38q4 12 13 15.5t30 3.5q136 0 199 47q34 28 55 67.5t37 118.5l239 1123h-124q-29 0 -29 18q0 7 6 31q9 29 41 29h170q31 0 31 -25q0 -13 -4 -29zM1085 1382
q0 -53 -30 -79q-20 -17 -51 -17q-64 0 -64 53t29 78q22 19 55 19q61 0 61 -54z" />
    <glyph glyph-name="Jcircumflex" unicode="&#x134;" horiz-adv-x="647" 
d="M307 115q-21 -101 -45 -155t-69 -95q-84 -76 -236 -76q-45 0 -74 4q-24 3 -24 25q0 13 6 37q5 20 33 20l30 -2q29 -2 45 -2q92 0 150 45q33 26 54 71t38 128l266 1251h-153q-29 0 -29 18q0 11 6 35q8 27 41 27h361q28 0 28 -21q0 -16 -6 -34q-4 -15 -12 -20t-27 -5h-117z
M322 1563h-37q-19 0 -19 18q0 12 17 29l256 209q31 24 55 24h24q21 0 41 -20l187 -215q8 -12 8 -23q0 -22 -27 -22h-20q-20 0 -45 22l-170 158l-221 -156q-33 -24 -49 -24z" />
    <glyph glyph-name="jcircumflex" unicode="&#x135;" horiz-adv-x="520" 
d="M164 -195q-21 -101 -48 -154.5t-71 -88.5q-93 -74 -270 -74q-37 0 -37 25q0 15 6 36q4 12 13 15.5t30 3.5q136 0 199 47q34 28 55 68t37 120l239 1125h-124q-29 0 -29 18q0 7 6 31q8 27 41 27h170q31 0 31 -25q0 -13 -4 -29zM113 1167h-29q-18 0 -18 19q0 12 16 28
l260 291q22 25 51 25h27q24 0 35 -21l145 -299q6 -18 6 -24q0 -9 -7 -14t-17 -5h-17q-24 0 -37 23l-137 244l-235 -240q-27 -27 -43 -27z" />
    <glyph glyph-name="Kcommaaccent" unicode="&#x136;" horiz-adv-x="1314" 
d="M1380 1366h-110q-424 -485 -557 -625q89 -148 336 -620q13 -25 28.5 -33t46.5 -8h111q29 0 29 -21q0 -13 -7 -34q-5 -15 -12 -20t-26 -5h-123q-44 0 -72 13.5t-39 29t-31 51.5l-307 584q-11 22 -27 28.5t-45 6.5h-137l-135 -633h139q29 0 29 -21q0 -16 -6 -34
q-4 -15 -12 -20t-27 -5h-350q-29 0 -29 18q0 11 6 35q8 27 41 27h117l274 1286h-131q-28 0 -28 18q0 11 6 35q8 27 41 27h348q29 0 29 -21q0 -13 -7 -34q-5 -15 -12 -20t-26 -5h-125l-123 -571h133q66 0 96 32l465 539h-113q-28 0 -28 18q0 11 6 35q8 27 41 27h340
q28 0 28 -21q0 -16 -6 -34q-4 -15 -12 -20t-27 -5zM647 -147q29 0 29 -31q0 -25 -23 -96q-56 -159 -161 -244q-20 -17 -33 -17q-10 0 -27 13q-12 12 -12 22q0 11 18 29q47 47 84.5 120.5t48.5 157.5q7 46 41 46h35z" />
    <glyph glyph-name="kcommaaccent" unicode="&#x137;" horiz-adv-x="1038" 
d="M1042 926h-96q-144 -151 -350 -357q123 -252 221 -448q13 -27 30 -35t56 -8h66q28 0 28 -21q0 -13 -6 -34q-6 -23 -39 -23h-94q-52 0 -79 22t-48 64l-192 406q-10 21 -26 27.5t-46 6.5h-133l-96 -448h135q28 0 28 -21q0 -14 -6 -32q-4 -15 -12 -20t-27 -5h-333
q-29 0 -29 18q0 9 6 33q8 27 41 27h111l292 1376h-122q-29 0 -29 19q0 8 6 32q5 15 13 21t26 6h168q33 0 33 -27q0 -10 -4 -30l-185 -873h105q67 0 98 33l272 291h-98q-29 0 -29 18q0 5 7 33q5 15 13.5 21t26.5 6h314q28 0 28 -21q0 -15 -6 -33q-4 -15 -12 -19.5t-27 -4.5z
M528 -147q29 0 29 -31q0 -28 -22 -96q-56 -157 -162 -244q-20 -17 -33 -17q-10 0 -27 13q-12 12 -12 22q0 11 18 29q47 47 85 120.5t49 157.5q7 46 41 46h34z" />
    <glyph glyph-name="kgreenlandic" unicode="&#x138;" horiz-adv-x="1038" 
d="M1067 928h-96q-119 -126 -220.5 -235.5t-134.5 -143.5q59 -105 226 -430q13 -27 30 -35t56 -8h65q29 0 29 -21q0 -11 -6 -32q-6 -23 -39 -23h-94q-52 0 -79.5 21.5t-47.5 62.5l-197 389q-10 22 -26 28.5t-46 6.5h-133l-92 -432h135q29 0 29 -21q0 -12 -6 -30
q-4 -15 -12 -20t-27 -5h-334q-29 0 -29 18q0 3 7 31q8 27 41 27h110l182 852h-122q-29 0 -29 18q0 7 6 31q5 15 13 21t26 6h168q33 0 33 -27q0 -11 -4 -31l-78 -362h104q70 0 100 32l281 312h-104q-29 0 -29 18q0 7 6 31q8 27 41 27h313q29 0 29 -21q0 -13 -6 -31
q-4 -15 -12 -19.5t-27 -4.5z" />
    <glyph glyph-name="Lacute" unicode="&#x139;" horiz-adv-x="1144" 
d="M997 0h-921q-29 0 -29 18q0 11 6 35q8 27 41 27h117l276 1286h-133q-28 0 -28 18q0 11 6 35q8 27 41 27h348q29 0 29 -21q0 -13 -7 -34q-5 -15 -12 -20t-26 -5h-125l-275 -1286h639l43 162q6 28 31 28h33q24 0 24 -24q0 -8 -43 -201q-4 -17 -6.5 -24.5t-9.5 -14t-19 -6.5
zM541 1581q-23 -18 -52 -18h-36q-23 0 -23 20q0 16 16 29l318 229q24 21 49 21h70q10 0 17 -6t7 -15q0 -18 -20 -33z" />
    <glyph glyph-name="lacute" unicode="&#x13a;" horiz-adv-x="540" 
d="M356 0h-333q-29 0 -29 18q0 9 6 33q8 27 41 27h111l294 1376h-122q-29 0 -29 19q0 8 6 32q8 27 41 27h170q29 0 29 -27q0 -11 -9 -47l-294 -1380h135q28 0 28 -21q0 -14 -6 -32q-4 -15 -12 -20t-27 -5zM461 1622q-23 -18 -51 -18h-37q-23 0 -23 20q0 15 17 29l317 229
q24 21 49 21h70q10 0 17 -6t7 -15q0 -18 -20 -33z" />
    <glyph glyph-name="Lcommaaccent" unicode="&#x13b;" horiz-adv-x="1144" 
d="M997 0h-921q-29 0 -29 18q0 11 6 35q8 27 41 27h117l276 1286h-133q-28 0 -28 18q0 11 6 35q8 27 41 27h348q29 0 29 -21q0 -13 -7 -34q-5 -15 -12 -20t-26 -5h-125l-275 -1286h639l43 162q6 28 31 28h33q24 0 24 -24q0 -8 -43 -201q-4 -17 -6.5 -24.5t-9.5 -14t-19 -6.5
zM565 -147q29 0 29 -31q0 -25 -23 -96q-56 -159 -161 -244q-20 -17 -33 -17q-10 0 -27 13q-12 12 -12 22q0 11 18 29q47 47 84.5 120.5t48.5 157.5q7 46 41 46h35z" />
    <glyph glyph-name="lcommaaccent" unicode="&#x13c;" horiz-adv-x="540" 
d="M356 0h-333q-29 0 -29 18q0 9 6 33q8 27 41 27h111l294 1376h-122q-29 0 -29 19q0 8 6 32q8 27 41 27h170q29 0 29 -27q0 -11 -9 -47l-294 -1380h135q28 0 28 -21q0 -14 -6 -32q-4 -15 -12 -20t-27 -5zM182 -147q29 0 29 -31q0 -25 -23 -96q-56 -159 -161 -244
q-20 -17 -33 -17q-10 0 -27 13q-12 12 -12 22q0 11 18 29q47 47 84.5 120.5t48.5 157.5q7 46 41 46h35z" />
    <glyph glyph-name="Lcaron" unicode="&#x13d;" horiz-adv-x="1144" 
d="M997 0h-921q-29 0 -29 18q0 11 6 35q8 27 41 27h117l276 1286h-133q-28 0 -28 18q0 11 6 35q8 27 41 27h348q29 0 29 -21q0 -13 -7 -34q-5 -15 -12 -20t-26 -5h-125l-275 -1286h639l43 162q6 28 31 28h33q24 0 24 -24q0 -8 -43 -201q-4 -17 -6.5 -24.5t-9.5 -14t-19 -6.5
zM989 1470q29 0 29 -30q0 -26 -23 -97q-56 -157 -161 -243q-20 -17 -33 -17q-10 0 -27 13q-12 12 -12 22q0 11 18 29q47 47 84.5 120.5t48.5 157.5q7 45 41 45h35z" />
    <glyph glyph-name="lcaron" unicode="&#x13e;" horiz-adv-x="540" 
d="M356 0h-333q-29 0 -29 18q0 9 6 33q8 27 41 27h111l294 1376h-122q-29 0 -29 19q0 8 6 32q8 27 41 27h170q29 0 29 -27q0 -11 -9 -47l-294 -1380h135q28 0 28 -21q0 -14 -6 -32q-4 -15 -12 -20t-27 -5zM817 1530q29 0 29 -31q0 -25 -23 -96q-56 -159 -161 -244
q-19 -16 -33 -16q-11 0 -27 12q-12 12 -12 23q0 5 2 9.5t3.5 6.5t6.5 6.5t6 5.5q47 47 84.5 121t48.5 158q7 45 41 45h35z" />
    <glyph glyph-name="Ldot" unicode="&#x13f;" horiz-adv-x="1144" 
d="M1006 719q0 -56 -33 -82q-19 -16 -51 -16q-66 0 -66 53t31 80q21 18 55 18q64 0 64 -53zM997 0h-921q-29 0 -29 18q0 11 6 35q8 27 41 27h117l276 1288h-133q-28 0 -28 18q0 9 6 33q8 27 41 27h348q29 0 29 -21q0 -11 -7 -32q-5 -15 -12 -20t-26 -5h-125l-275 -1284h639
l43 158q6 28 31 28h33q24 0 24 -24q0 -8 -43 -201q-4 -17 -6.5 -24.5t-9.5 -14t-19 -6.5z" />
    <glyph glyph-name="ldot" unicode="&#x140;" horiz-adv-x="690" 
d="M743 719q0 -56 -32 -82q-19 -16 -52 -16q-65 0 -65 53t31 80q21 18 55 18q63 0 63 -53zM356 0h-333q-29 0 -29 18q0 7 6 31q8 27 41 27h111l294 1380h-122q-29 0 -29 19q0 6 6 30q8 27 41 27h170q29 0 29 -27q0 -11 -9 -47l-294 -1382h135q28 0 28 -21q0 -12 -6 -30
q-4 -15 -12 -20t-27 -5z" />
    <glyph glyph-name="Lslash" unicode="&#x141;" horiz-adv-x="1144" 
d="M997 0h-921q-29 0 -29 18q0 11 6 35q8 27 41 27h117l104 491l-174 -98q-8 -6 -20 -6t-27 27q-10 18 -10 28q0 12 16 23l240 133l147 688h-133q-28 0 -28 18q0 11 6 35q8 27 41 27h348q29 0 29 -21q0 -13 -7 -34q-5 -15 -12 -20t-26 -5h-125l-136 -629l318 178q12 7 22 7
q13 0 27 -23q12 -21 12 -29q0 -12 -16 -22l-385 -217l-117 -551h639l43 162q6 28 31 28h33q24 0 24 -24q0 -8 -43 -201q-4 -17 -6.5 -24.5t-9.5 -14t-19 -6.5z" />
    <glyph glyph-name="lslash" unicode="&#x142;" horiz-adv-x="540" 
d="M356 0h-333q-29 0 -29 18q0 9 6 33q8 27 41 27h111l118 557l-127 -68q-12 -6 -22 -6q-2 0 -4 0.5t-4 2.5t-3.5 3t-3.5 4l-3 4.5t-3.5 5.5t-3.5 5q-10 15 -10 28q0 14 18 23l189 100l153 717h-122q-29 0 -29 19q0 8 6 32q8 27 41 27h170q29 0 29 -27q0 -11 -9 -47
l-143 -670l135 72q12 6 23 6q13 0 26 -28q9 -18 9 -25q0 -12 -17 -22l-198 -105l-129 -608h135q28 0 28 -21q0 -14 -6 -32q-4 -15 -12 -20t-27 -5z" />
    <glyph glyph-name="Nacute" unicode="&#x143;" horiz-adv-x="1505" 
d="M426 0h-350q-29 0 -29 18q0 11 6 35q8 27 41 27h121l270 1286h-131q-28 0 -28 18q0 11 6 35q8 27 41 27h190q8 0 17 -6t12 -13q437 -1045 524 -1273q51 268 254 1212h-141q-29 0 -29 18q0 11 6 35q8 27 41 27h348q29 0 29 -21q0 -16 -6 -34q-4 -15 -12 -20t-27 -5h-119
l-282 -1337q-8 -35 -41 -35h-19q-29 0 -41 31q-473 1146 -518 1269q-49 -261 -254 -1214h137q29 0 29 -21q0 -16 -6 -34q-4 -15 -12 -20t-27 -5zM938 1581q-23 -18 -51 -18h-37q-23 0 -23 20q0 15 17 29l317 229q24 21 49 21h70q11 0 18 -6t7 -15q0 -17 -21 -33z" />
    <glyph glyph-name="nacute" unicode="&#x144;" horiz-adv-x="1234" 
d="M383 0h-334q-29 0 -29 18q0 3 7 31q9 29 41 29h110l180 848h-122q-29 0 -29 18q0 9 6 33q8 27 41 27h170q31 0 31 -25q0 -16 -17 -88q24 49 93.5 82t140.5 44t141 11q51 0 93 -8t78 -26.5t56.5 -52.5t20.5 -81q0 -56 -23 -174l-131 -608h127q31 0 31 -19q0 -15 -6 -36
q-4 -15 -12 -19t-27 -4h-178q-29 0 -29 23q0 6 4 30l137 645q17 78 17 133q0 65 -47 90t-133 25q-198 0 -308 -69q-31 -19 -45 -41q-15 -22 -24 -64l-150 -694h135q29 0 29 -21q0 -14 -6 -32q-4 -15 -12 -20t-27 -5zM733 1206q-18 -18 -41 -18h-33q-18 0 -18 18q0 11 10 21
l260 282q18 21 41 21h68q20 0 20 -19q0 -10 -18 -28z" />
    <glyph glyph-name="Ncommaaccent" unicode="&#x145;" horiz-adv-x="1505" 
d="M426 0h-350q-29 0 -29 18q0 11 6 35q8 27 41 27h121l270 1286h-131q-28 0 -28 18q0 11 6 35q8 27 41 27h190q8 0 17 -6t12 -13q437 -1045 524 -1273q51 268 254 1212h-141q-29 0 -29 18q0 11 6 35q8 27 41 27h348q29 0 29 -21q0 -16 -6 -34q-4 -15 -12 -20t-27 -5h-119
l-282 -1337q-8 -35 -41 -35h-19q-29 0 -41 31q-473 1146 -518 1269q-49 -261 -254 -1214h137q29 0 29 -21q0 -16 -6 -34q-4 -15 -12 -20t-27 -5zM692 -147q29 0 29 -31q0 -25 -23 -96q-56 -159 -161 -244q-20 -17 -33 -17q-10 0 -27 13q-12 12 -12 22q0 11 18 29
q47 47 84.5 120.5t48.5 157.5q7 46 41 46h35z" />
    <glyph glyph-name="ncommaaccent" unicode="&#x146;" horiz-adv-x="1234" 
d="M383 0h-334q-29 0 -29 18q0 3 7 31q9 29 41 29h110l180 848h-122q-29 0 -29 18q0 9 6 33q8 27 41 27h170q31 0 31 -25q0 -16 -17 -88q24 49 93.5 82t140.5 44t141 11q51 0 93 -8t78 -26.5t56.5 -52.5t20.5 -81q0 -56 -23 -174l-131 -608h127q31 0 31 -19q0 -15 -6 -36
q-4 -15 -12 -19t-27 -4h-178q-29 0 -29 23q0 6 4 30l137 645q17 78 17 133q0 65 -47 90t-133 25q-198 0 -308 -69q-31 -19 -45 -41q-15 -22 -24 -64l-150 -694h135q29 0 29 -21q0 -14 -6 -32q-4 -15 -12 -20t-27 -5zM573 -147q29 0 29 -31q0 -28 -22 -96q-56 -157 -162 -244
q-20 -17 -33 -17q-10 0 -27 13q-12 12 -12 22q0 5 2 9.5t4 7t7 7t6 5.5q47 47 84.5 120.5t48.5 157.5q7 46 41 46h34z" />
    <glyph glyph-name="Ncaron" unicode="&#x147;" horiz-adv-x="1505" 
d="M426 0h-350q-29 0 -29 18q0 11 6 35q8 27 41 27h121l270 1286h-131q-28 0 -28 18q0 11 6 35q8 27 41 27h190q8 0 17 -6t12 -13q437 -1045 524 -1273q51 268 254 1212h-141q-29 0 -29 18q0 11 6 35q8 27 41 27h348q29 0 29 -21q0 -16 -6 -34q-4 -15 -12 -20t-27 -5h-119
l-282 -1337q-8 -35 -41 -35h-19q-29 0 -41 31q-473 1146 -518 1269q-49 -261 -254 -1214h137q29 0 29 -21q0 -16 -6 -34q-4 -15 -12 -20t-27 -5zM1239 1843h37q18 0 18 -18q0 -13 -16 -29l-256 -209q-31 -24 -55 -24h-25q-21 0 -41 20l-186 215q-8 12 -8 23q0 22 26 22h21
q20 0 45 -22l170 -158l221 156q33 24 49 24z" />
    <glyph glyph-name="ncaron" unicode="&#x148;" horiz-adv-x="1234" 
d="M383 0h-334q-29 0 -29 18q0 3 7 31q9 29 41 29h110l180 848h-122q-29 0 -29 18q0 9 6 33q8 27 41 27h170q31 0 31 -25q0 -16 -17 -88q24 49 93.5 82t140.5 44t141 11q51 0 93 -8t78 -26.5t56.5 -52.5t20.5 -81q0 -56 -23 -174l-131 -608h127q31 0 31 -19q0 -15 -6 -36
q-4 -15 -12 -19t-27 -4h-178q-29 0 -29 23q0 6 4 30l137 645q17 78 17 133q0 65 -47 90t-133 25q-198 0 -308 -69q-31 -19 -45 -41q-15 -22 -24 -64l-150 -694h135q29 0 29 -21q0 -14 -6 -32q-4 -15 -12 -20t-27 -5zM1014 1530h28q19 0 19 -19q0 -11 -17 -28l-260 -291
q-22 -25 -51 -25h-26q-25 0 -35 21l-146 299q-6 18 -6 24q0 9 7.5 14t17.5 5h16q24 0 37 -23l137 -243l236 239q27 27 43 27z" />
    <glyph glyph-name="napostrophe" unicode="&#x149;" horiz-adv-x="1234" 
d="M383 0h-334q-29 0 -29 18q0 3 7 31q9 29 41 29h110l180 848h-122q-29 0 -29 18q0 9 6 33q8 27 41 27h170q31 0 31 -25q0 -16 -17 -88q24 49 93.5 82t140.5 44t141 11q51 0 93 -8t78 -26.5t56.5 -52.5t20.5 -81q0 -56 -23 -174l-131 -608h127q31 0 31 -19q0 -15 -6 -36
q-4 -15 -12 -19t-27 -4h-178q-29 0 -29 23q0 6 4 30l137 645q17 78 17 133q0 65 -47 90t-133 25q-198 0 -308 -69q-31 -19 -45 -41q-15 -22 -24 -64l-150 -694h135q29 0 29 -21q0 -14 -6 -32q-4 -15 -12 -20t-27 -5zM551 1581q29 0 29 -31q0 -25 -23 -96q-56 -157 -162 -244
q-19 -16 -33 -16q-10 0 -26 12q-12 12 -12 23q0 5 2 9.5t3.5 6.5t6.5 6.5t6 5.5q47 47 84.5 121t48.5 158q7 45 41 45h35z" />
    <glyph glyph-name="Eng" unicode="&#x14a;" horiz-adv-x="1505" 
d="M426 0h-350q-29 0 -29 18q0 9 6 33q9 29 41 29h121l270 1286h-131q-28 0 -28 18q0 11 6 35q8 27 41 27h190q8 0 17 -6t12 -13q411 -980 524 -1273q51 268 254 1212h-141q-29 0 -29 18q0 11 6 35q8 27 41 27h348q29 0 29 -21q0 -14 -6 -32q-5 -15 -13 -21t-26 -6h-119
l-313 -1491q-17 -79 -26.5 -114t-30.5 -76t-52 -68q-81 -68 -243 -68q-44 0 -78 5q-23 4 -23 22q0 15 6 39q6 23 33 23q2 0 13 -1t31 -2.5t42 -1.5q107 0 156 41q30 24 46.5 67t37.5 134l28 123q-467 1131 -528 1298q-52 -277 -254 -1216h137q29 0 29 -21q0 -16 -6 -34
q-4 -15 -12 -20t-27 -5z" />
    <glyph glyph-name="eng" unicode="&#x14b;" horiz-adv-x="1234" 
d="M383 0h-334q-29 0 -29 18q0 3 7 31q8 27 41 27h110l180 852h-122q-29 0 -29 18q0 7 6 31q8 27 41 27h170q31 0 31 -25q0 -16 -17 -88q24 49 93.5 82t140.5 44t141 11q51 0 93 -8t78 -26.5t56.5 -52.5t20.5 -81q0 -56 -23 -174l-168 -797q-22 -103 -47 -156.5t-69 -88.5
q-64 -52 -199 -56q-55 0 -86 4q-25 4 -25 23q0 13 9 37q8 18 32 18q3 0 15.5 -1t33.5 -2t44 -1q74 0 116 31q32 24 52 68t38 122l170 811q17 78 17 133q0 65 -47 90t-133 25q-198 0 -308 -69q-31 -19 -45 -41q-15 -22 -24 -64l-150 -696h135q29 0 29 -21q0 -12 -6 -30
q-4 -15 -12 -20t-27 -5z" />
    <glyph glyph-name="Omacron" unicode="&#x14c;" horiz-adv-x="1392" 
d="M1348 1049q0 -130 -25.5 -291t-86 -334.5t-142.5 -271.5q-80 -95 -189.5 -137t-263.5 -42q-90 0 -159 11.5t-130.5 40.5t-101.5 76.5t-63 123t-23 176.5q0 140 27.5 303.5t94.5 336.5t160 272q141 149 420 149q94 0 162.5 -9t132 -35.5t102.5 -71.5t62 -119.5t23 -177.5z
M1253 1038q0 103 -22 169t-72.5 104t-121.5 52.5t-181 14.5q-237 0 -352 -129q-78 -86 -136 -242.5t-83 -310t-25 -282.5q0 -103 23 -171.5t73.5 -109.5t123 -57.5t179.5 -16.5q129 0 216 33.5t153 118.5q70 88 123.5 249.5t77.5 312.5t24 265zM1188 1642h-502q-24 0 -24 21
q0 16 8 43q5 16 11.5 21.5t23.5 5.5h497q27 0 27 -21q0 -19 -8 -47q-5 -14 -11.5 -18.5t-21.5 -4.5z" />
    <glyph glyph-name="omacron" unicode="&#x14d;" horiz-adv-x="1101" 
d="M1020 735q0 -114 -43 -300.5t-113 -295.5q-109 -166 -375 -166q-68 0 -121.5 8t-103 29t-82 56.5t-52 93t-19.5 135.5q0 136 49.5 318.5t136.5 283.5q116 135 344 135q69 0 118 -5t102 -22.5t85 -49t53 -87t21 -133.5zM932 721q0 60 -16 103t-42 68t-67.5 39t-83 18.5
t-98.5 4.5q-172 0 -267 -112q-71 -85 -114 -260t-43 -283q0 -141 73.5 -193.5t227.5 -52.5q215 0 301 148q53 91 91 260t38 260zM934 1268h-469q-25 0 -25 20q0 13 9 43q5 16 11.5 21.5t22.5 5.5h465q27 0 27 -21q0 -19 -8 -47q-4 -13 -11 -17.5t-22 -4.5z" />
    <glyph glyph-name="Obreve" unicode="&#x14e;" horiz-adv-x="1392" 
d="M1348 1049q0 -130 -25.5 -291t-86 -334.5t-142.5 -271.5q-80 -95 -189.5 -137t-263.5 -42q-90 0 -159 11.5t-130.5 40.5t-101.5 76.5t-63 123t-23 176.5q0 140 27.5 303.5t94.5 336.5t160 272q141 149 420 149q94 0 162.5 -9t132 -35.5t102.5 -71.5t62 -119.5t23 -177.5z
M1253 1038q0 103 -22 169t-72.5 104t-121.5 52.5t-181 14.5q-237 0 -352 -129q-78 -86 -136 -242.5t-83 -310t-25 -282.5q0 -103 23 -171.5t73.5 -109.5t123 -57.5t179.5 -16.5q129 0 216 33.5t153 118.5q70 88 123.5 249.5t77.5 312.5t24 265zM1206 1841q21 0 21 -20
q0 -13 -17 -66q-74 -192 -297 -192q-254 0 -254 206q0 27 7 52q7 20 26 20h25q20 0 20 -20q0 -4 -1 -16.5t-1 -16.5q0 -71 41 -105t137 -34q108 0 162 42.5t78 125.5q7 24 29 24h24z" />
    <glyph glyph-name="obreve" unicode="&#x14f;" horiz-adv-x="1101" 
d="M1020 735q0 -114 -43 -300.5t-113 -295.5q-109 -166 -375 -166q-68 0 -121.5 8t-103 29t-82 56.5t-52 93t-19.5 135.5q0 136 49.5 318.5t136.5 283.5q116 135 344 135q69 0 118 -5t102 -22.5t85 -49t53 -87t21 -133.5zM932 721q0 60 -16 103t-42 68t-67.5 39t-83 18.5
t-98.5 4.5q-172 0 -267 -112q-71 -85 -114 -260t-43 -283q0 -141 73.5 -193.5t227.5 -52.5q215 0 301 148q53 91 91 260t38 260zM993 1462q17 0 17 -20q0 -25 -17 -72q-37 -93 -104 -144.5t-180 -51.5q-120 0 -178 53t-58 143q0 51 6 72q7 20 29 20h16q21 0 21 -18
q0 -3 -1 -20t-1 -21q0 -75 38.5 -109t129.5 -34q99 0 152 48.5t75 135.5q3 18 27 18h28z" />
    <glyph glyph-name="Ohungarumlaut" unicode="&#x150;" horiz-adv-x="1392" 
d="M1348 1049q0 -130 -25.5 -291t-86 -334.5t-142.5 -271.5q-80 -95 -189.5 -137t-263.5 -42q-90 0 -159 11.5t-130.5 40.5t-101.5 76.5t-63 123t-23 176.5q0 140 27.5 303.5t94.5 336.5t160 272q141 149 420 149q94 0 162.5 -9t132 -35.5t102.5 -71.5t62 -119.5t23 -177.5z
M1253 1038q0 103 -22 169t-72.5 104t-121.5 52.5t-181 14.5q-237 0 -352 -129q-78 -86 -136 -242.5t-83 -310t-25 -282.5q0 -103 23 -171.5t73.5 -109.5t123 -57.5t179.5 -16.5q129 0 216 33.5t153 118.5q70 88 123.5 249.5t77.5 312.5t24 265zM739 1581q-23 -18 -51 -18
h-33q-22 0 -22 20q0 16 16 29l295 229q24 21 49 21h60q10 0 17 -6t7 -15q0 -18 -20 -33zM1094 1581q-23 -18 -52 -18h-32q-23 0 -23 20q0 15 17 29l294 229q24 21 50 21h59q11 0 18 -6t7 -15q0 -17 -21 -33z" />
    <glyph glyph-name="ohungarumlaut" unicode="&#x151;" horiz-adv-x="1101" 
d="M1020 735q0 -114 -43 -300.5t-113 -295.5q-109 -166 -375 -166q-68 0 -121.5 8t-103 29t-82 56.5t-52 93t-19.5 135.5q0 136 49.5 318.5t136.5 283.5q116 135 344 135q69 0 118 -5t102 -22.5t85 -49t53 -87t21 -133.5zM932 721q0 60 -16 103t-42 68t-67.5 39t-83 18.5
t-98.5 4.5q-172 0 -267 -112q-71 -85 -114 -260t-43 -283q0 -141 73.5 -193.5t227.5 -52.5q215 0 301 148q53 91 91 260t38 260zM567 1206q-18 -18 -37 -18h-32q-19 0 -19 18q0 11 10 21l242 282q18 21 41 21h57q21 0 21 -19q0 -9 -19 -28zM858 1206q-18 -18 -37 -18h-33
q-18 0 -18 18q0 11 10 21l242 282q18 21 41 21h57q21 0 21 -19q0 -9 -19 -28z" />
    <glyph glyph-name="OE" unicode="&#x152;" horiz-adv-x="1982" 
d="M1759 0h-772q-215 -25 -330 -25q-254 0 -372.5 114t-118.5 339q0 220 77 463t218 387q183 186 522 186q183 0 301 -18h698q21 0 21 -23q0 -10 -37 -223q-5 -24 -29 -24h-32q-25 0 -25 24q0 5 18 166h-550l-121 -569h506q30 0 30 -21q0 -11 -6 -35q-4 -16 -13 -21t-28 -5
h-508l-133 -635h641l45 162q6 28 31 28h33q24 0 24 -24q0 -14 -43 -201q-5 -24 -14 -34.5t-33 -10.5zM983 84l272 1278q-82 16 -313 16q-269 0 -426 -168q-118 -128 -186 -347.5t-68 -416.5q0 -200 98 -292.5t297 -92.5q176 0 326 23z" />
    <glyph glyph-name="oe" unicode="&#x153;" horiz-adv-x="1800" 
d="M983 485q-14 -88 -14 -153q0 -159 72.5 -219t238.5 -60q148 0 272 43q37 13 45 13q11 0 19 -15q8 -20 8 -31q0 -12 -8 -19t-29 -15q-137 -56 -330 -56q-163 0 -248 57t-112 173q-99 -230 -408 -230q-68 0 -121.5 8t-103 29t-82 56.5t-52 93t-19.5 135.5q0 84 18 191
t61.5 224.5t102.5 186.5q116 135 352 135q62 0 105.5 -3.5t91 -17t78 -36.5t54.5 -64.5t32 -99.5q121 221 428 221q163 0 237 -67t74 -195q0 -103 -23 -215q-11 -48 -22 -59t-41 -11h-676zM930 721q0 60 -15.5 103t-40.5 68t-65.5 39t-81.5 18.5t-98 4.5q-182 0 -275 -110
q-71 -85 -112 -260t-41 -285q0 -73 19.5 -122t59.5 -76t92 -37.5t128 -10.5q106 0 182.5 31.5t122.5 112.5q53 92 89 261.5t36 262.5zM997 561h635q25 105 25 193q0 99 -51 148.5t-187 49.5q-170 0 -260 -73q-110 -92 -162 -318z" />
    <glyph glyph-name="Racute" unicode="&#x154;" horiz-adv-x="1331" 
d="M426 0h-350q-29 0 -29 18q0 11 6 35q8 27 41 27h117l274 1286h-131q-28 0 -28 18q0 11 6 35q8 27 41 27h444q218 0 309 -39q75 -32 115.5 -105t40.5 -157q0 -196 -104 -318.5t-304 -154.5l228 -551q10 -27 23.5 -34t48.5 -7h90q28 0 28 -21q0 -16 -6 -34q-4 -15 -12 -20
t-27 -5h-121q-50 0 -70 13t-34 50l-242 601q-49 -5 -121 -5h-231l-125 -579h139q29 0 29 -21q0 -16 -6 -34q-4 -15 -12 -20t-27 -5zM446 743h242q193 0 291 39q205 81 205 342q0 72 -29.5 128.5t-75.5 78.5q-68 35 -276 35h-225zM842 1581q-23 -18 -51 -18h-37q-23 0 -23 20
q0 15 17 29l317 229q24 21 49 21h70q10 0 17 -6t7 -15q0 -18 -20 -33z" />
    <glyph glyph-name="racute" unicode="&#x155;" horiz-adv-x="782" 
d="M424 0h-375q-29 0 -29 18q0 5 7 33q8 27 41 27h110l180 848h-122q-29 0 -29 18q0 9 6 33q8 27 41 27h170q31 0 31 -25q0 -8 -17 -88q28 60 122 98.5t194 38.5q34 0 57 -4q18 -3 18 -25q0 -20 -8 -41q-7 -20 -28 -20q-1 0 -29 1t-49 1q-65 0 -128.5 -20t-103.5 -46
q-36 -22 -51 -53q-15 -30 -22 -71l-146 -672h176q29 0 29 -21q0 -14 -6 -32q-4 -15 -12 -20t-27 -5zM592 1206q-18 -18 -41 -18h-33q-18 0 -18 18q0 11 10 21l260 282q18 21 41 21h68q20 0 20 -19q0 -10 -18 -28z" />
    <glyph glyph-name="Rcommaaccent" unicode="&#x156;" horiz-adv-x="1331" 
d="M426 0h-350q-29 0 -29 18q0 11 6 35q8 27 41 27h117l274 1286h-131q-28 0 -28 18q0 11 6 35q8 27 41 27h444q218 0 309 -39q75 -32 115.5 -105t40.5 -157q0 -196 -104 -318.5t-304 -154.5l228 -551q10 -27 23.5 -34t48.5 -7h90q28 0 28 -21q0 -16 -6 -34q-4 -15 -12 -20
t-27 -5h-121q-50 0 -70 13t-34 50l-242 601q-49 -5 -121 -5h-231l-125 -579h139q29 0 29 -21q0 -16 -6 -34q-4 -15 -12 -20t-27 -5zM446 743h242q193 0 291 39q205 81 205 342q0 72 -29.5 128.5t-75.5 78.5q-68 35 -276 35h-225zM647 -147q29 0 29 -31q0 -25 -23 -96
q-56 -159 -161 -244q-20 -17 -33 -17q-10 0 -27 13q-12 12 -12 22q0 11 18 29q47 47 84.5 120.5t48.5 157.5q7 46 41 46h35z" />
    <glyph glyph-name="rcommaaccent" unicode="&#x157;" horiz-adv-x="782" 
d="M424 0h-375q-29 0 -29 18q0 5 7 33q8 27 41 27h110l180 848h-122q-29 0 -29 18q0 9 6 33q8 27 41 27h170q31 0 31 -25q0 -8 -17 -88q28 60 122 98.5t194 38.5q34 0 57 -4q18 -3 18 -25q0 -20 -8 -41q-7 -20 -28 -20q-1 0 -29 1t-49 1q-65 0 -128.5 -20t-103.5 -46
q-36 -22 -51 -53q-15 -30 -22 -71l-146 -672h176q29 0 29 -21q0 -14 -6 -32q-4 -15 -12 -20t-27 -5zM213 -147q29 0 29 -31q0 -25 -23 -96q-56 -157 -162 -244q-20 -17 -32 -17q-10 0 -27 13q-12 12 -12 22q0 11 18 29q47 47 84.5 120.5t48.5 157.5q7 46 41 46h35z" />
    <glyph glyph-name="Rcaron" unicode="&#x158;" horiz-adv-x="1331" 
d="M426 0h-350q-29 0 -29 18q0 11 6 35q8 27 41 27h117l274 1286h-131q-28 0 -28 18q0 11 6 35q8 27 41 27h444q218 0 309 -39q75 -32 115.5 -105t40.5 -157q0 -196 -104 -318.5t-304 -154.5l228 -551q10 -27 23.5 -34t48.5 -7h90q28 0 28 -21q0 -16 -6 -34q-4 -15 -12 -20
t-27 -5h-121q-50 0 -70 13t-34 50l-242 601q-49 -5 -121 -5h-231l-125 -579h139q29 0 29 -21q0 -16 -6 -34q-4 -15 -12 -20t-27 -5zM446 743h242q193 0 291 39q205 81 205 342q0 72 -29.5 128.5t-75.5 78.5q-68 35 -276 35h-225zM1104 1843h37q18 0 18 -18q0 -13 -16 -29
l-256 -209q-31 -24 -56 -24h-24q-21 0 -41 20l-186 215q-9 13 -9 23q0 22 27 22h20q21 0 46 -22l170 -158l221 156q33 24 49 24z" />
    <glyph glyph-name="rcaron" unicode="&#x159;" horiz-adv-x="782" 
d="M424 0h-375q-29 0 -29 18q0 5 7 33q8 27 41 27h110l180 848h-122q-29 0 -29 18q0 9 6 33q8 27 41 27h170q31 0 31 -25q0 -8 -17 -88q28 60 122 98.5t194 38.5q34 0 57 -4q18 -3 18 -25q0 -20 -8 -41q-7 -20 -28 -20q-1 0 -29 1t-49 1q-65 0 -128.5 -20t-103.5 -46
q-36 -22 -51 -53q-15 -30 -22 -71l-146 -672h176q29 0 29 -21q0 -14 -6 -32q-4 -15 -12 -20t-27 -5zM842 1530h28q19 0 19 -19q0 -11 -17 -28l-260 -291q-22 -25 -51 -25h-26q-25 0 -35 21l-146 299q-6 18 -6 24q0 9 7.5 14t17.5 5h16q24 0 37 -23l137 -243l236 239
q27 27 43 27z" />
    <glyph glyph-name="Sacute" unicode="&#x15a;" horiz-adv-x="1116" 
d="M82 90v207q0 33 29 33h30q23 0 27 -29l12 -174q135 -66 316 -66q96 0 168.5 14.5t131 49.5t89 98.5t30.5 155.5q0 31 -3.5 54.5t-17.5 56t-39 59.5t-72.5 58t-114.5 57l-172 69q-111 45 -169.5 132.5t-58.5 199.5q0 211 134.5 309.5t379.5 98.5q174 0 308 -46
q17 -6 22.5 -12t5.5 -20q0 -19 -26 -217q-3 -25 -29 -25h-33q-24 0 -24 25q0 10 10 174q-131 34 -258 34q-95 0 -163.5 -14.5t-122 -49.5t-80.5 -98.5t-27 -156.5q0 -92 52 -159t185 -120l148 -59q136 -53 199 -136.5t63 -201.5q0 -418 -525 -418q-215 0 -372 74
q-17 7 -25 16t-8 27zM764 1581q-23 -18 -51 -18h-37q-23 0 -23 20q0 15 17 29l317 229q24 21 49 21h70q10 0 17 -6t7 -15q0 -18 -20 -33z" />
    <glyph glyph-name="sacute" unicode="&#x15b;" horiz-adv-x="833" 
d="M45 61v179q1 20 9 27t26 7h14q28 0 31 -26l12 -158q78 -37 197 -37q101 0 157 17t89 51q55 58 55 149q0 29 -4.5 48t-20.5 42.5t-53 45t-96 43.5l-135 51q-81 29 -126.5 86t-45.5 127q0 71 26 135t80 106q96 74 299 74q97 0 211 -27q29 -7 29 -38q0 -15 -21 -191
q-3 -24 -30 -24h-25q-23 0 -23 26q0 28 7 158q-71 18 -170 18q-163 0 -224 -49q-71 -59 -71 -172q0 -52 38 -94.5t136 -79.5l123 -45q89 -34 137.5 -85t48.5 -134q0 -137 -86 -223q-50 -50 -126 -72.5t-194 -22.5q-64 0 -133 13t-112 34q-29 14 -29 41zM541 1206
q-18 -18 -41 -18h-33q-18 0 -18 18q0 11 10 21l260 282q18 21 41 21h67q21 0 21 -19q0 -9 -19 -28z" />
    <glyph glyph-name="Scircumflex" unicode="&#x15c;" horiz-adv-x="1116" 
d="M82 90v207q0 33 29 33h30q23 0 27 -29l12 -174q135 -66 316 -66q96 0 168.5 14.5t131 49.5t89 98.5t30.5 155.5q0 31 -3.5 54.5t-17.5 56t-39 59.5t-72.5 58t-114.5 57l-172 69q-111 45 -169.5 132.5t-58.5 199.5q0 211 134.5 309.5t379.5 98.5q174 0 308 -46
q17 -6 22.5 -12t5.5 -20q0 -19 -26 -217q-3 -25 -29 -25h-33q-24 0 -24 25q0 10 10 174q-131 34 -258 34q-95 0 -163.5 -14.5t-122 -49.5t-80.5 -98.5t-27 -156.5q0 -92 52 -159t185 -120l148 -59q136 -53 199 -136.5t63 -201.5q0 -418 -525 -418q-215 0 -372 74
q-17 7 -25 16t-8 27zM571 1563h-36q-19 0 -19 18q0 13 16 29l256 209q31 24 56 24h24q21 0 41 -20l187 -215q8 -12 8 -23q0 -22 -27 -22h-20q-20 0 -45 22l-170 158l-221 -156q-33 -24 -50 -24z" />
    <glyph glyph-name="scircumflex" unicode="&#x15d;" horiz-adv-x="833" 
d="M45 61v179q1 20 9 27t26 7h14q28 0 31 -26l12 -158q78 -37 197 -37q101 0 157 17t89 51q55 58 55 149q0 29 -4.5 48t-20.5 42.5t-53 45t-96 43.5l-135 51q-81 29 -126.5 86t-45.5 127q0 71 26 135t80 106q96 74 299 74q97 0 211 -27q29 -7 29 -38q0 -15 -21 -191
q-3 -24 -30 -24h-25q-23 0 -23 26q0 28 7 158q-71 18 -170 18q-163 0 -224 -49q-71 -59 -71 -172q0 -52 38 -94.5t136 -79.5l123 -45q89 -34 137.5 -85t48.5 -134q0 -137 -86 -223q-50 -50 -126 -72.5t-194 -22.5q-64 0 -133 13t-112 34q-29 14 -29 41zM360 1167h-28
q-19 0 -19 19q0 11 17 28l260 291q22 25 51 25h27q24 0 34 -21l146 -299q6 -18 6 -24q0 -9 -7.5 -14t-17.5 -5h-16q-24 0 -37 23l-137 244l-236 -240q-27 -27 -43 -27z" />
    <glyph glyph-name="Scedilla" unicode="&#x15e;" horiz-adv-x="1116" 
d="M461 -139q178 0 178 -146q0 -110 -65 -159.5t-191 -49.5q-64 0 -94 13q-19 5 -19 22q0 7 6 31q6 22 29 22q10 0 25 -6q40 -8 69 -8q72 0 111 26t39 93q0 86 -103 86q-8 0 -24.5 -1t-18.5 -1q-28 0 -28 31q0 11 14 55l37 106q-182 9 -311 72q-17 7 -25 16t-8 27v207
q0 33 29 33h30q23 0 27 -29l12 -174q135 -66 316 -66q96 0 168.5 14.5t131 49.5t89 98.5t30.5 155.5q0 31 -3.5 54.5t-17.5 56t-39 59.5t-72.5 58t-114.5 57l-172 69q-111 45 -169.5 132.5t-58.5 199.5q0 211 134.5 309.5t379.5 98.5q174 0 308 -46q17 -6 22.5 -12t5.5 -20
q0 -19 -26 -217q-3 -25 -29 -25h-33q-24 0 -24 25q0 10 10 174q-131 34 -258 34q-95 0 -163.5 -14.5t-122 -49.5t-80.5 -98.5t-27 -156.5q0 -92 52 -159t185 -120l148 -59q136 -53 199 -136.5t63 -201.5q0 -415 -516 -418z" />
    <glyph glyph-name="scedilla" unicode="&#x15f;" horiz-adv-x="833" 
d="M317 -135q175 0 175 -139q0 -107 -63.5 -155t-186.5 -48q-64 0 -92 12q-17 6 -17 21q0 6 6 30q6 21 27 21q4 0 24 -4q45 -9 68 -9q70 0 107.5 24.5t37.5 90.5q0 84 -100 84q-7 0 -23 -1t-18 -1q-29 0 -29 29q0 10 15 53l35 102q-131 7 -209 45q-29 14 -29 41v179
q1 20 9 27t26 7h14q28 0 31 -26l12 -158q78 -37 197 -37q101 0 157 17t89 51q55 58 55 149q0 29 -4.5 48t-20.5 42.5t-53 45t-96 43.5l-135 51q-81 29 -126.5 86t-45.5 127q0 71 26 135t80 106q96 74 299 74q97 0 211 -27q29 -7 29 -38q0 -15 -21 -191q-3 -24 -30 -24h-25
q-23 0 -23 26q0 28 7 158q-71 18 -170 18q-163 0 -224 -49q-71 -59 -71 -172q0 -52 38 -94.5t136 -79.5l123 -45q89 -34 137.5 -85t48.5 -134q0 -137 -86 -223q-89 -89 -289 -95z" />
    <glyph glyph-name="Scaron" unicode="&#x160;" horiz-adv-x="1116" 
d="M82 90v207q0 33 29 33h30q23 0 27 -29l12 -174q135 -66 316 -66q96 0 168.5 14.5t131 49.5t89 98.5t30.5 155.5q0 31 -3.5 54.5t-17.5 56t-39 59.5t-72.5 58t-114.5 57l-172 69q-111 45 -169.5 132.5t-58.5 199.5q0 211 134.5 309.5t379.5 98.5q174 0 308 -46
q17 -6 22.5 -12t5.5 -20q0 -19 -26 -217q-3 -25 -29 -25h-33q-24 0 -24 25q0 10 10 174q-131 34 -258 34q-95 0 -163.5 -14.5t-122 -49.5t-80.5 -98.5t-27 -156.5q0 -92 52 -159t185 -120l148 -59q136 -53 199 -136.5t63 -201.5q0 -418 -525 -418q-215 0 -372 74
q-17 7 -25 16t-8 27zM1042 1843h37q19 0 19 -18q0 -12 -17 -29l-256 -209q-31 -24 -55 -24h-25q-20 0 -40 20l-187 215q-8 12 -8 23q0 22 27 22h20q20 0 45 -22l170 -158l221 156q33 24 49 24z" />
    <glyph glyph-name="scaron" unicode="&#x161;" horiz-adv-x="833" 
d="M45 61v179q1 20 9 27t26 7h14q28 0 31 -26l12 -158q78 -37 197 -37q101 0 157 17t89 51q55 58 55 149q0 29 -4.5 48t-20.5 42.5t-53 45t-96 43.5l-135 51q-81 29 -126.5 86t-45.5 127q0 71 26 135t80 106q96 74 299 74q97 0 211 -27q29 -7 29 -38q0 -15 -21 -191
q-3 -24 -30 -24h-25q-23 0 -23 26q0 28 7 158q-71 18 -170 18q-163 0 -224 -49q-71 -59 -71 -172q0 -52 38 -94.5t136 -79.5l123 -45q89 -34 137.5 -85t48.5 -134q0 -137 -86 -223q-50 -50 -126 -72.5t-194 -22.5q-64 0 -133 13t-112 34q-29 14 -29 41zM842 1530h28
q19 0 19 -19q0 -11 -17 -28l-260 -291q-22 -25 -51 -25h-26q-25 0 -35 21l-146 299q-6 18 -6 24q0 9 7.5 14t17.5 5h16q24 0 37 -23l137 -243l236 239q27 27 43 27z" />
    <glyph glyph-name="uni0162" unicode="&#x162;" horiz-adv-x="1126" 
d="M453 -139q178 0 178 -146q0 -110 -65 -159.5t-191 -49.5q-64 0 -94 13q-19 5 -19 22q0 7 6 31q6 22 29 22q10 0 25 -6q40 -8 69 -8q72 0 111 26t39 93q0 86 -103 86q-8 0 -24.5 -1t-18.5 -1q-28 0 -28 31q0 11 14 55l45 131h-131q-29 0 -29 18q0 11 6 35q8 27 41 27h115
l274 1286h-376l-37 -160q-7 -30 -31 -30h-33q-24 0 -24 24q0 8 37 201q5 28 13 36.5t34 8.5h962q29 0 29 -23q0 -8 -37 -223q-5 -24 -29 -24h-32q-25 0 -25 24q0 7 18 166h-376l-273 -1286h140q28 0 28 -21q0 -16 -6 -34q-4 -15 -12 -20t-27 -5h-149z" />
    <glyph glyph-name="uni0163" unicode="&#x163;" horiz-adv-x="604" 
d="M281 -135q174 0 174 -139q0 -107 -63.5 -155t-186.5 -48q-64 0 -92 12q-17 6 -17 21q0 6 6 30q6 21 27 21q5 0 25 -4q45 -9 67 -9q70 0 108 24.5t38 90.5q0 84 -101 84q-7 0 -23 -1t-18 -1q-28 0 -28 29q0 13 14 53l41 127q-84 27 -84 141q0 47 16 125l142 658h-123
q-25 0 -25 18q0 13 6 37q6 25 37 25h121q47 206 57 245q8 37 33 37h25q20 0 20 -22q0 -17 -4 -33l-47 -227h219q29 0 29 -21q0 -17 -4 -33q-4 -17 -13.5 -21.5t-27.5 -4.5h-217l-144 -670q-12 -66 -12 -100q0 -47 28 -65.5t83 -18.5q34 0 75 7t43 7q16 0 23 -14q6 -15 6 -33
q-6 -22 -35 -29q-65 -18 -153 -18h-9z" />
    <glyph glyph-name="Tcaron" unicode="&#x164;" horiz-adv-x="1126" 
d="M645 0h-350q-29 0 -29 18q0 11 6 35q8 27 41 27h115l274 1286h-376l-37 -160q-7 -30 -31 -30h-33q-24 0 -24 24q0 8 37 201q5 28 13 36.5t34 8.5h962q29 0 29 -23q0 -8 -37 -223q-5 -24 -29 -24h-32q-25 0 -25 24q0 7 18 166h-376l-273 -1286h140q28 0 28 -21
q0 -16 -6 -34q-4 -15 -12 -20t-27 -5zM1065 1843h37q18 0 18 -18q0 -13 -16 -29l-256 -209q-31 -24 -55 -24h-25q-21 0 -41 20l-186 215q-9 13 -9 23q0 22 27 22h21q20 0 45 -22l170 -158l221 156q33 24 49 24z" />
    <glyph glyph-name="tcaron" unicode="&#x165;" horiz-adv-x="604" 
d="M412 924l-148 -678q-12 -66 -12 -101q0 -47 27.5 -65.5t82.5 -18.5q34 0 75.5 7.5t43.5 7.5q15 0 23 -15q6 -15 6 -32q-6 -22 -35 -29q-65 -18 -160 -18q-69 0 -110 35.5t-41 115.5q0 47 16 125l146 666h-123q-25 0 -25 18q0 13 6 37q6 25 37 25h121q47 206 57 245
q8 37 33 37h25q20 0 20 -22q0 -17 -4 -33l-47 -227h219q29 0 29 -21q0 -17 -4 -33q-4 -17 -13.5 -21.5t-27.5 -4.5h-217zM840 1528q28 0 28 -31q0 -28 -22 -96q-56 -157 -162 -244q-19 -16 -33 -16q-10 0 -26 12q-13 13 -13 23q0 5 2 9.5t4 6.5t7 6.5t6 5.5q47 47 84.5 121
t48.5 158q7 45 41 45h35z" />
    <glyph glyph-name="Tbar" unicode="&#x166;" horiz-adv-x="1126" 
d="M657 0h-350q-28 0 -28 18q0 11 6 35q8 27 41 27h114l150 704h-281q-24 0 -24 21q0 16 6 37q5 15 11.5 20.5t23.5 5.5h282l107 498h-377l-37 -160q-7 -30 -31 -30h-32q-25 0 -25 24q0 8 37 201q5 28 13 36.5t34 8.5h963q28 0 28 -23q0 -8 -37 -223q-5 -24 -28 -24h-33
q-25 0 -25 24q0 2 0.5 6t2 15.5t3 27t5.5 47.5t8 70h-377l-107 -498h301q27 0 27 -20q0 -17 -8 -41q-8 -23 -37 -23h-299l-149 -704h139q28 0 28 -21q0 -16 -6 -34q-4 -15 -12 -20t-27 -5z" />
    <glyph glyph-name="tbar" unicode="&#x167;" horiz-adv-x="604" 
d="M412 924l-50 -230h209q27 0 27 -20q0 -7 -6 -31q-5 -22 -37 -22h-209l-80 -375q-12 -66 -12 -101q0 -47 28 -65.5t83 -18.5q34 0 75 7.5t43 7.5q15 0 23 -15q6 -15 6 -32q-6 -22 -35 -29q-65 -18 -160 -18q-69 0 -110 35.5t-41 115.5q0 47 16 125l78 363h-113
q-24 0 -24 20q0 15 4 31q6 22 35 22h114l50 230h-123q-25 0 -25 18q0 13 6 37q6 25 37 25h121q47 206 57 245q8 37 33 37h25q20 0 20 -22q0 -17 -4 -33l-47 -227h219q29 0 29 -21q0 -17 -4 -33q-4 -17 -13.5 -21.5t-27.5 -4.5h-217z" />
    <glyph glyph-name="Utilde" unicode="&#x168;" horiz-adv-x="1486" 
d="M1249 578q-23 -104 -32 -144t-26.5 -103.5t-35.5 -101t-43 -73.5q-69 -100 -177 -142.5t-278 -42.5q-403 0 -403 299q0 102 43 303l168 793h-119q-29 0 -29 18q0 7 7 35q8 27 41 27h348q28 0 28 -21q0 -16 -6 -34q-4 -15 -12 -20t-27 -5h-137l-180 -844
q-27 -132 -27 -233q0 -230 322 -230q74 0 131.5 9t121 41t103.5 88q66 93 115 315l182 854h-153q-29 0 -29 18q0 11 6 35q8 27 41 27h348q29 0 29 -21q0 -16 -6 -34q-4 -15 -12 -20t-27 -5h-105zM692 1599h-20q-21 0 -21 19q0 11 15 41q42 75 83.5 108t98.5 33
q24 0 51.5 -12.5t93.5 -50.5q51 -30 76 -39.5t49 -9.5q30 0 52.5 16.5t52.5 71.5q20 34 37 34h26q23 0 23 -16q0 -17 -11 -39q-42 -89 -84.5 -124.5t-101.5 -35.5q-30 0 -61.5 12t-92.5 46q-60 33 -85.5 44t-43.5 11q-30 0 -51.5 -17t-46.5 -65q-7 -15 -14.5 -21t-24.5 -6z
" />
    <glyph glyph-name="utilde" unicode="&#x169;" horiz-adv-x="1234" 
d="M1001 0h-170q-21 0 -27.5 8t-6.5 21q0 16 10 61q-118 -115 -346 -115q-52 0 -97 9t-85.5 29.5t-64.5 59.5t-24 93q0 48 23 166l129 594h-121q-28 0 -28 18q0 9 6 33q8 27 41 27h170q28 0 28 -21q0 -7 -6 -37l-133 -627q-18 -86 -18 -131q0 -133 208 -133q166 0 281 80
q32 23 45 41q17 29 23 55l149 695h-121q-28 0 -28 18q0 9 6 33q8 27 41 27h164q32 0 32 -25q0 -9 -4 -33l-188 -868h129q29 0 29 -21q0 -11 -7 -32q-4 -15 -12 -20t-27 -5zM479 1247h-20q-21 0 -21 19q0 11 15 41q41 75 80.5 108t93.5 33q24 0 49 -12.5t90 -51.5
q50 -30 73.5 -39.5t47.5 -9.5q29 0 50.5 16.5t49.5 71.5q17 35 35 35h25q22 0 22 -16q0 -19 -10 -39q-40 -89 -81 -124.5t-97 -35.5q-31 0 -62 11t-86 44l-1 1h-1l-1 1h-1l-1 1l-1 1h-1l-1 1h-1l-1 1l-1 1h-1l-2 1q-79 46 -99 49l-10 1q-28 0 -49.5 -17t-44.5 -65
q-7 -15 -14 -21t-23 -6z" />
    <glyph glyph-name="Umacron" unicode="&#x16a;" horiz-adv-x="1486" 
d="M1249 578q-23 -104 -32 -144t-26.5 -103.5t-35.5 -101t-43 -73.5q-69 -100 -177 -142.5t-278 -42.5q-403 0 -403 299q0 102 43 303l168 793h-119q-29 0 -29 18q0 7 7 35q8 27 41 27h348q28 0 28 -21q0 -16 -6 -34q-4 -15 -12 -20t-27 -5h-137l-180 -844
q-27 -132 -27 -233q0 -230 322 -230q74 0 131.5 9t121 41t103.5 88q66 93 115 315l182 854h-153q-29 0 -29 18q0 11 6 35q8 27 41 27h348q29 0 29 -21q0 -16 -6 -34q-4 -15 -12 -20t-27 -5h-105zM1231 1642h-502q-24 0 -24 21q0 16 8 43q5 16 11.5 21.5t23.5 5.5h497
q27 0 27 -21q0 -19 -8 -47q-5 -14 -11.5 -18.5t-21.5 -4.5z" />
    <glyph glyph-name="umacron" unicode="&#x16b;" horiz-adv-x="1234" 
d="M1001 0h-170q-21 0 -27.5 8t-6.5 21q0 16 10 61q-118 -115 -346 -115q-52 0 -97 9t-85.5 29.5t-64.5 59.5t-24 93q0 48 23 166l129 594h-121q-28 0 -28 18q0 9 6 33q8 27 41 27h170q28 0 28 -21q0 -7 -6 -37l-133 -627q-18 -86 -18 -131q0 -133 208 -133q166 0 281 80
q32 23 45 41q17 29 23 55l149 695h-121q-28 0 -28 18q0 9 6 33q8 27 41 27h164q32 0 32 -25q0 -9 -4 -33l-188 -868h129q29 0 29 -21q0 -11 -7 -32q-4 -15 -12 -20t-27 -5zM969 1268h-469q-25 0 -25 20q0 16 8 43q5 16 11.5 21.5t23.5 5.5h465q27 0 27 -21q0 -15 -9 -47
q-4 -13 -10.5 -17.5t-21.5 -4.5z" />
    <glyph glyph-name="Ubreve" unicode="&#x16c;" horiz-adv-x="1486" 
d="M1249 578q-23 -104 -32 -144t-26.5 -103.5t-35.5 -101t-43 -73.5q-69 -100 -177 -142.5t-278 -42.5q-403 0 -403 299q0 102 43 303l168 793h-119q-29 0 -29 18q0 7 7 35q8 27 41 27h348q28 0 28 -21q0 -16 -6 -34q-4 -15 -12 -20t-27 -5h-137l-180 -844
q-27 -132 -27 -233q0 -230 322 -230q74 0 131.5 9t121 41t103.5 88q66 93 115 315l182 854h-153q-29 0 -29 18q0 11 6 35q8 27 41 27h348q29 0 29 -21q0 -16 -6 -34q-4 -15 -12 -20t-27 -5h-105zM1266 1841q20 0 20 -20q0 -16 -16 -66q-74 -192 -297 -192q-254 0 -254 206
q0 31 6 52q7 20 27 20h24q21 0 21 -20q0 -4 -1 -16.5t-1 -16.5q0 -71 41 -105t137 -34q108 0 161.5 42.5t77.5 125.5q7 24 29 24h25z" />
    <glyph glyph-name="ubreve" unicode="&#x16d;" horiz-adv-x="1234" 
d="M1001 0h-170q-21 0 -27.5 8t-6.5 21q0 16 10 61q-118 -115 -346 -115q-52 0 -97 9t-85.5 29.5t-64.5 59.5t-24 93q0 48 23 166l129 594h-121q-28 0 -28 18q0 9 6 33q8 27 41 27h170q28 0 28 -21q0 -7 -6 -37l-133 -627q-18 -86 -18 -131q0 -133 208 -133q166 0 281 80
q32 23 45 41q17 29 23 55l149 695h-121q-28 0 -28 18q0 9 6 33q8 27 41 27h164q32 0 32 -25q0 -9 -4 -33l-188 -868h129q29 0 29 -21q0 -11 -7 -32q-4 -15 -12 -20t-27 -5zM987 1462q17 0 17 -20q0 -25 -17 -72q-78 -196 -285 -196q-120 0 -177.5 53t-57.5 143q0 51 6 72
q7 20 29 20h16q21 0 21 -18q0 -3 -1 -20t-1 -21q0 -75 38.5 -109t129.5 -34q99 0 152 48.5t75 135.5q3 18 26 18h29z" />
    <glyph glyph-name="Uring" unicode="&#x16e;" horiz-adv-x="1486" 
d="M1249 578q-23 -104 -32 -144t-26.5 -103.5t-35.5 -101t-43 -73.5q-69 -100 -177 -142.5t-278 -42.5q-403 0 -403 299q0 102 43 303l168 793h-119q-29 0 -29 18q0 7 7 35q8 27 41 27h348q28 0 28 -21q0 -16 -6 -34q-4 -15 -12 -20t-27 -5h-137l-180 -844
q-27 -132 -27 -233q0 -230 322 -230q74 0 131.5 9t121 41t103.5 88q66 93 115 315l182 854h-153q-29 0 -29 18q0 11 6 35q8 27 41 27h348q29 0 29 -21q0 -16 -6 -34q-4 -15 -12 -20t-27 -5h-105zM1149 1710q0 -94 -54.5 -148.5t-148.5 -54.5q-77 0 -121.5 44t-44.5 122
q0 88 56 143.5t145 55.5q77 0 122.5 -43t45.5 -119zM1081 1708q0 51 -28.5 77.5t-79.5 26.5q-54 0 -91.5 -35t-37.5 -98q0 -55 29 -84.5t81 -29.5q56 0 91.5 36t35.5 107z" />
    <glyph glyph-name="uring" unicode="&#x16f;" horiz-adv-x="1234" 
d="M1001 0h-170q-21 0 -27.5 8t-6.5 21q0 16 10 61q-118 -115 -346 -115q-52 0 -97 9t-85.5 29.5t-64.5 59.5t-24 93q0 48 23 166l129 594h-121q-28 0 -28 18q0 9 6 33q8 27 41 27h170q28 0 28 -21q0 -7 -6 -37l-133 -627q-18 -86 -18 -131q0 -133 208 -133q166 0 281 80
q32 23 45 41q17 29 23 55l149 695h-121q-28 0 -28 18q0 9 6 33q8 27 41 27h164q32 0 32 -25q0 -9 -4 -33l-188 -868h129q29 0 29 -21q0 -11 -7 -32q-4 -15 -12 -20t-27 -5zM920 1397q0 -98 -57 -155.5t-154 -57.5q-80 0 -126 46.5t-46 127.5q0 93 57.5 151t150.5 58
q81 0 128 -44.5t47 -125.5zM852 1395q0 55 -30 83.5t-85 28.5q-58 0 -97.5 -37.5t-39.5 -105.5q0 -59 31 -91t86 -32q61 0 98 38t37 116z" />
    <glyph glyph-name="Uhungarumlaut" unicode="&#x170;" horiz-adv-x="1486" 
d="M1249 578q-23 -104 -32 -144t-26.5 -103.5t-35.5 -101t-43 -73.5q-69 -100 -177 -142.5t-278 -42.5q-403 0 -403 299q0 102 43 303l168 793h-119q-29 0 -29 18q0 7 7 35q8 27 41 27h348q28 0 28 -21q0 -16 -6 -34q-4 -15 -12 -20t-27 -5h-137l-180 -844
q-27 -132 -27 -233q0 -230 322 -230q74 0 131.5 9t121 41t103.5 88q66 93 115 315l182 854h-153q-29 0 -29 18q0 11 6 35q8 27 41 27h348q29 0 29 -21q0 -16 -6 -34q-4 -15 -12 -20t-27 -5h-105zM774 1581q-23 -18 -51 -18h-33q-22 0 -22 20q0 16 16 29l295 229q24 21 49 21
h59q11 0 18 -6t7 -15q0 -18 -20 -33zM1128 1581q-23 -18 -51 -18h-33q-22 0 -22 20q0 16 16 29l295 229q24 21 49 21h60q10 0 17 -6t7 -15q0 -18 -20 -33z" />
    <glyph glyph-name="uhungarumlaut" unicode="&#x171;" horiz-adv-x="1234" 
d="M1001 0h-170q-21 0 -27.5 8t-6.5 21q0 16 10 61q-118 -115 -346 -115q-52 0 -97 9t-85.5 29.5t-64.5 59.5t-24 93q0 48 23 166l129 594h-121q-28 0 -28 18q0 9 6 33q8 27 41 27h170q28 0 28 -21q0 -7 -6 -37l-133 -627q-18 -86 -18 -131q0 -133 208 -133q166 0 281 80
q32 23 45 41q17 29 23 55l149 695h-121q-28 0 -28 18q0 9 6 33q8 27 41 27h164q32 0 32 -25q0 -9 -4 -33l-188 -868h129q29 0 29 -21q0 -11 -7 -32q-4 -15 -12 -20t-27 -5zM590 1206q-18 -18 -37 -18h-33q-18 0 -18 18q0 11 10 21l242 282q18 21 41 21h57q20 0 20 -19
q0 -10 -18 -28zM881 1206q-18 -18 -37 -18h-33q-18 0 -18 18q0 11 10 21l241 282q18 21 41 21h58q20 0 20 -19q0 -10 -18 -28z" />
    <glyph glyph-name="Uogonek" unicode="&#x172;" horiz-adv-x="1486" 
d="M1249 578q-23 -104 -32 -144t-26.5 -103.5t-35.5 -101t-43 -73.5q-63 -94 -159 -136t-244 -47q-181 -126 -181 -256q0 -102 115 -102q26 0 58 5t36 5q19 0 23 -14q4 -20 4 -37q-2 -17 -21 -23q-49 -16 -122 -16q-91 0 -138 43t-47 125q0 83 45.5 147t128.5 123
q-356 16 -356 297q0 102 43 303l168 793h-119q-29 0 -29 18q0 7 7 35q8 27 41 27h348q28 0 28 -21q0 -16 -6 -34q-4 -15 -12 -20t-27 -5h-137l-180 -844q-27 -132 -27 -233q0 -230 322 -230q74 0 131.5 9t121 41t103.5 88q66 93 115 315l182 854h-153q-29 0 -29 18
q0 11 6 35q8 27 41 27h348q29 0 29 -21q0 -16 -6 -34q-4 -15 -12 -20t-27 -5h-105z" />
    <glyph glyph-name="uogonek" unicode="&#x173;" horiz-adv-x="1234" 
d="M1001 0h-94q-217 -129 -217 -266q0 -99 113 -99q25 0 56 5.5t36 5.5q16 0 20 -15q5 -23 5 -34q-2 -14 -19 -21q-49 -16 -121 -16q-87 0 -132.5 41t-45.5 118q0 88 56 155t157 128q-18 4 -18 27q0 16 10 61q-118 -115 -346 -115q-52 0 -97 9t-85.5 29.5t-64.5 59.5t-24 93
q0 48 23 166l129 594h-121q-28 0 -28 18q0 9 6 33q8 27 41 27h170q28 0 28 -21q0 -7 -6 -37l-133 -627q-18 -86 -18 -131q0 -133 208 -133q166 0 281 80q32 23 45 41q17 29 23 55l149 695h-121q-28 0 -28 18q0 9 6 33q8 27 41 27h164q32 0 32 -25q0 -9 -4 -33l-188 -868h129
q29 0 29 -21q0 -11 -7 -32q-4 -15 -12 -20t-27 -5z" />
    <glyph glyph-name="Wcircumflex" unicode="&#x174;" horiz-adv-x="2021" 
d="M500 -6h-23q-30 0 -33 33l-63 1339h-107q-28 0 -28 18q0 11 6 35q8 27 41 27h348q29 0 29 -21q0 -16 -6 -34q-4 -15 -12 -20t-27 -5h-152q18 -377 29.5 -638.5t16.5 -392t7 -179.5q92 191 623 1192q11 24 21 33.5t28 9.5h23q29 0 32 -43q28 -290 52 -534t34 -343
t17.5 -178t11.5 -137q103 233 565 1210h-149q-29 0 -29 18q0 11 6 35q8 27 41 27h348q29 0 29 -21q0 -16 -6 -34q-4 -15 -12 -20t-27 -5h-100l-641 -1339q-10 -21 -19.5 -27t-27.5 -6h-23q-30 0 -33 33q-92 972 -106 1220q-22 -45 -45 -91t-42.5 -85.5t-55 -107.5t-60 -115
t-80.5 -152.5t-92 -174t-120 -227t-142 -267.5q-10 -21 -19.5 -27t-27.5 -6zM1020 1563h-37q-18 0 -18 18q0 13 16 29l256 209q31 24 55 24h25q21 0 41 -20l186 -215q8 -12 8 -23q0 -22 -26 -22h-21q-20 0 -45 22l-170 158l-221 -156q-33 -24 -49 -24z" />
    <glyph glyph-name="wcircumflex" unicode="&#x175;" horiz-adv-x="1603" 
d="M1628 926h-78l-458 -897q-16 -35 -45 -35h-23q-15 0 -22.5 7.5t-10.5 27.5q-100 697 -114 817q-78 -149 -457 -817q-20 -35 -47 -35h-19q-32 0 -35 37l-81 895h-95q-28 0 -28 18q0 9 6 33q8 27 41 27h299q28 0 28 -21q0 -15 -6 -33q-4 -15 -12 -19.5t-27 -4.5h-118
q19 -198 32 -347t17 -197.5t10 -148t6 -104.5q29 53 60.5 110t67.5 119.5t123 217t194 344.5q14 26 25 37.5t30 11.5h18q16 0 23 -12t10 -37q22 -141 44 -284.5t31.5 -204t19.5 -125t14.5 -100t9.5 -77.5q116 245 393 797h-127q-29 0 -29 18q0 5 7 33q8 27 41 27h299
q28 0 28 -21q0 -15 -6 -33q-4 -15 -12 -19.5t-27 -4.5zM735 1167h-28q-19 0 -19 19q0 11 17 28l260 291q22 25 51 25h26q24 0 35 -21l146 -299q6 -18 6 -24q0 -9 -7.5 -14t-17.5 -5h-16q-24 0 -37 23l-137 244l-236 -240q-27 -27 -43 -27z" />
    <glyph glyph-name="Ycircumflex" unicode="&#x176;" horiz-adv-x="1327" 
d="M1470 1366h-116l-606 -721l-121 -565h135q29 0 29 -21q0 -13 -7 -34q-4 -15 -12 -20t-27 -5h-350q-28 0 -28 18q0 11 6 35q8 27 41 27h121l120 565l-303 721h-119q-28 0 -28 18q0 11 6 35q8 27 41 27h348q29 0 29 -21q0 -16 -6 -34q-4 -15 -12 -20t-27 -5h-129
q216 -530 258 -643q123 162 526 643h-119q-28 0 -28 18q0 11 6 35q8 27 41 27h348q29 0 29 -21q0 -13 -7 -34q-4 -15 -12 -20t-27 -5zM659 1563h-36q-19 0 -19 18q0 12 17 29l256 209q31 24 55 24h24q21 0 41 -20l187 -215q8 -12 8 -23q0 -22 -27 -22h-20q-20 0 -45 22
l-170 158l-221 -156q-33 -24 -50 -24z" />
    <glyph glyph-name="ycircumflex" unicode="&#x177;" horiz-adv-x="1040" 
d="M1079 926h-65l-584 -955q-14 -23 -53 -86t-62 -99.5t-54 -83.5t-52 -75q-107 -139 -275 -139q-57 0 -77 4q-31 6 -31 27q0 25 8 41q9 16 29 16q3 0 32 -3t48 -3q59 0 103 22t87 76q47 58 209 322l27 43l-164 893h-78q-29 0 -29 18q0 9 6 33q8 27 41 27h299q29 0 29 -21
q0 -15 -6 -33q-4 -15 -12 -19.5t-27 -4.5h-129q119 -686 137 -797q95 165 475 797h-133q-28 0 -28 18q0 9 6 33q8 27 41 27h299q28 0 28 -21q0 -15 -6 -33q-4 -15 -12 -19.5t-27 -4.5zM420 1167h-29q-18 0 -18 19q0 12 16 28l260 291q22 25 51 25h27q25 0 35 -21l145 -299
q6 -18 6 -24q0 -9 -7 -14t-17 -5h-17q-23 0 -36 23l-138 244l-235 -240q-27 -27 -43 -27z" />
    <glyph glyph-name="Ydieresis" unicode="&#x178;" horiz-adv-x="1327" 
d="M1470 1366h-116l-606 -721l-121 -565h135q29 0 29 -21q0 -13 -7 -34q-4 -15 -12 -20t-27 -5h-350q-28 0 -28 18q0 11 6 35q8 27 41 27h121l120 565l-303 721h-119q-28 0 -28 18q0 11 6 35q8 27 41 27h348q29 0 29 -21q0 -16 -6 -34q-4 -15 -12 -20t-27 -5h-129
q216 -530 258 -643q123 162 526 643h-119q-28 0 -28 18q0 11 6 35q8 27 41 27h348q29 0 29 -21q0 -13 -7 -34q-4 -15 -12 -20t-27 -5zM774 1690q0 -52 -29 -78q-20 -17 -51 -17q-61 0 -61 52t26 75q22 19 56 19q59 0 59 -51zM1147 1690q0 -52 -29 -78q-20 -17 -51 -17
q-61 0 -61 52t26 75q22 19 55 19q60 0 60 -51z" />
    <glyph glyph-name="Zacute" unicode="&#x179;" horiz-adv-x="1206" 
d="M1032 0h-1001q-29 0 -29 23q0 10 4 26q5 15 21 31q373 429 643 740t351 404.5t124 141.5h-760l-39 -164q-6 -26 -29 -26h-32q-25 0 -25 24q0 8 37 201q5 23 15.5 34t37.5 11h907q25 0 25 -19q0 -8 -4 -28q-3 -15 -16 -31q-1025 -1180 -1123 -1288h852l39 164q7 30 35 30
h29q24 0 24 -24q0 -8 -37 -205q-3 -24 -12.5 -34.5t-36.5 -10.5zM793 1581q-23 -18 -52 -18h-36q-23 0 -23 20q0 16 16 29l318 229q24 21 49 21h70q10 0 17 -6t7 -15q0 -18 -20 -33z" />
    <glyph glyph-name="zacute" unicode="&#x17a;" horiz-adv-x="929" 
d="M743 0h-729q-22 0 -22 18q0 13 4 25q3 12 24 35l775 846h-516l-39 -146q-5 -14 -11.5 -19t-21.5 -5h-25q-24 0 -24 20q0 8 39 193q4 21 14 29t31 8h661q31 0 31 -21q0 -10 -2 -18q-5 -18 -25 -41l-776 -846h574l49 155q8 25 34 25h21q22 0 22 -18q0 -13 -47 -203
q-4 -15 -7 -21.5t-11 -11t-23 -4.5zM606 1206q-18 -18 -41 -18h-33q-18 0 -18 18q0 11 10 21l260 282q18 21 41 21h68q20 0 20 -19q0 -10 -18 -28z" />
    <glyph glyph-name="Zdotaccent" unicode="&#x17b;" horiz-adv-x="1206" 
d="M1032 0h-1001q-29 0 -29 23q0 10 4 26q5 15 21 31q373 429 643 740t351 404.5t124 141.5h-760l-39 -164q-6 -26 -29 -26h-32q-25 0 -25 24q0 8 37 201q5 23 15.5 34t37.5 11h907q25 0 25 -19q0 -8 -4 -28q-3 -15 -16 -31q-1025 -1180 -1123 -1288h852l39 164q7 30 35 30
h29q24 0 24 -24q0 -8 -37 -205q-3 -24 -12.5 -34.5t-36.5 -10.5zM893 1690q0 -52 -29 -78q-20 -17 -51 -17q-61 0 -61 52t26 75q22 19 56 19q59 0 59 -51z" />
    <glyph glyph-name="zdotaccent" unicode="&#x17c;" horiz-adv-x="929" 
d="M743 0h-729q-22 0 -22 18q0 13 4 25q3 12 24 35l775 846h-516l-39 -146q-5 -14 -11.5 -19t-21.5 -5h-25q-24 0 -24 20q0 8 39 193q4 21 14 29t31 8h661q31 0 31 -21q0 -10 -2 -18q-5 -18 -25 -41l-776 -846h574l49 155q8 25 34 25h21q22 0 22 -18q0 -13 -47 -203
q-4 -15 -7 -21.5t-11 -11t-23 -4.5zM692 1382q0 -52 -28 -77q-20 -17 -52 -17q-61 0 -61 51q0 52 27 76q22 19 55 19q59 0 59 -52z" />
    <glyph glyph-name="Zcaron" unicode="&#x17d;" horiz-adv-x="1206" 
d="M1032 0h-1001q-29 0 -29 23q0 10 4 26q5 15 21 31q373 429 643 740t351 404.5t124 141.5h-760l-39 -164q-6 -26 -29 -26h-32q-25 0 -25 24q0 8 37 201q5 23 15.5 34t37.5 11h907q25 0 25 -19q0 -8 -4 -28q-3 -15 -16 -31q-1025 -1180 -1123 -1288h852l39 164q7 30 35 30
h29q24 0 24 -24q0 -8 -37 -205q-3 -24 -12.5 -34.5t-36.5 -10.5zM1077 1843h37q19 0 19 -18q0 -12 -17 -29l-256 -209q-31 -24 -55 -24h-25q-21 0 -41 20l-186 215q-8 12 -8 23q0 22 26 22h21q20 0 45 -22l170 -158l221 156q33 24 49 24z" />
    <glyph glyph-name="zcaron" unicode="&#x17e;" horiz-adv-x="929" 
d="M743 0h-729q-22 0 -22 18q0 13 4 25q3 12 24 35l775 846h-516l-39 -146q-5 -14 -11.5 -19t-21.5 -5h-25q-24 0 -24 20q0 8 39 193q4 21 14 29t31 8h661q31 0 31 -21q0 -10 -2 -18q-5 -18 -25 -41l-776 -846h574l49 155q8 25 34 25h21q22 0 22 -18q0 -13 -47 -203
q-4 -15 -7 -21.5t-11 -11t-23 -4.5zM850 1530h29q18 0 18 -19q0 -12 -16 -28l-260 -291q-22 -25 -52 -25h-26q-25 0 -35 21l-146 299q-6 18 -6 24q0 9 7.5 14t17.5 5h16q24 0 37 -23l137 -243l236 239q27 27 43 27z" />
    <glyph glyph-name="longs" unicode="&#x17f;" horiz-adv-x="571" 
d="M367 0h-375q-29 0 -29 18q0 7 6 31q8 27 41 27h125l236 1108q26 119 55.5 186t77.5 107q81 71 223 71q73 0 113 -12q14 -6 14 -23q0 -14 -8 -34q-7 -21 -29 -21q-2 0 -38.5 5t-69.5 5q-117 0 -170 -65q-45 -53 -82 -221l-236 -1106h162q29 0 29 -21q0 -12 -6 -30
q-4 -15 -12 -20t-27 -5z" />
    <glyph glyph-name="florin" unicode="&#x192;" horiz-adv-x="911" 
d="M418 123q-28 -134 -54.5 -195.5t-74.5 -103.5q-80 -72 -232 -72q-61 0 -102 10q-16 5 -16 23q0 11 8 39q7 20 28 20q1 0 35 -4t64 -4q118 0 170 66q46 58 80 217l145 700h-180q-29 0 -29 23q0 14 4 30q4 18 14.5 23.5t30.5 5.5h176l33 152q24 110 55 174t76 108
q77 74 230 74q33 0 90.5 -5t79.5 -11q18 -5 18 -27q0 -6 -27 -209q-3 -24 -28 -24h-33q-25 0 -25 24q0 3 1 14.5t4 51t6 96.5q-49 6 -99 6q-128 0 -178 -70q-46 -62 -80 -213l-30 -141h243q27 0 27 -24q0 -17 -4 -33q-8 -25 -41 -25h-242z" />
    <glyph glyph-name="Aringacute" unicode="&#x1fa;" horiz-adv-x="1357" 
d="M307 0h-350q-29 0 -29 18q0 11 6 35q8 27 41 27h95l764 1325q-84 29 -84 131q0 75 49 122.5t127 47.5q68 0 107.5 -37t39.5 -102q0 -66 -33 -110t-92 -58l201 -1319h94q29 0 29 -21q0 -14 -6 -32q-5 -15 -13 -21t-26 -6h-350q-29 0 -29 18q0 11 6 35q8 27 41 27h160
l-64 418h-575l-244 -418h152q28 0 28 -21q0 -14 -6 -32q-5 -15 -13 -21t-26 -6zM872 1313q-17 -30 -71.5 -129.5t-138 -248t-199.5 -353.5h516q-62 406 -107 731zM1006 1567q0 38 -23.5 59t-62.5 21q-44 0 -74.5 -27t-30.5 -76q0 -44 24 -68t64 -24h4h4q41 2 68 31.5
t27 83.5zM950 1772q-27 -19 -43 -19h-22q-21 0 -21 16q0 13 10 23l224 188q24 21 47 21h51q10 0 16.5 -7t6.5 -16q0 -11 -15 -26z" />
    <glyph glyph-name="aringacute" unicode="&#x1fb;" horiz-adv-x="1183" 
d="M965 0h-172q-33 0 -33 29q0 8 4 33.5t4 29.5q-112 -117 -342 -117q-155 0 -235 74t-80 234q0 165 61.5 348.5t171.5 279.5q129 115 377 115q160 0 240 -53q8 24 15.5 32.5t20.5 8.5h23q24 0 24 -21q0 -8 -4 -28l-190 -887h131q29 0 29 -21q0 -2 -6 -32q-3 -15 -11.5 -20
t-27.5 -5zM801 236l137 659q-31 23 -97 37t-143 14q-190 0 -299 -92q-92 -80 -145 -241t-53 -316q0 -124 59 -184t193 -60q176 0 284 88q28 22 43 45q15 25 21 50zM948 1397q0 -98 -57 -155.5t-154 -57.5q-80 0 -126 46.5t-46 127.5q0 93 58 151t151 58q81 0 127.5 -44.5
t46.5 -125.5zM881 1395q0 55 -30 83.5t-85 28.5q-58 0 -97.5 -37.5t-39.5 -105.5q0 -59 30.5 -91t85.5 -32q61 0 98.5 38t37.5 116zM788 1657q-16 -19 -45 -19h-28q-8 0 -13.5 6t-5.5 13q0 13 11 24l268 279q14 20 43 20h57q21 0 21 -18q0 -14 -15 -29z" />
    <glyph glyph-name="AEacute" unicode="&#x1fc;" horiz-adv-x="2002" 
d="M326 0h-373q-29 0 -29 18q0 9 6 33q9 29 41 29h95l1122 1286h-160q-29 0 -29 18q0 7 7 35q8 27 41 27h944q20 0 26 -6.5t6 -18.5q0 -16 -36 -221q-5 -24 -29 -24h-33q-24 0 -24 24q0 7 18 166h-549l-121 -569h506q31 0 31 -21q0 -13 -6 -37q-4 -16 -13 -21t-28 -5h-508
l-133 -631h643l43 160q6 28 31 28h32q25 0 25 -24q0 -14 -43 -201q-5 -23 -15 -34t-34 -11h-908q-28 0 -28 18q0 9 6 33q9 29 41 29h115l94 438h-547l-371 -438h160q29 0 29 -23q0 -14 -6 -32q-4 -15 -12 -20t-27 -5zM627 602h491l160 754q-155 -192 -651 -754zM1559 1581
q-23 -18 -52 -18h-37q-22 0 -22 20q0 16 16 29l318 229q24 21 49 21h70q10 0 17 -6t7 -15q0 -18 -20 -33z" />
    <glyph glyph-name="aeacute" unicode="&#x1fd;" horiz-adv-x="1734" 
d="M852 137q-38 -36 -69.5 -59.5t-82.5 -50t-119.5 -39.5t-154.5 -13q-155 0 -235 74t-80 234q0 97 23 211.5t77.5 233.5t128.5 183q129 115 381 115q133 0 225 -45l6 18q10 31 33 31h21q22 0 22 -20q0 -4 -10 -54l-19 -84q41 72 141.5 116t217.5 44q321 0 321 -262
q0 -89 -22 -215q-8 -46 -23 -59q-14 -11 -41 -11h-671q-15 -94 -15 -153q0 -158 75.5 -218.5t242.5 -60.5q138 0 262 43q37 13 45 13q10 0 18 -15q9 -23 9 -31q0 -12 -8 -19t-29 -15q-137 -56 -320 -56q-146 0 -231 40t-119 124zM829 209q-4 39 -4 127q0 111 56 354l47 207
q-28 22 -91 35.5t-139 13.5q-194 0 -303 -92q-91 -80 -142.5 -240t-51.5 -317q0 -123 59.5 -183.5t192.5 -60.5q114 0 205 36t171 120zM936 561h631q24 101 24 193q0 48 -10 82.5t-35.5 61.5t-73 40.5t-118.5 13.5q-163 0 -262 -71q-109 -78 -156 -320zM1038 1206
q-18 -18 -41 -18h-32q-19 0 -19 18q0 11 10 21l261 282q18 21 40 21h68q21 0 21 -19q0 -9 -19 -28z" />
    <glyph glyph-name="Oslashacute" unicode="&#x1fe;" horiz-adv-x="1392" 
d="M172 -20q-15 -15 -27 -15q-13 0 -36 21q-13 10 -13 22t13 25l104 123q-49 91 -49 245q0 140 27.5 303.5t94.5 336.5t160 272q141 149 420 149q131 0 223.5 -21t151.5 -75l92 109q17 20 29 20t22 -10q27 -19 27 -33q-3 -13 -10 -22l-109 -127q56 -98 56 -254
q0 -130 -25.5 -291t-86 -334.5t-142.5 -271.5q-80 -95 -189.5 -137t-263.5 -42q-269 0 -379 115zM1253 1038q0 112 -28 185l-899 -1061q46 -55 126.5 -79t206.5 -24q129 0 216 33.5t153 118.5q70 88 123.5 249.5t77.5 312.5t24 265zM260 414q0 -104 25 -174l895 1052
q-45 47 -123.5 66.5t-200.5 19.5q-237 0 -352 -129q-78 -86 -136 -242.5t-83 -310t-25 -282.5zM915 1581q-23 -18 -51 -18h-37q-22 0 -22 20q0 16 16 29l318 229q24 21 49 21h69q11 0 18 -6t7 -15q0 -18 -20 -33z" />
    <glyph glyph-name="oslashacute" unicode="&#x1ff;" horiz-adv-x="1101" 
d="M657 1206q-18 -18 -41 -18h-32q-19 0 -19 18q0 11 10 21l261 282q18 21 41 21h67q21 0 21 -19q0 -9 -19 -28zM139 -43q-14 -14 -24 -14q-13 0 -31 18q-14 14 -14 25q0 10 12 22l76 88q-47 71 -47 199q0 84 18 191t61.5 224.5t102.5 186.5q116 135 348 135q192 0 274 -53
l78 90q12 14 25 14q12 0 24 -10q21 -16 21 -29q0 -11 -10 -24l-82 -94q49 -71 49 -191q0 -116 -41.5 -301.5t-110.5 -294.5q-109 -166 -379 -166q-187 0 -278 68zM932 721q0 75 -27 127l-635 -739q66 -56 232 -56q106 0 182.5 31.5t122.5 112.5q53 92 89 261.5t36 262.5z
M201 299q0 -75 22 -127l631 735q-69 47 -229 47q-180 0 -271 -108q-71 -85 -112 -261t-41 -286z" />
    <glyph glyph-name="uni0218" unicode="&#x218;" horiz-adv-x="1116" 
d="M82 90v207q0 33 29 33h30q23 0 27 -29l12 -174q135 -66 316 -66q96 0 168.5 14.5t131 49.5t89 98.5t30.5 155.5q0 31 -3.5 54.5t-17.5 56t-39 59.5t-72.5 58t-114.5 57l-172 69q-111 45 -169.5 132.5t-58.5 199.5q0 211 134.5 309.5t379.5 98.5q174 0 308 -46
q17 -6 22.5 -12t5.5 -20q0 -19 -26 -217q-3 -25 -29 -25h-33q-24 0 -24 25q0 10 10 174q-131 34 -258 34q-95 0 -163.5 -14.5t-122 -49.5t-80.5 -98.5t-27 -156.5q0 -92 52 -159t185 -120l148 -59q136 -53 199 -136.5t63 -201.5q0 -418 -525 -418q-215 0 -372 74
q-17 7 -25 16t-8 27zM518 -147q29 0 29 -31q0 -25 -23 -96q-56 -157 -162 -244q-20 -17 -32 -17q-10 0 -27 13q-12 12 -12 22q0 11 18 29q47 47 84.5 120.5t48.5 157.5q7 46 41 46h35z" />
    <glyph glyph-name="uni0219" unicode="&#x219;" horiz-adv-x="833" 
d="M45 61v179q1 20 9 27t26 7h14q28 0 31 -26l12 -158q78 -37 197 -37q101 0 157 17t89 51q55 58 55 149q0 29 -4.5 48t-20.5 42.5t-53 45t-96 43.5l-135 51q-81 29 -126.5 86t-45.5 127q0 71 26 135t80 106q96 74 299 74q97 0 211 -27q29 -7 29 -38q0 -15 -21 -191
q-3 -24 -30 -24h-25q-23 0 -23 26q0 28 7 158q-71 18 -170 18q-163 0 -224 -49q-71 -59 -71 -172q0 -52 38 -94.5t136 -79.5l123 -45q89 -34 137.5 -85t48.5 -134q0 -137 -86 -223q-50 -50 -126 -72.5t-194 -22.5q-64 0 -133 13t-112 34q-29 14 -29 41zM365 -147
q28 0 28 -31q0 -28 -22 -96q-56 -157 -162 -244q-20 -17 -33 -17q-9 0 -26 13q-13 13 -13 22q0 5 2 9.5t4 7t7 7t6 5.5q47 47 84.5 120.5t48.5 157.5q7 46 41 46h35z" />
    <glyph glyph-name="uni021A" unicode="&#x21a;" horiz-adv-x="1126" 
d="M645 0h-350q-29 0 -29 18q0 11 6 35q8 27 41 27h115l274 1286h-376l-37 -160q-7 -30 -31 -30h-33q-24 0 -24 24q0 8 37 201q5 28 13 36.5t34 8.5h962q29 0 29 -23q0 -8 -37 -223q-5 -24 -29 -24h-32q-25 0 -25 24q0 7 18 166h-376l-273 -1286h140q28 0 28 -21
q0 -16 -6 -34q-4 -15 -12 -20t-27 -5zM463 -147q29 0 29 -31q0 -25 -23 -96q-56 -157 -162 -244q-20 -17 -33 -17q-9 0 -26 13q-12 12 -12 22q0 11 18 29q47 47 84.5 120.5t48.5 157.5q7 46 41 46h35z" />
    <glyph glyph-name="uni021B" unicode="&#x21b;" horiz-adv-x="604" 
d="M412 924l-146 -678q-12 -66 -12 -101q0 -47 28 -65.5t83 -18.5q34 0 75 7.5t43 7.5q15 0 23 -15q6 -15 6 -32q-6 -22 -35 -29q-65 -18 -160 -18q-69 0 -110 35.5t-41 115.5q0 47 16 125l144 666h-123q-25 0 -25 18q0 13 6 37q6 25 37 25h121q47 206 57 245q8 37 33 37h25
q20 0 20 -22q0 -17 -4 -33l-47 -227h219q29 0 29 -21q0 -17 -4 -33q-4 -17 -13.5 -21.5t-27.5 -4.5h-217zM295 -147q29 0 29 -31q0 -25 -23 -96q-56 -157 -162 -244q-20 -17 -33 -17q-9 0 -26 13q-12 12 -12 22q0 11 18 29q47 47 84.5 120.5t48.5 157.5q7 46 41 46h35z" />
    <glyph glyph-name="circumflex" unicode="&#x2c6;" horiz-adv-x="403" 
d="M-20 1167h-29q-19 0 -19 19q0 11 17 28l260 291q22 25 51 25h27q25 0 35 -21l145 -299q6 -18 6 -24q0 -9 -7 -14t-17 -5h-17q-24 0 -37 23l-137 244l-235 -240q-27 -27 -43 -27z" />
    <glyph glyph-name="caron" unicode="&#x2c7;" horiz-adv-x="403" 
d="M426 1530h29q18 0 18 -19q0 -12 -16 -28l-260 -291q-22 -25 -52 -25h-26q-25 0 -35 21l-145 299q-7 21 -7 24q0 9 7.5 14t17.5 5h16q24 0 37 -23l137 -243l236 239q27 27 43 27z" />
    <glyph glyph-name="breve" unicode="&#x2d8;" horiz-adv-x="403" 
d="M453 1462q16 0 16 -20q0 -28 -16 -72q-78 -196 -285 -196q-120 0 -178 53t-58 143q0 48 7 72q7 20 28 20h17q20 0 20 -18q0 -3 -1 -20t-1 -21q0 -75 38.5 -109t129.5 -34q99 0 152 48.5t75 135.5q3 18 27 18h29z" />
    <glyph glyph-name="dotaccent" unicode="&#x2d9;" horiz-adv-x="403" 
d="M272 1382q0 -52 -28 -77q-20 -17 -51 -17q-62 0 -62 51q0 52 27 76q22 19 55 19q59 0 59 -52z" />
    <glyph glyph-name="ring" unicode="&#x2da;" horiz-adv-x="403" 
d="M393 1397q0 -98 -57 -155.5t-154 -57.5q-80 0 -126 46.5t-46 127.5q0 93 58 151t151 58q81 0 127.5 -44.5t46.5 -125.5zM326 1395q0 55 -30 83.5t-85 28.5q-58 0 -97.5 -37.5t-39.5 -105.5q0 -59 30.5 -91t85.5 -32q61 0 98.5 38t37.5 116z" />
    <glyph glyph-name="ogonek" unicode="&#x2db;" horiz-adv-x="403" 
d="M362 10q-235 -137 -235 -276q0 -99 113 -99q25 0 56 5.5t36 5.5q16 0 20 -15q4 -18 4 -34q-2 -15 -18 -21q-49 -16 -121 -16q-87 0 -132.5 41t-45.5 118q0 91 59.5 159t167.5 132h96z" />
    <glyph glyph-name="tilde" unicode="&#x2dc;" horiz-adv-x="403" 
d="M-74 1247h-20q-21 0 -21 19q0 11 15 41q41 75 80.5 108t93.5 33q24 0 49 -12.5t90 -51.5q50 -30 73.5 -39.5t47.5 -9.5q29 0 50.5 16.5t49.5 71.5q18 35 35 35h25q22 0 22 -16q0 -19 -10 -39q-40 -89 -81 -124.5t-97 -35.5q-31 0 -62 11t-86 44l-1 1h-1l-1 1h-1l-1 1
l-1 1h-1l-1 1h-1l-1 1l-1 1h-1l-2 1q-79 46 -99 49q-5 1 -10 1q-28 0 -49.5 -17t-44.5 -65q-7 -15 -14 -21t-23 -6z" />
    <glyph glyph-name="hungarumlaut" unicode="&#x2dd;" horiz-adv-x="403" 
d="M-41 1206q-18 -18 -37 -18h-33q-18 0 -18 18q0 11 10 21l242 282q18 21 41 21h57q21 0 21 -19q0 -9 -19 -28zM250 1206q-18 -18 -37 -18h-33q-18 0 -18 18q0 11 10 21l242 282q18 21 41 21h57q20 0 20 -19q0 -10 -18 -28z" />
    <glyph glyph-name="uni0394" unicode="&#x394;" horiz-adv-x="1284" 
d="M1204 66q6 -27 6 -39q0 -27 -34 -27h-1184q-25 0 -25 20q0 9 17 39l827 1301q16 26 45 26h47q27 0 33 -26zM860 1294q-125 -211 -758 -1210h1000q-218 1061 -242 1210z" />
    </font>
</defs>
</svg>
