<?xml version="1.0" standalone="no"?>
<!DOCTYPE svg PUBLIC "-//W3C//DTD SVG 1.1//EN" "http://www.w3.org/Graphics/SVG/1.1/DTD/svg11.dtd" >
<svg xmlns="http://www.w3.org/2000/svg" xmlns:xlink="http://www.w3.org/1999/xlink" version="1.1">
<metadata>
Created by FontForge 20170731 at Thu Jun 23 20:53:42 2022
 By Aleksey,,,
Copyright (c) 2014 by Dieter Hofrichter. All rights reserved.
</metadata>
<defs>
<font id="OrgonSlab-BoldIt" horiz-adv-x="806" >
  <font-face 
    font-family="Orgon Slab"
    font-weight="700"
    font-style="italic"
    font-stretch="normal"
    units-per-em="2048"
    panose-1="2 0 5 3 0 0 0 9 0 4"
    ascent="1536"
    descent="-512"
    x-height="1018"
    cap-height="1446"
    bbox="-414 -594 2621 2030"
    underline-thickness="102"
    underline-position="-307"
    unicode-range="U+0020-FB04"
  />
<missing-glyph horiz-adv-x="1026" 
d="M0 0v1448h1026v-1448h-1026zM514 817l348 526h-698zM573 725l353 -526v1052zM164 102h698l-348 529zM102 1251v-1052l351 526z" />
    <glyph glyph-name="f_f" unicode="ff" horiz-adv-x="1413" 
d="M481 0h-448q-47 0 -47 41q0 31 24 137q12 47 64 47h63l125 568h-80q-49 0 -49 43q0 27 23 129q6 27 20.5 40t44.5 13h86l29 125q26 115 62 183.5t89 107.5q106 77 312 77q103 0 143 -18q29 -13 29 -47t-29 -127q-10 -35 -53 -35q-6 0 -43.5 3t-59.5 3q-88 0 -127 -39
q-33 -36 -57 -145l-20 -88h428l34 166q45 212 154 291q57 42 130 59.5t181 17.5q116 0 148 -18q22 -11 22 -47q0 -13 -7.5 -55t-16.5 -72q-12 -35 -56 -35q-6 0 -43 3t-59 3q-91 0 -127 -39t-59 -145l-27 -129h156q51 0 51 -43q0 -37 -25 -135q-13 -47 -67 -47h-160
l-127 -568h111q27 0 40 -9t13 -32q0 -18 -27 -137q-7 -28 -21.5 -37.5t-43.5 -9.5h-449q-47 0 -47 41q0 18 27 137q9 47 61 47h64l125 568h-428l-127 -568h110q26 0 38.5 -8.5t12.5 -32.5q0 -31 -24 -137q-7 -28 -22 -37.5t-44 -9.5z" />
    <glyph glyph-name="fi" unicode="fi" horiz-adv-x="1382" 
d="M481 0h-448q-47 0 -47 41q0 31 24 137q12 47 64 47h63l125 568h-80q-49 0 -49 43q0 27 23 129q6 27 20.5 40t44.5 13h86l37 166q45 211 154 291q106 77 323 77q102 0 148 -22q26 -13 26 -47q0 -12 -8 -54t-18 -73q-10 -35 -56 -35q-7 0 -44.5 5t-61.5 5q-98 0 -137 -39
q-41 -41 -60 -143l-28 -131h647q30 0 41.5 -11.5t11.5 -33.5q0 -27 -8 -55l-150 -693h68q28 0 39.5 -8.5t11.5 -32.5q0 -34 -24 -137q-7 -28 -22 -37.5t-44 -9.5h-410q-47 0 -47 41q0 7 27 137q9 47 61 47h66l123 568h-436l-127 -568h110q26 0 38.5 -8.5t12.5 -32.5
q0 -45 -24 -137q-7 -28 -22 -37.5t-44 -9.5zM1346 1382q0 -33 -13 -76.5t-39 -66.5q-41 -41 -116 -41q-123 0 -123 111q0 94 45 139q48 45 119 45q62 0 94.5 -25t32.5 -86z" />
    <glyph glyph-name="fl" unicode="fl" horiz-adv-x="1359" 
d="M481 0h-448q-47 0 -47 41t24 137q12 47 64 47h63l125 568h-80q-49 0 -49 43q0 27 23 129q6 27 20.5 40t44.5 13h86l37 158q52 218 160 297q109 79 366 79q181 0 307.5 -11t163.5 -23q39 -16 39 -56q0 -28 -12 -82l-250 -1155h68q28 0 40.5 -8.5t12.5 -32.5
q0 -18 -27 -137q-7 -28 -21.5 -37.5t-43.5 -9.5h-410q-45 0 -45 41q0 33 25 137q12 47 63 47h64l239 1100q-86 10 -237 10q-130 0 -172 -45t-64 -147l-28 -125h157q52 0 52 -43q0 -37 -25 -135q-10 -47 -68 -47h-161l-127 -568h110q26 0 38.5 -8.5t12.5 -32.5
q0 -31 -24 -137q-7 -28 -22 -37.5t-44 -9.5z" />
    <glyph glyph-name="f_f_i" unicode="ffi" horiz-adv-x="2082" 
d="M481 0h-448q-47 0 -47 41q0 39 24 137q12 47 64 47h63l125 568h-80q-49 0 -49 43q0 27 23 129q6 27 20.5 40t44.5 13h86l29 125q26 115 62 183.5t89 107.5q106 77 312 77q103 0 143 -18q29 -13 29 -47t-29 -127q-10 -35 -53 -35q-6 0 -43.5 3t-59.5 3q-88 0 -127 -39
q-33 -36 -57 -145l-20 -88h428l34 166q45 212 156 293q56 40 131.5 57.5t186.5 17.5q37 0 82 -6.5t65 -15.5q25 -16 25 -45q0 -42 -27 -129q-10 -35 -55 -35q-5 0 -44 5t-61 5q-94 0 -131 -37q-38 -41 -61 -147l-27 -129h655q21 0 33.5 -13t12.5 -32q0 -20 -9 -51l-149 -697
h67q27 0 40.5 -9t13.5 -32q0 -18 -27 -137q-7 -28 -22 -37.5t-44 -9.5h-409q-47 0 -47 41q0 40 26 137q12 47 64 47h63l123 568h-436l-127 -568h111q27 0 40 -9t13 -32q0 -18 -27 -137q-7 -28 -21.5 -37.5t-43.5 -9.5h-449q-47 0 -47 41q0 18 27 137q9 47 61 47h64l125 568
h-428l-127 -568h110q26 0 38.5 -8.5t12.5 -32.5q0 -31 -24 -137q-7 -28 -22 -37.5t-44 -9.5zM2046 1382q0 -32 -13.5 -76t-39.5 -67q-41 -41 -115 -41q-121 0 -121 111q0 91 45 139q42 45 117 45q62 0 94.5 -25t32.5 -86z" />
    <glyph glyph-name="f_f_l" unicode="ffl" horiz-adv-x="2062" 
d="M481 0h-448q-47 0 -47 41q0 34 24 135q13 49 64 49h63l125 568h-80q-49 0 -49 43q0 27 23 129q6 27 20.5 40t44.5 13h86l29 125q26 115 62 183.5t89 107.5q106 77 312 77q105 0 145 -18q27 -12 27 -47q0 -34 -29 -127q-10 -35 -53 -35q-6 0 -43.5 3t-59.5 3
q-88 0 -127 -39q-33 -36 -57 -145l-20 -88h428l34 158q46 217 160 297q108 79 369 79q181 0 307.5 -11t163.5 -23q39 -16 39 -56q0 -28 -12 -82l-250 -1155h67q28 0 41 -8.5t13 -32.5q0 -18 -27 -137q-7 -28 -21.5 -37.5t-42.5 -9.5h-409q-47 0 -47 41q0 29 24 137
q9 47 64 47h63l240 1100q-86 10 -238 10q-130 0 -172 -45q-45 -49 -65 -147l-27 -125h156q53 0 53 -43q0 -31 -23 -135q-13 -47 -69 -47h-162l-127 -568h111q27 0 40 -9t13 -32q0 -18 -27 -137q-7 -28 -21.5 -37.5t-43.5 -9.5h-449q-47 0 -47 41q0 18 27 137q9 47 61 47h64
l125 568h-428l-127 -568h110q26 0 38.5 -8.5t12.5 -32.5q0 -34 -24 -137q-7 -28 -22 -37.5t-44 -9.5z" />
    <glyph glyph-name="T_h" unicode="Th" horiz-adv-x="2373" 
d="M760 0h-453q-49 0 -49 41q0 17 27 139q9 47 63 47h78l213 977h-207l-24 -102q-13 -49 -62 -49h-113q-47 0 -47 43q0 18 50 295q5 28 20 41.5t47 13.5h1186l4 24q11 62 70 62h149q60 0 60 -41q0 -17 -9 -57l-108 -496q44 54 128 79t183 25q279 0 279 -180q0 -74 -21 -168
l-102 -469h61q27 0 40 -8t13 -31q0 -25 -26 -139q-7 -29 -21.5 -38t-44.5 -9h-289q-43 0 -43 39q0 6 1 13.5t3 15.5l3 12l123 573q10 55 10 88q0 40 -26 56t-83 16q-85 0 -160 -31q-37 -14 -53 -34q-16 -19 -26 -64l-101 -459h70q26 0 38.5 -8.5t12.5 -32.5q0 -18 -27 -137
q-6 -28 -20.5 -37.5t-44.5 -9.5h-408q-49 0 -49 41q0 10 27 137q9 47 63 47h64l209 979h-514l-211 -977h84q28 0 40.5 -8.5t12.5 -32.5q0 -20 -27 -139q-7 -28 -20.5 -37.5t-42.5 -9.5z" />
    <glyph glyph-name="Tcaron_h" unicode="&#x164;h" horiz-adv-x="2373" 
d="M760 0h-453q-49 0 -49 41q0 17 27 139q9 47 63 47h78l213 977h-207l-24 -102q-13 -49 -62 -49h-113q-47 0 -47 43q0 18 50 295q5 28 20 41.5t47 13.5h1186l4 24q11 62 70 62h149q60 0 60 -41q0 -17 -9 -57l-108 -496q44 54 128 79t183 25q279 0 279 -180q0 -74 -21 -168
l-102 -469h61q27 0 40 -8t13 -31q0 -25 -26 -139q-7 -29 -21.5 -38t-44.5 -9h-289q-43 0 -43 39q0 6 1 13.5t3 15.5l3 12l123 573q10 55 10 88q0 40 -26 56t-83 16q-85 0 -160 -31q-37 -14 -53 -34q-16 -19 -26 -64l-101 -459h70q26 0 38.5 -8.5t12.5 -32.5q0 -18 -27 -137
q-6 -28 -20.5 -37.5t-44.5 -9.5h-408q-49 0 -49 41q0 10 27 137q9 47 63 47h64l209 979h-514l-211 -977h84q28 0 40.5 -8.5t12.5 -32.5q0 -20 -27 -139q-7 -28 -20.5 -37.5t-42.5 -9.5zM1087 1896h103q45 0 45 -38q0 -21 -25 -46l-237 -204q-66 -54 -109 -54h-110
q-46 0 -82 48l-162 208q-16 19 -16 43q0 18 16 30.5t47 12.5h82q28 0 44.5 -9t35.5 -29l115 -119l163 119q30 21 48 29.5t42 8.5z" />
    <glyph glyph-name="f_b" unicode="fb" horiz-adv-x="1929" 
d="M481 0h-448q-47 0 -47 41q0 34 24 137q12 47 64 47h63l125 568h-80q-49 0 -49 43q0 27 23 129q6 27 20.5 40t44.5 13h86l37 158q52 218 160 297q109 79 366 79q180 0 301 -10.5t158 -23.5q39 -16 39 -56q0 -36 -10 -76l-96 -446q102 102 309 102q149 0 224 -70.5
t75 -223.5q0 -135 -46.5 -316t-129.5 -285q-71 -90 -173 -123.5t-249 -33.5q-78 0 -140.5 18.5t-87.5 46.5l-8 -20q-9 -24 -22 -30.5t-47 -6.5h-119q-49 0 -49 45q0 12 12 66l260 1216q-86 10 -225 10q-130 0 -172 -45t-64 -147l-28 -125h157q52 0 52 -43q0 -37 -25 -135
q-10 -47 -68 -47h-161l-127 -568h110q26 0 38.5 -8.5t12.5 -32.5q0 -31 -24 -137q-7 -28 -22 -37.5t-44 -9.5zM1112 236q20 -13 63 -23t80 -10q88 0 141.5 21.5t88.5 72.5q44 62 72 185t28 194q0 137 -155 137q-97 0 -173 -45q-15 -7 -30 -33q-15 -38 -23 -73z" />
    <glyph glyph-name="f_f_b" unicode="ffb" horiz-adv-x="2631" 
d="M481 0h-448q-47 0 -47 41q0 31 24 137q12 47 64 47h63l125 568h-80q-49 0 -49 43q0 27 23 129q6 27 20.5 40t44.5 13h86l29 125q26 115 62 183.5t89 107.5q106 77 312 77q103 0 143 -18q29 -13 29 -47t-29 -127q-10 -35 -53 -35q-6 0 -43.5 3t-59.5 3q-88 0 -127 -39
q-33 -36 -57 -145l-20 -88h428l34 158q48 214 162 297q109 79 367 79q180 0 301 -10.5t158 -23.5q39 -16 39 -56q0 -30 -11 -80l-96 -442q102 102 309 102q149 0 224 -70.5t75 -223.5q0 -133 -47 -315t-129 -286q-72 -90 -173 -123.5t-249 -33.5q-77 0 -138.5 18t-90.5 47
l-6 -20q-10 -24 -23.5 -30.5t-48.5 -6.5h-117q-49 0 -49 45q0 12 12 66l261 1216q-84 10 -226 10q-130 0 -172 -45q-43 -46 -65 -147l-27 -125h156q51 0 51 -43q0 -32 -25 -135q-10 -47 -67 -47h-160l-127 -568h111q27 0 40 -9t13 -32q0 -18 -27 -137q-7 -28 -21.5 -37.5
t-43.5 -9.5h-449q-47 0 -47 41q0 18 27 137q9 47 61 47h64l125 568h-428l-127 -568h110q26 0 38.5 -8.5t12.5 -32.5q0 -31 -24 -137q-7 -28 -22 -37.5t-44 -9.5zM1815 236q20 -13 63 -23t80 -10q87 0 140.5 21.5t90.5 72.5q43 62 72 186.5t29 192.5q0 69 -38.5 103
t-119.5 34q-96 0 -172 -45q-16 -8 -31 -33q-12 -21 -20 -55z" />
    <glyph glyph-name="f_f_h" unicode="ffh" horiz-adv-x="2693" 
d="M481 0h-448q-47 0 -47 41q0 34 24 137q12 47 64 47h63l125 568h-80q-49 0 -49 43q0 27 23 129q6 27 20.5 40t44.5 13h86l29 125q26 115 62 183.5t89 107.5q106 77 312 77q103 0 143 -18q29 -13 29 -47q0 -12 -9 -53t-20 -72q-13 -37 -53 -37q-6 0 -43.5 3t-59.5 3
q-88 0 -127 -39q-33 -36 -57 -145l-20 -88h428l34 158q48 214 162 297q109 79 367 79q181 0 307.5 -11t163.5 -23q39 -16 39 -56q0 -28 -12 -82l-97 -442q44 54 128.5 79t185.5 25q276 0 276 -180q0 -78 -20 -168l-103 -469h62q27 0 40 -8t13 -31q0 -20 -27 -139
q-7 -29 -21 -38t-42 -9h-289q-45 0 -45 39q0 5 6 41l123 573q10 55 10 88q0 40 -25.5 56t-82.5 16q-89 0 -162 -31q-32 -12 -51 -34q-18 -21 -27 -62l-100 -461h67q28 0 41 -8.5t13 -32.5q0 -18 -27 -137q-7 -28 -21.5 -37.5t-42.5 -9.5h-409q-47 0 -47 41q0 22 24 137
q9 47 64 47h63l238 1100q-86 10 -238 10q-130 0 -172 -45q-43 -46 -65 -147l-27 -125h156q51 0 51 -43q0 -26 -25 -135q-10 -47 -67 -47h-160l-127 -568h111q27 0 40 -9t13 -32q0 -18 -27 -137q-7 -28 -21.5 -37.5t-43.5 -9.5h-449q-47 0 -47 41q0 18 27 137q9 47 61 47h64
l125 568h-428l-127 -568h110q26 0 38.5 -8.5t12.5 -32.5q0 -31 -24 -137q-7 -28 -22 -37.5t-44 -9.5z" />
    <glyph glyph-name="f_f_j" unicode="ffj" horiz-adv-x="2045" 
d="M481 0h-448q-47 0 -47 41q0 30 24 137q9 47 64 47h63l125 568h-80q-49 0 -49 43q0 27 23 129q6 27 20.5 40t44.5 13h86l27 125q45 212 153 291q106 77 312 77q103 0 143 -18q29 -13 29 -47q0 -12 -9 -54t-20 -73q-12 -35 -53 -35q-6 0 -43.5 3t-59.5 3q-88 0 -127 -39
q-33 -36 -57 -145l-20 -88h428l34 166q44 210 156 291q106 77 316 77q92 0 141 -18q24 -12 24 -47q0 -12 -8 -55t-18 -72q-10 -37 -53 -37q-6 0 -42.5 4t-58.5 4q-90 0 -129 -39q-38 -38 -61 -145l-27 -129h633q49 0 49 -43q0 -17 -6 -53l-221 -1018q-26 -119 -56.5 -191
t-76.5 -114q-63 -57 -146 -82t-235 -25q-78 0 -78 59q0 27 20 115q15 55 74 55q104 0 150 31q48 31 71 144l195 897h-418l-127 -568h111q27 0 40 -9t13 -32q0 -18 -27 -137q-7 -28 -21.5 -37.5t-43.5 -9.5h-449q-47 0 -47 41q0 18 27 137q9 47 61 47h64l125 568h-428
l-127 -568h110q26 0 38.5 -8.5t12.5 -32.5q0 -31 -24 -137q-7 -28 -22 -37.5t-44 -9.5zM2034 1382q0 -32 -13 -75t-39 -68q-44 -41 -114 -41q-125 0 -125 111q0 34 12.5 73.5t34.5 65.5q37 45 117 45q63 0 95 -25t32 -86z" />
    <glyph glyph-name="f_f_k" unicode="ffk" horiz-adv-x="2603" 
d="M2531 793h-88q-155 -196 -194 -242q6 -10 51 -116.5t72 -158.5q14 -29 29.5 -40t49.5 -11h41q27 0 40.5 -9t13.5 -32q0 -21 -27 -137q-6 -28 -20.5 -37.5t-44.5 -9.5h-173q-106 0 -137 88l-127 332q-9 21 -25 28t-46 7h-72l-51 -230h67q27 0 39.5 -9t12.5 -32
q0 -27 -25 -137q-7 -28 -22.5 -37.5t-43.5 -9.5h-409q-47 0 -47 41q0 12 26 137q9 47 62 47h65l238 1100q-86 10 -238 10q-130 0 -172 -45q-43 -46 -65 -147l-27 -125h156q51 0 51 -43q0 -26 -25 -135q-10 -47 -67 -47h-160l-127 -568h111q27 0 40 -9t13 -32q0 -18 -27 -137
q-7 -28 -21.5 -37.5t-43.5 -9.5h-449q-47 0 -47 41q0 18 27 137q9 47 61 47h64l125 568h-428l-127 -568h110q26 0 38.5 -8.5t12.5 -32.5q0 -31 -24 -137q-7 -28 -22 -37.5t-44 -9.5h-448q-47 0 -47 41q0 20 24 137q12 47 64 47h63l125 568h-80q-49 0 -49 43q0 27 23 129
q6 27 20.5 40t44.5 13h86l29 125q26 115 62 183.5t89 107.5q106 77 312 77q96 0 145 -18q27 -15 27 -47q0 -12 -9 -54t-20 -73q-10 -35 -53 -35q-6 0 -43.5 3t-59.5 3q-88 0 -127 -39q-33 -36 -57 -145l-20 -88h428l34 158q48 214 162 297q109 79 367 79q181 0 307.5 -11
t163.5 -23q39 -16 39 -56q0 -28 -12 -82l-150 -700h88q38 0 59 8.5t41 34.5l54 70h-11q-36 0 -36 41q0 44 26 137q12 47 64 47h362q28 0 40.5 -8.5t12.5 -32.5q0 -25 -26 -137q-7 -28 -21 -37.5t-43 -9.5z" />
    <glyph glyph-name="f_h" unicode="fh" horiz-adv-x="1990" 
d="M481 0h-448q-47 0 -47 41q0 29 24 137q9 47 64 47h63l125 568h-80q-49 0 -49 43q0 27 23 129q6 27 20.5 40t44.5 13h86l37 158q52 218 160 297q109 79 366 79q181 0 307.5 -11t163.5 -23q39 -16 39 -56q0 -28 -12 -82l-96 -442q44 53 128.5 78.5t182.5 25.5
q279 0 279 -180q0 -74 -21 -168l-102 -469h61q27 0 40 -8t13 -31q0 -25 -26 -139q-6 -29 -20.5 -38t-45.5 -9h-288q-43 0 -43 39q0 5 6 41l123 573q10 55 10 88q0 40 -26 56t-83 16q-25 0 -46.5 -2t-39 -5.5t-28.5 -6.5t-26 -8.5t-20 -6.5q-34 -11 -53 -36q-14 -16 -24 -62
l-103 -461h68q28 0 40.5 -8.5t12.5 -32.5q0 -18 -27 -137q-7 -28 -21.5 -37.5t-43.5 -9.5h-410q-45 0 -45 41q0 17 25 137q9 47 63 47h64l237 1100q-86 10 -237 10q-130 0 -172 -45t-64 -147l-28 -125h157q52 0 52 -43q0 -37 -25 -135q-10 -47 -68 -47h-161l-127 -568h110
q26 0 38.5 -8.5t12.5 -32.5q0 -20 -24 -137q-6 -28 -21 -37.5t-45 -9.5z" />
    <glyph glyph-name="f_j" unicode="fj" horiz-adv-x="1343" 
d="M481 0h-448q-47 0 -47 41q0 34 24 137q12 47 64 47h63l125 568h-80q-49 0 -49 43q0 27 23 129q6 27 20.5 40t44.5 13h86l37 166q45 211 154 291q57 41 130.5 59t182.5 18q94 0 143 -18q27 -14 27 -47q0 -12 -9 -54t-20 -73q-13 -37 -55 -37q-6 0 -40 4t-56 4
q-92 0 -131 -39q-37 -37 -60 -145l-28 -129h635q47 0 47 -43q0 -6 -1.5 -17.5t-4 -25t-3.5 -17.5l-221 -1011q-25 -119 -55.5 -191t-75.5 -114q-63 -57 -146 -82t-235 -25q-42 0 -60 14.5t-18 44.5q0 32 19 115q15 55 76 55q103 0 149 31q52 33 74 144l192 897h-417
l-127 -568h110q26 0 38.5 -8.5t12.5 -32.5q0 -31 -24 -137q-7 -28 -22 -37.5t-44 -9.5zM1331 1382q0 -32 -13.5 -76t-39.5 -67q-41 -41 -115 -41q-125 0 -125 111q0 97 45 139q48 45 121 45q62 0 94.5 -25t32.5 -86z" />
    <glyph glyph-name="f_k" unicode="fk" horiz-adv-x="1900" 
d="M1823 793h-82q-137 -173 -195 -242q2 -5 49 -113t74 -162q14 -30 29.5 -40.5t50.5 -10.5h41q28 0 39.5 -8.5t11.5 -32.5q0 -28 -24 -137q-6 -28 -21 -37.5t-45 -9.5h-172q-102 0 -137 88l-127 332q-9 21 -25 28t-47 7h-69l-54 -230h68q27 0 40 -9t13 -32q0 -18 -27 -137
q-7 -28 -21.5 -37.5t-43.5 -9.5h-410q-47 0 -47 41q0 20 25 137q12 47 65 47h64l237 1100q-86 10 -237 10q-130 0 -172 -45t-64 -147l-28 -125h157q52 0 52 -43q0 -37 -25 -135q-10 -47 -68 -47h-161l-127 -568h110q26 0 38.5 -8.5t12.5 -32.5q0 -31 -24 -137
q-7 -28 -22 -37.5t-44 -9.5h-448q-47 0 -47 41q0 31 24 137q12 47 64 47h63l125 568h-80q-49 0 -49 43q0 27 23 129q6 27 20.5 40t44.5 13h86l37 158q52 218 160 297q109 79 366 79q181 0 307.5 -11t163.5 -23q39 -16 39 -56q0 -28 -12 -82l-149 -700h94q39 0 59.5 8.5
t40.5 34.5l53 70q-51 0 -51 41q0 22 25 137q9 47 63 47h359q26 0 38.5 -8.5t12.5 -32.5q0 -29 -25 -137q-7 -28 -22 -37.5t-43 -9.5z" />
    <glyph glyph-name="uni0162_h" unicode="&#x162;h" horiz-adv-x="2373" 
d="M567 -111q170 -7 170 -172q0 -145 -78.5 -200.5t-238.5 -55.5q-61 0 -119 15q-21 5 -30 15.5t-9 31.5q0 25 14 69q11 26 20.5 34.5t29.5 8.5q4 0 13.5 -1.5t22 -3.5t17.5 -3q18 -4 65 -4q46 0 63 15.5t17 54.5q0 27 -12.5 37t-40.5 10q-7 0 -26.5 -1t-24.5 -1
q-43 3 -43 49q0 5 18 66l49 147h-137q-49 0 -49 41q0 17 27 139q9 47 63 47h78l213 977h-207l-24 -102q-13 -49 -62 -49h-113q-47 0 -47 43q0 18 50 295q5 28 20 41.5t47 13.5h1186l4 24q11 62 70 62h149q60 0 60 -41q0 -17 -9 -57l-108 -496q44 54 128 79t183 25
q279 0 279 -180q0 -74 -21 -168l-102 -469h61q27 0 40 -8t13 -31q0 -25 -26 -139q-7 -29 -21.5 -38t-44.5 -9h-289q-43 0 -43 39q0 6 1 13.5t3 15.5l3 12l123 573q10 55 10 88q0 40 -26 56t-83 16q-85 0 -160 -31q-37 -14 -53 -34q-16 -19 -26 -64l-101 -459h70
q26 0 38.5 -8.5t12.5 -32.5q0 -18 -27 -137q-6 -28 -20.5 -37.5t-44.5 -9.5h-408q-49 0 -49 41q0 10 27 137q9 47 63 47h64l209 979h-514l-211 -977h84q28 0 40.5 -8.5t12.5 -32.5q0 -20 -27 -139q-7 -28 -20.5 -37.5t-42.5 -9.5h-158z" />
    <glyph glyph-name="uni021A_h" unicode="&#x21a;h" horiz-adv-x="2373" 
d="M760 0h-453q-49 0 -49 41q0 17 27 139q9 47 63 47h78l213 977h-207l-24 -102q-13 -49 -62 -49h-113q-47 0 -47 43q0 18 50 295q5 28 20 41.5t47 13.5h1186l4 24q11 62 70 62h149q60 0 60 -41q0 -17 -9 -57l-108 -496q44 54 128 79t183 25q279 0 279 -180q0 -74 -21 -168
l-102 -469h61q27 0 40 -8t13 -31q0 -25 -26 -139q-7 -29 -21.5 -38t-44.5 -9h-289q-43 0 -43 39q0 6 1 13.5t3 15.5l3 12l123 573q10 55 10 88q0 40 -26 56t-83 16q-85 0 -160 -31q-37 -14 -53 -34q-16 -19 -26 -64l-101 -459h70q26 0 38.5 -8.5t12.5 -32.5q0 -18 -27 -137
q-6 -28 -20.5 -37.5t-44.5 -9.5h-408q-49 0 -49 41q0 10 27 137q9 47 63 47h64l209 979h-514l-211 -977h84q28 0 40.5 -8.5t12.5 -32.5q0 -20 -27 -139q-7 -28 -20.5 -37.5t-42.5 -9.5zM573 -131q60 0 60 -59q0 -42 -19 -97q-54 -164 -161 -266q-41 -41 -76 -41
q-31 0 -66 23q-28 19 -28 45q0 21 24 55q44 56 66.5 114.5t36.5 145.5q7 40 24 60t55 20h84z" />
    <glyph glyph-name=".notdef" horiz-adv-x="1026" 
d="M0 0v1448h1026v-1448h-1026zM514 817l348 526h-698zM573 725l353 -526v1052zM164 102h698l-348 529zM102 1251v-1052l351 526z" />
    <glyph glyph-name=".null" horiz-adv-x="0" 
 />
    <glyph glyph-name="nonmarkingreturn" horiz-adv-x="682" 
 />
    <glyph glyph-name="space" unicode=" " horiz-adv-x="450" 
 />
    <glyph glyph-name="exclam" unicode="!" horiz-adv-x="608" 
d="M471 565q-19 -71 -86 -71h-86q-36 0 -54 12t-18 43q0 25 6 61q107 597 136 740q10 48 31.5 72t64.5 24h141q68 0 68 -60q0 -27 -70 -301q-73 -283 -133 -520zM428 184q0 -37 -13.5 -85t-41.5 -76q-43 -43 -125 -43q-135 0 -135 124q0 93 51 150q45 51 127 51
q66 0 101.5 -27t35.5 -94z" />
    <glyph glyph-name="quotedbl" unicode="&#x22;" horiz-adv-x="784" 
d="M389 938q-10 -37 -27 -50.5t-49 -13.5h-30q-31 0 -43.5 8.5t-12.5 35.5q0 32 6 65q20 131 66 397q8 44 29 65t61 21h60q65 0 65 -49q0 -26 -10 -61q-21 -89 -115 -418zM750 938q-10 -37 -27 -50.5t-49 -13.5h-31q-30 0 -42.5 8.5t-12.5 35.5q0 32 6 65q28 180 65 397
q8 44 29.5 65t61.5 21h59q65 0 65 -49q0 -26 -10 -61q-25 -108 -114 -418z" />
    <glyph glyph-name="numbersign" unicode="#" horiz-adv-x="1218" 
d="M391 381l-92 -358q-6 -30 -18.5 -43t-38.5 -13h-52q-45 0 -45 41q0 20 11 53l84 320h-142q-51 0 -51 45q0 23 14 133q6 53 62 53h172l47 179h-149q-50 0 -50 45q0 31 13 133q6 51 59 51h184l88 342q11 53 58 53h57q43 0 43 -35q0 -7 -12 -53l-78 -307h264l90 342
q8 28 21 40.5t37 12.5h57q41 0 41 -35q0 -15 -10 -53l-78 -307h139q51 0 51 -43q0 -17 -14 -137q-4 -29 -16.5 -39t-40.5 -10h-178l-48 -179h152q49 0 49 -45q0 -31 -12 -137q-3 -28 -16.5 -38.5t-41.5 -10.5h-188l-92 -358q-9 -30 -20 -43t-37 -13h-52q-45 0 -45 39
q0 18 11 55l81 320h-268zM449 612h268l45 179h-266z" />
    <glyph glyph-name="dollar" unicode="$" horiz-adv-x="1155" 
d="M506 -143q-7 -50 -45 -50h-43q-37 0 -37 33q0 3 6 33l25 115q-171 6 -301 43q-50 11 -50 59v250q0 27 15.5 41t40.5 14h102q46 0 49 -49l6 -113q78 -23 183 -26l75 356l-86 33q-239 91 -239 313t132 339.5t370 133.5l26 127q5 27 15 39.5t32 12.5h45q33 0 33 -29
q0 -20 -6 -41l-23 -107q174 -8 271 -43q41 -16 41 -57q0 -16 -39 -248q-4 -27 -19.5 -37t-42.5 -10h-94q-47 0 -47 43q0 29 4 113q-57 11 -123 14l-75 -356l67 -25q131 -50 195.5 -122t64.5 -175q0 -452 -499 -489zM489 985q0 -44 24 -77t81 -60l65 309q-170 -17 -170 -172z
M750 395q0 40 -22.5 68t-80.5 55l-65 -305q84 12 126 56t42 126z" />
    <glyph glyph-name="percent" unicode="%" horiz-adv-x="1783" 
d="M846 1169q0 -120 -42 -288.5t-116 -251.5q-91 -105 -272 -105q-147 0 -219 53.5t-72 194.5q0 114 37.5 263t105.5 239q52 68 123 95.5t166 27.5q73 0 121.5 -8.5t89 -32t59.5 -70t19 -117.5zM649 1143q0 56 -23.5 79t-84.5 23q-80 0 -123 -67q-40 -64 -68 -186t-28 -199
q0 -67 23.5 -92t84.5 -25q44 0 70.5 13.5t50.5 51.5q35 61 66.5 201t31.5 201zM537 -29q-13 -22 -25.5 -29.5t-32.5 -7.5h-55q-27 0 -27 25q0 13 21 41l917 1411q26 45 60 45h61q27 0 27 -22q0 -15 -27 -54zM1743 629q0 -117 -42.5 -287t-113.5 -254q-90 -104 -274 -104
q-148 0 -220.5 53t-72.5 194q0 113 38 262.5t107 239.5q52 68 123 95.5t166 27.5q58 0 99 -5t79 -19t61 -39t36.5 -66t13.5 -98zM1544 602q0 57 -23 80t-85 23q-80 0 -121 -68q-40 -64 -68 -186t-28 -199q0 -67 23.5 -92t84.5 -25q44 0 71.5 14t49.5 52q35 59 65.5 199
t30.5 202z" />
    <glyph glyph-name="ampersand" unicode="&#x26;" horiz-adv-x="1585" 
d="M1057 104q-157 -131 -484 -131q-244 0 -366.5 105t-122.5 287q0 99 23.5 173t74 128.5t116 93t161.5 74.5q-48 67 -69 132.5t-21 149.5q0 157 116 253.5t351 96.5q190 0 282 -67.5t92 -212.5q0 -61 -22.5 -115.5t-58 -95.5t-89 -78.5t-105.5 -64t-118 -52.5
q147 -192 287 -329q43 62 63 161h-67q-43 0 -43 41q0 40 22 135q12 48 66 48h383q53 0 53 -45q0 -42 -22 -132q-7 -28 -21 -37.5t-43 -9.5h-82q-25 -109 -69 -196t-87 -129q40 -39 62 -49.5t55 -10.5h62q28 0 41.5 -10.5t13.5 -36.5q0 -33 -25 -135q-11 -45 -61 -45h-141
q-81 0 -115 20q-33 22 -92 84zM897 281q-129 134 -326 387q-105 -47 -150.5 -102.5t-45.5 -157.5q0 -94 65.5 -152.5t186.5 -58.5q183 0 270 84zM715 926q45 19 73 32.5t66 36t59.5 43t37.5 50t16 61.5q0 54 -39 84.5t-113 30.5q-84 0 -135 -37.5t-51 -102.5q0 -53 19.5 -96
t66.5 -102z" />
    <glyph glyph-name="quotesingle" unicode="'" horiz-adv-x="423" 
d="M389 938q-10 -37 -27 -50.5t-49 -13.5h-30q-31 0 -43.5 8.5t-12.5 35.5q0 32 6 65q20 131 66 397q8 44 29 65t61 21h60q65 0 65 -49q0 -26 -10 -61q-21 -89 -115 -418z" />
    <glyph glyph-name="parenleft" unicode="(" horiz-adv-x="677" 
d="M846 1454q-145 -100 -263 -270t-191 -400.5t-73 -474.5q0 -317 168 -528q13 -18 13 -33q0 -20 -25 -45q-23 -20 -43 -20q-24 0 -65 26q-48 33 -93.5 87t-88.5 132t-69 188.5t-26 233.5q0 174 42 351t121 338.5t205.5 294t282.5 204.5q56 27 78 27q26 0 39 -21
q19 -25 19 -45q0 -24 -31 -45z" />
    <glyph glyph-name="parenright" unicode=")" horiz-adv-x="675" 
d="M-119 -205q107 74 202 191.5t168.5 264t116 325t42.5 360.5q0 314 -170 532q-13 16 -13 31q0 21 27 45q21 21 43 21q21 0 63 -27q47 -31 93 -85t88.5 -132.5t69 -188.5t26.5 -233q0 -175 -41.5 -351.5t-120 -337.5t-205 -294t-284.5 -209q-53 -24 -76 -24q-28 0 -41 20
q-19 29 -19 45q0 26 31 47z" />
    <glyph glyph-name="asterisk" unicode="*" horiz-adv-x="858" 
d="M541 909q-13 -15 -41.5 -49.5t-53 -63t-45.5 -48.5q-25 -25 -53 -25q-32 0 -82 53q-26 26 -26 55q0 26 28 54q47 50 166 139q-150 51 -190 72q-47 21 -47 61q0 11 7.5 36.5t18.5 45.5q24 41 68 41q17 0 59 -18q23 -13 47.5 -28.5t55 -36t49.5 -32.5q4 123 14 199
q5 37 21 55.5t55 18.5q43 0 70 -8q29 -8 37 -22.5t8 -39.5q0 -6 -1 -16t-3 -22t-3 -17q-5 -28 -47 -172q134 36 172 43q36 6 66 6q49 0 57 -60q8 -44 8 -69q0 -51 -63 -60q-23 -3 -211 -20q10 -16 53 -78.5t62 -95.5q12 -22 12 -45q0 -32 -41 -57q-55 -31 -86 -31
q-36 0 -57 41q-18 36 -48 108.5t-36 85.5z" />
    <glyph glyph-name="plus" unicode="+" horiz-adv-x="1435" 
d="M752 129q-12 -57 -68 -57h-63q-58 0 -58 51q0 11 4 35l76 352h-373q-26 0 -40.5 14t-14.5 39q0 31 10 76q12 59 68 59h381l78 379q12 58 65 58h70q55 0 55 -52q0 -16 -4 -36l-72 -349h369q57 0 57 -53q0 -17 -12 -76q-6 -59 -68 -59h-383z" />
    <glyph glyph-name="comma" unicode="," horiz-adv-x="499" 
d="M266 299q33 0 47.5 -12.5t14.5 -40.5q0 -48 -25 -121q-39 -120 -119 -241.5t-166 -192.5q-48 -41 -77 -41q-44 0 -70 26q-17 16 -24 26t-7 26q0 32 33 61q66 63 122.5 175.5t78.5 250.5q12 84 96 84h96z" />
    <glyph glyph-name="hyphen" unicode="-" horiz-adv-x="700" 
d="M561 438h-430q-45 0 -45 37q0 25 27 139q13 50 65 50h426q49 0 49 -37q0 -22 -30 -142q-7 -28 -20.5 -37.5t-41.5 -9.5z" />
    <glyph glyph-name="period" unicode="." horiz-adv-x="499" 
d="M340 184q0 -37 -13.5 -85t-41.5 -76q-43 -43 -125 -43q-137 0 -137 124q0 91 53 150q45 51 127 51q66 0 101.5 -27t35.5 -94z" />
    <glyph glyph-name="slash" unicode="/" horiz-adv-x="784" 
d="M106 -145q-15 -31 -31 -45.5t-42 -14.5h-103q-32 0 -32 31q0 11 18 47l842 1610q27 55 65 55h107q35 0 35 -33q0 -17 -23 -61z" />
    <glyph glyph-name="zero" unicode="0" horiz-adv-x="1189" 
d="M1190 1030q0 -115 -25 -274.5t-82.5 -336.5t-132.5 -272q-75 -93 -177 -134.5t-243 -41.5q-110 0 -188 18.5t-138 63.5t-89 125.5t-29 198.5q0 188 57.5 431.5t161.5 389.5q81 113 190.5 159t252.5 46q89 0 152 -8.5t121 -32t93 -64.5t55.5 -108t20.5 -160zM905 997
q0 97 -39 137t-143 40q-69 0 -117.5 -26t-85.5 -91q-63 -107 -108 -316.5t-45 -337.5q0 -113 41.5 -156.5t144.5 -43.5q71 0 118 23t83 85q57 99 104 336.5t47 349.5z" />
    <glyph glyph-name="one" unicode="1" horiz-adv-x="1189" 
d="M827 0h-577q-47 0 -47 41q0 31 24 139q12 47 64 47h141l193 881l-176 -72q-30 -10 -46 -10q-20 0 -30 29q-41 110 -41 133q0 33 41 49l307 131q37 16 86 16h125q51 0 51 -47q0 -23 -4 -47l-229 -1063h157q27 0 39.5 -9t12.5 -32q0 -29 -25 -139q-7 -28 -22.5 -37.5
t-43.5 -9.5z" />
    <glyph glyph-name="two" unicode="2" horiz-adv-x="1189" 
d="M971 0h-930q-22 0 -33.5 11.5t-11.5 29.5q0 23 22 123q9 43 45 65q367 248 568 420q86 75 135 157.5t49 186.5q0 93 -49 139t-166 46q-99 0 -201 -25q-72 -14 -73 -14q-31 0 -39 32q-21 97 -21 127q0 42 60 62q70 21 176 35t198 14q410 0 410 -334q0 -279 -209 -473
q-223 -211 -516 -379q188 4 449 4l32 125q13 51 64 51h108q47 0 47 -43q0 -30 -51 -305q-10 -55 -63 -55z" />
    <glyph glyph-name="three" unicode="3" horiz-adv-x="1189" 
d="M788 727q120 -12 178 -75.5t58 -184.5q0 -252 -137 -369q-148 -125 -477 -125q-210 0 -320 39q-41 15 -41 56t37 135q16 35 49 35q9 0 35 -5.5t37 -7.5q97 -20 229 -20q186 0 252 74q53 59 53 180q0 72 -53.5 105.5t-181.5 33.5h-49q-22 0 -34.5 12.5t-12.5 30.5
q0 37 22 131q8 31 22.5 45t43.5 14h57q131 0 201 54q55 45 55 159q0 71 -42.5 102.5t-158.5 31.5q-108 0 -196 -21q-72 -14 -74 -14q-28 0 -35 33q-16 94 -16 124q0 46 61 62q160 47 355 47q112 0 190 -21.5t120.5 -62t60.5 -90.5t18 -115q0 -167 -71 -261t-235 -132z" />
    <glyph glyph-name="four" unicode="4" horiz-adv-x="1189" 
d="M963 0h-461q-47 0 -47 41q0 22 26 139q9 47 64 47h100l29 129h-543q-29 0 -40 12.5t-11 37.5q0 38 20 124q14 50 45 86l572 713q42 55 94 55h172q37 0 37 -32q0 -24 -27 -58q-170 -212 -282 -349t-185.5 -225.5t-103.5 -125.5h301l49 229q6 30 23 47t41 17h159
q43 0 43 -39q0 -23 -8 -51l-43 -203h121q51 0 51 -43q0 -20 -31 -152q-10 -43 -63 -43h-127l-29 -129h92q28 0 41 -8.5t13 -32.5q0 -20 -27 -139q-7 -28 -21.5 -37.5t-43.5 -9.5z" />
    <glyph glyph-name="five" unicode="5" horiz-adv-x="1189" 
d="M1120 1036q-10 -51 -63 -51h-111q-45 0 -45 43q0 6 14 127h-337l-93 -311q101 26 203 26q192 0 285.5 -67t93.5 -228q0 -113 -18 -202t-62.5 -165.5t-116 -127t-181.5 -79t-255 -28.5q-229 0 -342 39q-41 12 -41 54q0 26 35 133q16 39 55 39q8 0 34.5 -5.5t37.5 -7.5
q110 -20 240 -20q171 0 246 64.5t75 217.5q0 88 -56.5 121t-166.5 33q-108 0 -236 -27q-28 -8 -57 -8q-57 0 -57 56q0 27 22 104l154 553q17 65 72 65h677q52 0 52 -47q0 -12 -58 -301z" />
    <glyph glyph-name="six" unicode="6" horiz-adv-x="1189" 
d="M428 764q54 55 138 87t186 32q354 0 354 -305q0 -302 -160 -467q-70 -72 -171.5 -105t-250.5 -33q-213 0 -317.5 101.5t-104.5 306.5q0 124 28.5 276.5t92 312t148.5 251.5q88 97 209 142.5t290 45.5q182 0 267 -31q30 -12 30 -51q0 -16 -11 -62.5t-23 -74.5
q-14 -33 -48 -33t-79 10q-99 15 -164 15q-99 0 -164.5 -26t-116.5 -83q-78 -90 -133 -309zM367 369q0 -82 43 -127t147 -45q82 0 134 21t85 71q62 98 62 215q0 76 -46 118t-133 42q-67 0 -131 -24.5t-98 -61.5q-21 -21 -35 -56q-28 -63 -28 -153z" />
    <glyph glyph-name="seven" unicode="7" horiz-adv-x="1189" 
d="M481 -2h-178q-53 0 -53 43q0 27 24 70q265 485 617 1046q-102 -2 -461 -2l-27 -121q-10 -51 -63 -51h-111q-47 0 -47 43q0 24 41 297q7 61 68 61h899q51 0 51 -41q0 -25 -14 -94q-12 -59 -49 -131q-47 -80 -144 -241t-149 -249.5t-141 -245t-181 -325.5q-28 -59 -82 -59z
" />
    <glyph glyph-name="eight" unicode="8" horiz-adv-x="1189" 
d="M883 725q107 -24 160 -92t53 -166q0 -253 -143.5 -373.5t-444.5 -120.5q-229 0 -341 88t-112 242q0 178 89.5 290.5t254.5 141.5q-85 24 -129.5 90t-44.5 150q0 434 531 434q222 0 325 -75.5t103 -219.5q0 -322 -301 -389zM809 451q0 77 -53 114t-146 37
q-123 0 -198.5 -59.5t-75.5 -184.5q0 -81 54 -122t151 -41q135 0 201.5 65.5t66.5 190.5zM909 1053q0 131 -176 131q-119 0 -177 -57t-58 -160q0 -66 43.5 -102t128.5 -36q113 0 176 58.5t63 165.5z" />
    <glyph glyph-name="nine" unicode="9" horiz-adv-x="1189" 
d="M836 618q-108 -114 -322 -114q-179 0 -266.5 82.5t-87.5 234.5q0 291 157 453q70 71 171 103t251 32q214 0 317 -100t103 -305q0 -127 -24.5 -277.5t-85.5 -312t-146 -254.5q-171 -189 -504 -189q-80 0 -161 10t-121 25q-33 12 -33 51q0 15 12 62t25 76q12 34 45 34
q22 0 82 -12q89 -14 162 -14q208 0 297 104q75 86 129 311zM895 1012q0 82 -43 128t-147 46q-81 0 -134 -21.5t-86 -70.5q-61 -89 -61 -213q0 -77 47 -118.5t135 -41.5q67 0 129 24t96 62q25 25 35 53q29 72 29 152z" />
    <glyph glyph-name="colon" unicode=":" horiz-adv-x="540" 
d="M381 184q0 -37 -13.5 -85t-41.5 -76q-43 -43 -125 -43q-138 0 -138 124q0 90 54 150q45 51 127 51q66 0 101.5 -27t35.5 -94zM535 901q0 -36 -15 -84.5t-43 -77.5q-42 -45 -123 -45q-137 0 -137 127q0 90 51 150q45 51 129 51q138 0 138 -121z" />
    <glyph glyph-name="semicolon" unicode=";" horiz-adv-x="540" 
d="M535 901q0 -36 -15 -84.5t-43 -77.5q-42 -45 -123 -45q-137 0 -137 127q0 90 51 150q45 51 129 51q138 0 138 -121zM307 299q33 0 47.5 -12.5t14.5 -40.5q0 -36 -25 -121q-39 -118 -119.5 -239t-165.5 -193q-50 -43 -77 -43q-44 0 -70 26l-18 18t-8.5 13.5t-4.5 20.5
q0 32 33 61q66 64 122.5 176.5t78.5 249.5q12 84 96 84h96z" />
    <glyph glyph-name="less" unicode="&#x3c;" horiz-adv-x="1435" 
d="M1137 127q-9 -49 -45 -49q-17 0 -37 10l-733 387q-41 20 -41 64q0 33 14 112q8 50 55 72l889 397q16 8 37 8q18 0 28.5 -11.5t10.5 -31.5q0 -27 -15 -112q-8 -48 -57 -68l-754 -317l619 -305q41 -20 41 -66q0 -36 -12 -90z" />
    <glyph glyph-name="equal" unicode="=" horiz-adv-x="1435" 
d="M1237 350q-9 -57 -68 -57h-942q-27 0 -42 13.5t-15 37.5q0 10 12 78q12 55 68 55h942q57 0 57 -51q0 -3 -1 -10t-4.5 -26.5t-6.5 -39.5zM1329 784q-9 -57 -67 -57h-943q-57 0 -57 51q0 8 12 76q12 57 68 57h942q27 0 42 -13.5t15 -37.5q0 -2 -12 -76z" />
    <glyph glyph-name="greater" unicode="&#x3e;" horiz-adv-x="1435" 
d="M387 1087q9 50 43 50q15 0 37 -11l735 -389q41 -20 41 -61q0 -33 -14 -115q-8 -48 -55 -69l-889 -398q-16 -8 -35 -8t-30 11.5t-11 31.5q0 32 14 111q9 50 58 69l753 318l-618 305q-43 21 -43 65q0 11 14 90z" />
    <glyph glyph-name="question" unicode="?" horiz-adv-x="923" 
d="M451 494h-97q-55 0 -55 45q0 33 10 96q14 70 45 113.5t107 93.5q120 79 171.5 137.5t51.5 138.5q0 63 -35.5 95t-122.5 32q-82 0 -168 -18q-3 -1 -14.5 -3.5t-22.5 -4.5t-20 -2q-20 0 -31 10.5t-18 38.5q-16 50 -16 92q0 61 67 78q156 39 307 39q379 0 379 -263
q0 -157 -67 -252t-222 -182q-75 -44 -110.5 -78t-54.5 -88q-23 -70 -29 -86q-13 -32 -55 -32zM502 184q0 -36 -14 -84t-42 -77q-40 -43 -124 -43q-136 0 -136 124q0 92 52 150q48 51 129 51q65 0 100 -27t35 -94z" />
    <glyph glyph-name="at" unicode="@" horiz-adv-x="1644" 
d="M969 227q-46 -61 -119 -86.5t-148 -25.5q-130 0 -193 62.5t-63 176.5q0 133 67 281t177 239q116 96 291 99q113 0 166 -41l4 10q14 25 47 25h64q30 0 30 -27q0 -18 -10 -51l-143 -500q-19 -74 -19 -86q0 -45 41 -45q40 0 82 29q109 72 167 211t58 295q0 417 -475 417
q-159 0 -297.5 -66t-234 -177t-150.5 -258.5t-55 -307.5q0 -253 145 -389.5t414 -136.5q153 0 237.5 15t190.5 51q50 16 66 16q13 0 21.5 -8.5t15.5 -34.5q8 -20 8 -39q0 -25 -54 -45q-227 -88 -497 -88q-326 0 -510 168t-184 483q0 148 40 287.5t117.5 256.5t184.5 205
t249.5 137.5t303.5 49.5q285 0 445.5 -133.5t160.5 -398.5q0 -91 -21 -185t-64 -182t-102 -157t-141 -110.5t-174 -41.5q-72 0 -104 23t-35 83zM1104 815q-53 31 -133 31q-114 0 -187 -70q-72 -68 -116.5 -172.5t-44.5 -208.5q0 -145 135 -145q92 0 166 53q21 15 32 37
q17 24 27 57z" />
    <glyph glyph-name="A" unicode="A" horiz-adv-x="1396" 
d="M414 0h-445q-47 0 -47 41q0 27 25 139q12 47 63 47h51l670 1166q30 55 84 55h180q57 0 66 -62l166 -1159h47q28 0 40.5 -8.5t12.5 -32.5q0 -20 -27 -139q-7 -28 -21.5 -37.5t-43.5 -9.5h-410q-45 0 -45 41q0 27 25 139q12 47 63 47h82l-26 205h-437l-120 -205h86
q28 0 40.5 -8.5t12.5 -32.5q0 -20 -27 -139q-7 -28 -21.5 -37.5t-43.5 -9.5zM852 1120q-40 -79 -260 -467h315q-27 210 -55 467z" />
    <glyph glyph-name="B" unicode="B" horiz-adv-x="1320" 
d="M502 0h-461q-45 0 -45 41q0 31 24 139q12 47 64 47h70l213 992h-76q-45 0 -45 41q0 36 24 139q9 47 64 47h471q134 0 219 -10q142 -18 211.5 -91.5t69.5 -193.5q0 -314 -279 -393q97 -20 148 -91t51 -186q0 -150 -71 -265.5t-216 -168.5q-130 -47 -436 -47zM438 227h131
q155 0 226 23q64 24 99.5 87t35.5 138q0 51 -19.5 88.5t-54.5 52.5q-55 23 -180 23h-150zM573 852h138q110 0 178 22q63 20 94 75.5t31 119.5q0 58 -24 92.5t-62 44.5q-42 13 -174 13h-103z" />
    <glyph glyph-name="C" unicode="C" horiz-adv-x="1253" 
d="M1030 1233q-44 8 -139 8q-100 0 -171 -26t-124 -85q-89 -96 -138.5 -282.5t-49.5 -347.5q0 -147 70 -219t214 -72q163 0 275 33q51 14 67 14q25 0 37 -29q25 -70 25 -133q0 -16 -15.5 -33.5t-42.5 -25.5q-175 -62 -438 -62q-235 0 -361 120.5t-126 369.5q0 123 26.5 266
t87.5 294t144 249q92 106 222 154.5t318 48.5q205 0 334 -39q43 -13 43 -56q0 -25 -49 -299q-4 -26 -18.5 -36.5t-40.5 -10.5h-119q-47 0 -47 45q0 9 16 154z" />
    <glyph glyph-name="D" unicode="D" horiz-adv-x="1441" 
d="M502 0h-461q-45 0 -45 41q0 31 24 139q12 47 64 47h70l213 992h-76q-45 0 -45 41q0 27 24 139q9 47 64 47h467q242 0 375 -45q123 -42 185 -150t62 -270q0 -117 -13.5 -226t-49 -223.5t-90 -206t-143.5 -165.5t-203 -111q-75 -24 -197.5 -36.5t-224.5 -12.5zM440 227h123
q75 0 156.5 12t128.5 33q63 27 113 86.5t80 130.5t50 155t27.5 156.5t7.5 139.5q0 178 -108 238q-78 41 -250 41h-117z" />
    <glyph glyph-name="E" unicode="E" horiz-adv-x="1224" 
d="M999 0h-958q-45 0 -45 41q0 31 24 139q12 47 64 47h70l215 992h-78q-45 0 -45 41q0 36 24 139q12 47 64 47h874q26 0 37.5 -9t11.5 -32q0 -16 -51 -305q-4 -27 -18.5 -37t-40.5 -10h-121q-45 0 -45 43q0 15 12 123h-342l-76 -355h406q26 0 38.5 -8.5t12.5 -30.5
q0 -30 -26 -145q-6 -26 -22 -36.5t-46 -10.5h-412l-86 -406h418l29 113q14 53 61 53h117q51 0 51 -41q0 -10 -53 -295q-6 -33 -19 -45t-45 -12z" />
    <glyph glyph-name="F" unicode="F" horiz-adv-x="1181" 
d="M514 0h-473q-45 0 -45 41q0 31 24 139q12 47 64 47h70l215 992h-78q-45 0 -45 41q0 33 24 139q12 47 64 47h876q52 0 52 -41q0 -3 -5 -33q-21 -109 -49 -272q-4 -28 -18 -37.5t-41 -9.5h-119q-45 0 -45 43q0 25 10 123h-344l-88 -406h402q53 0 53 -37q0 -23 -29 -149
q-11 -45 -67 -45h-408l-76 -355h115q26 0 38.5 -8.5t12.5 -32.5q0 -25 -26 -139q-6 -28 -20.5 -37.5t-43.5 -9.5z" />
    <glyph glyph-name="G" unicode="G" horiz-adv-x="1380" 
d="M1184 133q-6 -33 -21 -51.5t-45 -30.5q-80 -37 -215 -57.5t-291 -20.5q-237 0 -368 115t-131 354q0 225 71 466t209 384q175 181 541 181q99 0 212 -13t165 -33q21 -6 30 -17t9 -32q0 -28 -47 -299q-4 -28 -19.5 -38.5t-42.5 -10.5h-119q-45 0 -45 45q0 14 15 152
q-79 14 -179 14q-207 0 -305 -98q-65 -64 -112.5 -184.5t-67.5 -238.5t-20 -222q0 -148 69.5 -219.5t218.5 -71.5q128 0 238 29l63 290h-209q-40 0 -40 33q0 37 30 164q9 43 53 43h426q26 0 39 -8t13 -31q0 -15 -11 -65z" />
    <glyph glyph-name="H" unicode="H" horiz-adv-x="1507" 
d="M475 0h-434q-45 0 -45 41q0 31 24 139q12 47 64 47h70l213 992h-76q-45 0 -45 41q0 33 24 139q9 47 64 47h430q27 0 40 -8t13 -33q0 -28 -26 -137q-7 -29 -21.5 -39t-44.5 -10h-74l-76 -355h510l78 355h-76q-47 0 -47 41q0 32 25 139q12 47 63 47h433q27 0 39 -8t12 -33
q0 -24 -27 -137q-6 -29 -20.5 -39t-44.5 -10h-72l-215 -992h76q28 0 40.5 -8.5t12.5 -32.5q0 -20 -27 -139q-7 -28 -21.5 -37.5t-43.5 -9.5h-432q-47 0 -47 41q0 22 26 139q9 47 62 47h69l88 406h-510l-88 -406h76q27 0 40 -9t13 -32q0 -25 -26 -139q-7 -28 -22 -37.5
t-44 -9.5z" />
    <glyph glyph-name="I" unicode="I" horiz-adv-x="710" 
d="M475 0h-434q-45 0 -45 41q0 31 24 139q12 47 64 47h70l213 992h-76q-45 0 -45 41q0 33 24 139q9 47 64 47h430q27 0 40 -8t13 -33q0 -28 -26 -137q-7 -29 -21.5 -39t-44.5 -10h-72l-215 -992h76q27 0 40 -9t13 -32q0 -25 -26 -139q-7 -28 -22 -37.5t-44 -9.5z" />
    <glyph glyph-name="J" unicode="J" horiz-adv-x="718" 
d="M467 203q-27 -121 -60.5 -192t-82.5 -117q-117 -105 -342 -105q-67 0 -101 10q-31 9 -31 54q0 43 23 118q6 23 22 37.5t37 14.5q7 0 35 -1.5t43 -1.5q70 0 109 33q23 20 37.5 60.5t33.5 126.5l211 979h-90q-47 0 -47 41q0 23 27 139q9 47 63 47h434q29 0 41.5 -8
t12.5 -33q0 -24 -27 -137q-7 -29 -21.5 -39t-43.5 -10h-64z" />
    <glyph glyph-name="K" unicode="K" horiz-adv-x="1376" 
d="M1393 1219h-101q-278 -375 -374 -494l200 -449q12 -28 29.5 -38.5t52.5 -10.5h70q26 0 38.5 -8.5t12.5 -32.5q0 -29 -25 -139q-7 -28 -21.5 -37.5t-43.5 -9.5h-215q-61 0 -89.5 22.5t-49.5 73.5l-195 494q-8 23 -25.5 30t-50.5 7h-80l-88 -400h76q27 0 40 -9t13 -32
q0 -25 -26 -139q-7 -28 -22 -37.5t-44 -9.5h-434q-45 0 -45 41q0 31 24 139q12 47 64 47h70l213 992h-76q-45 0 -45 41q0 33 24 139q9 47 64 47h430q27 0 40 -8t13 -33q0 -28 -26 -137q-7 -29 -21.5 -39t-44.5 -10h-72l-78 -355h93q74 0 104 43l232 312q-64 0 -64 41
q0 29 25 139q12 47 63 47h404q27 0 39 -8t12 -33q0 -20 -25 -137q-7 -29 -22 -39t-43 -10z" />
    <glyph glyph-name="L" unicode="L" horiz-adv-x="1191" 
d="M1006 0h-965q-45 0 -45 41q0 31 24 137q12 49 64 49h70l215 992h-78q-45 0 -45 41q0 43 24 139q12 47 64 47h438q28 0 40.5 -8t12.5 -33q0 -28 -26 -137q-7 -30 -21 -39.5t-43 -9.5h-84l-213 -992h418l33 121q14 53 61 53h117q51 0 51 -43q0 -25 -55 -301q-6 -31 -18 -44
t-39 -13z" />
    <glyph glyph-name="M" unicode="M" horiz-adv-x="1804" 
d="M475 0h-430q-49 0 -49 41q0 23 27 139q12 47 63 47h70l213 992h-74q-47 0 -47 41t24 139q12 47 64 47h412q62 0 71 -53q104 -560 123 -699q69 125 426 703q29 49 80 49h405q27 0 39.5 -8t12.5 -33q0 -20 -25 -137q-7 -29 -22 -39t-43 -10h-74l-207 -992h80
q26 0 38.5 -8.5t12.5 -32.5q0 -32 -25 -139q-7 -28 -21.5 -37.5t-43.5 -9.5h-434q-47 0 -47 41q0 22 26 139q9 47 64 47h67q136 647 197 903q-22 -42 -44 -82t-40 -72t-59 -100.5t-70 -116.5t-105.5 -173.5t-134.5 -220.5q-29 -50 -80 -50h-94q-53 0 -63 50
q-87 451 -133 765q-52 -277 -189 -903h78q27 0 40 -9t13 -32q0 -25 -26 -139q-7 -28 -22 -37.5t-44 -9.5z" />
    <glyph glyph-name="N" unicode="N" horiz-adv-x="1497" 
d="M475 0h-434q-45 0 -45 41q0 31 24 139q12 47 64 47h72l211 992h-76q-45 0 -45 41q0 36 24 139q9 47 64 47h282q23 0 39 -12t23 -29q235 -546 362 -873q38 221 146 687h-86q-47 0 -47 41q0 25 26 139q9 47 62 47h430q28 0 40.5 -8t12.5 -33q0 -24 -27 -137
q-7 -29 -21.5 -39t-43.5 -10h-70l-245 -1160q-6 -29 -25.5 -45t-46.5 -16h-123q-32 0 -49 9.5t-29 37.5q-268 634 -360 885q-30 -151 -152 -703h82q27 0 40 -9t13 -32q0 -25 -26 -139q-7 -28 -22 -37.5t-44 -9.5z" />
    <glyph glyph-name="O" unicode="O" horiz-adv-x="1427" 
d="M1409 1038q0 -91 -15.5 -206.5t-46 -240.5t-84 -243.5t-120.5 -191.5q-89 -98 -208 -140.5t-286 -42.5q-96 0 -171 11.5t-145.5 42.5t-116.5 81.5t-73.5 132t-27.5 191.5q0 137 26 288t89.5 311t154.5 257q172 185 481 185q100 0 174 -9t147 -36.5t119 -74t74.5 -126.5
t28.5 -189zM1112 993q0 141 -60.5 192.5t-203.5 51.5q-168 0 -258 -109q-83 -103 -131.5 -307t-48.5 -354q0 -149 62 -204.5t200 -55.5q97 0 160 26t114 101q72 106 119 318.5t47 340.5z" />
    <glyph glyph-name="P" unicode="P" horiz-adv-x="1310" 
d="M498 0h-457q-45 0 -45 41q0 31 24 139q12 47 64 47h70l213 992h-76q-45 0 -45 41q0 33 24 139q9 47 64 47h467q298 0 401 -53q72 -39 110 -110.5t38 -158.5q0 -125 -34.5 -225.5t-116 -179t-206.5 -113.5q-119 -35 -350 -35h-131l-76 -344h101q26 0 38.5 -8.5t12.5 -32.5
q0 -46 -25 -139q-7 -28 -22 -37.5t-43 -9.5zM559 791h137q138 0 209 24q73 27 109.5 93t36.5 153q0 49 -19 85.5t-53 51.5q-53 21 -201 21h-129z" />
    <glyph glyph-name="Q" unicode="Q" horiz-adv-x="1427" 
d="M1411 1038q0 -72 -10 -165.5t-34.5 -207t-59.5 -216.5t-90.5 -196t-122.5 -144l262 -166q24 -15 24 -39q0 -12 -17 -40t-77 -114q-18 -22 -39 -22q-17 0 -39 14l-385 252q-73 -21 -170 -21q-96 0 -172 11.5t-146 42.5t-116.5 81.5t-74 132t-27.5 191.5q0 136 26.5 288
t90 311t153.5 257q172 185 481 185q100 0 174 -9t147 -36.5t119 -74t74.5 -126.5t28.5 -189zM1114 993q0 141 -60.5 192.5t-203.5 51.5q-168 0 -258 -109q-82 -100 -130 -305t-48 -356q0 -149 61.5 -204.5t200.5 -55.5q97 0 159 26t113 101q72 106 119 318.5t47 340.5z" />
    <glyph glyph-name="R" unicode="R" horiz-adv-x="1378" 
d="M475 0h-434q-45 0 -45 41q0 31 24 139q12 47 64 47h72l213 992h-78q-45 0 -45 41q0 24 24 139q9 47 64 47h463q262 0 374 -53q74 -34 114 -109.5t40 -163.5q0 -180 -81 -308.5t-245 -180.5l131 -359q10 -29 22 -37t44 -8h76q55 0 55 -47q0 -41 -24 -133
q-7 -28 -23.5 -37.5t-46.5 -9.5h-205q-69 0 -101.5 24.5t-45.5 71.5l-152 488q-27 -4 -98 -4h-115l-78 -353h76q27 0 40 -9t13 -32q0 -25 -26 -139q-7 -28 -22 -37.5t-44 -9.5zM563 801h125q146 0 211 24q69 23 101 85.5t32 144.5q0 50 -19 87t-52 52q-55 25 -193 25h-117z
" />
    <glyph glyph-name="S" unicode="S" horiz-adv-x="1191" 
d="M53 86v291q0 29 15.5 44t42.5 15h116q49 0 52 -47l10 -151q115 -31 241 -31q130 0 198.5 42t68.5 154q0 57 -32 96.5t-124 73.5l-152 56q-136 50 -202 133t-66 211q0 253 155.5 376.5t448.5 123.5q213 0 344 -46q26 -9 35.5 -20.5t9.5 -30.5q0 -23 -49 -301
q-4 -28 -18 -37.5t-41 -9.5h-119q-47 0 -47 43q0 9 12 152q-99 16 -196 16q-234 0 -234 -190q0 -59 31.5 -98.5t116.5 -71.5l159 -60q150 -58 212.5 -131t62.5 -196q0 -269 -154 -394t-458 -125q-248 0 -400 58q-39 14 -39 55z" />
    <glyph glyph-name="T" unicode="T" horiz-adv-x="1255" 
d="M760 0h-453q-49 0 -49 41q0 17 27 139q9 47 63 47h78l213 981h-201l-24 -106q-11 -49 -62 -49h-119q-47 0 -47 43q0 18 50 295q5 28 20 41.5t47 13.5h1038q27 0 38.5 -9t11.5 -32q0 -7 -52 -305q-4 -28 -18 -37.5t-41 -9.5h-119q-45 0 -45 43q0 3 1 14.5t3 38t4 59.5
h-200l-211 -981h84q28 0 40.5 -8.5t12.5 -32.5q0 -20 -27 -139q-7 -28 -20.5 -37.5t-42.5 -9.5z" />
    <glyph glyph-name="U" unicode="U" horiz-adv-x="1480" 
d="M1305 578q-38 -180 -65.5 -270t-74.5 -150q-75 -97 -199.5 -142t-324.5 -45q-467 0 -467 316q0 103 39 286l137 646h-71q-48 0 -48 41q0 43 25 139q12 47 63 47h433q27 0 39 -8t12 -33q0 -20 -25 -137q-7 -29 -22 -39t-43 -10h-78l-150 -693q-18 -95 -18 -161
q0 -156 225 -156q82 0 139.5 15t98.5 59q31 31 51.5 83.5t40.5 141.5l152 711h-87q-47 0 -47 41q0 20 27 139q9 47 61 47h420q29 0 41.5 -8t12.5 -33q0 -11 -27 -137q-6 -29 -20 -39t-44 -10h-65z" />
    <glyph glyph-name="V" unicode="V" horiz-adv-x="1388" 
d="M662 -2h-166q-30 0 -47.5 17t-20.5 44l-158 1160h-53q-47 0 -47 41q0 26 27 139q12 47 63 47h430q27 0 40 -8t13 -33q0 -28 -26 -137q-7 -29 -21.5 -39t-44.5 -10h-88q79 -695 92 -838q56 117 141.5 274t315.5 564h-74q-47 0 -47 41q0 29 25 139q12 47 65 47h428
q29 0 41.5 -8t12.5 -33q0 -26 -27 -137q-7 -30 -20.5 -39.5t-42.5 -9.5h-54l-665 -1164q-32 -57 -92 -57z" />
    <glyph glyph-name="W" unicode="W" horiz-adv-x="2009" 
d="M575 -2h-167q-29 0 -45.5 18.5t-16.5 44.5l-37 1158h-59q-47 0 -47 41q0 25 26 139q9 47 64 47h430q28 0 40.5 -8t12.5 -33q0 -28 -26 -137q-7 -29 -21.5 -39t-44.5 -10h-96q10 -487 10 -811q53 130 132 301t304 645q17 37 36 55t52 18h146q52 0 55 -65q41 -660 41 -954
q85 226 348 811h-94q-45 0 -45 41q0 36 24 139q12 47 64 47h430q27 0 40 -8t13 -33q0 -28 -26 -137q-7 -29 -21.5 -39t-42.5 -10h-59l-531 -1162q-26 -59 -84 -59h-168q-61 0 -65 61q-15 358 -22.5 644.5t-8.5 302.5q-127 -289 -454 -949q-29 -59 -87 -59z" />
    <glyph glyph-name="X" unicode="X" horiz-adv-x="1394" 
d="M1208 0h-448q-47 0 -47 41q0 22 26 139q9 47 64 47h59q-80 169 -145 330q-43 -50 -127 -154.5t-144 -175.5h46q28 0 40.5 -8.5t12.5 -32.5q0 -20 -27 -139q-7 -28 -21 -37.5t-42 -9.5h-449q-49 0 -49 41q0 17 27 139q12 47 63 47h72l454 543l-215 449h-79q-48 0 -48 41
q0 29 25 139q12 47 63 47h431q28 0 40.5 -8t12.5 -33q0 -24 -27 -137q-7 -29 -21 -39t-42 -10h-47q39 -84 77 -169.5t48 -107.5q5 6 78 97t149 180h-29q-47 0 -47 41q0 34 25 137q13 49 63 49h430q28 0 40.5 -8t12.5 -33q0 -28 -26 -137q-7 -29 -21.5 -39t-42.5 -10h-73
l-418 -494l237 -498h78q26 0 38.5 -8.5t12.5 -32.5q0 -33 -24 -139q-7 -28 -22 -37.5t-44 -9.5z" />
    <glyph glyph-name="Y" unicode="Y" horiz-adv-x="1331" 
d="M1415 1219h-72l-514 -611l-81 -381h81q27 0 40.5 -9t13.5 -32q0 -20 -27 -139q-7 -28 -21 -37.5t-42 -9.5h-449q-47 0 -47 41q0 14 25 139q12 47 65 47h76l82 373l-250 619h-72q-47 0 -47 41q0 20 27 139q12 47 63 47h420q28 0 40.5 -8t12.5 -33q0 -28 -26 -137
q-7 -30 -21 -39.5t-43 -9.5h-37q92 -248 123 -347q80 121 266 347h-26q-47 0 -47 41q0 25 26 139q12 47 64 47h434q27 0 40 -8t13 -31q0 -27 -24 -139q-7 -29 -22.5 -39t-43.5 -10z" />
    <glyph glyph-name="Z" unicode="Z" horiz-adv-x="1292" 
d="M1104 0h-1053q-61 0 -61 57q0 23 12 84q7 37 20 57.5t46 55.5q483 535 854 954h-478l-28 -108q-7 -28 -20.5 -37.5t-39.5 -9.5h-116q-45 0 -45 43q0 17 51 295q10 55 71 55h951q33 0 49 -9t16 -36q0 -31 -12 -90q-9 -50 -25 -79t-63 -83q-561 -634 -817 -911h553l28 116
q12 54 66 54h113q47 0 47 -46q0 -15 -49 -307q-10 -55 -70 -55z" />
    <glyph glyph-name="bracketleft" unicode="[" horiz-adv-x="649" 
d="M408 -293h-359q-41 0 -41 37q0 19 6 43l359 1692q11 55 55 55h369q32 0 32 -27q0 -11 -12 -65q-9 -31 -49 -31h-190l-334 -1581h190q31 0 31 -27q0 -21 -10 -63q-7 -33 -47 -33z" />
    <glyph glyph-name="backslash" unicode="\" horiz-adv-x="894" 
d="M809 -127q8 -32 8 -45t-10.5 -23t-30.5 -10h-82q-28 0 -40 13t-19 42l-424 1594q-8 31 -8 53q0 41 43 41h88q20 0 30.5 -12.5t18.5 -42.5z" />
    <glyph glyph-name="bracketright" unicode="]" horiz-adv-x="649" 
d="M301 1534h358q41 0 41 -37q0 -23 -8 -55l-356 -1684q-10 -51 -55 -51h-369q-15 0 -24 7t-9 18q0 16 15 67q6 31 47 31h190l336 1581h-193q-30 0 -30 27q0 21 10 63q7 33 47 33z" />
    <glyph glyph-name="asciicircum" unicode="^" horiz-adv-x="1470" 
d="M1245 659q6 -18 6 -36q0 -48 -55 -48h-76q-54 0 -69 54l-148 536l-375 -549q-28 -41 -75 -41h-93q-55 0 -55 39q0 21 14 41l480 686q28 41 78 41h106q57 0 72 -53z" />
    <glyph glyph-name="underscore" unicode="_" horiz-adv-x="1009" 
d="M-158 -160h1010v-112h-1010v112z" />
    <glyph glyph-name="grave" unicode="`" horiz-adv-x="403" 
d="M205 1225l-213 239q-21 27 -21 49q0 43 49 43h152q45 0 78 -51l166 -233q18 -27 18 -47q0 -37 -51 -37h-92q-52 0 -86 37z" />
    <glyph glyph-name="a" unicode="a" horiz-adv-x="1226" 
d="M997 0h-262q-31 0 -43 10t-12 33q0 3 6 45q-95 -113 -311 -113q-148 0 -227.5 80.5t-79.5 241.5q0 111 22 225t77.5 229t135.5 181q71 58 156.5 80t208.5 22q70 0 129.5 -17.5t83.5 -47.5q13 36 27.5 47.5t43.5 11.5h127q54 0 54 -43q0 -21 -11 -74l-149 -686h63
q27 0 39 -8t12 -33t-24 -137q-6 -28 -21 -37.5t-45 -9.5zM725 328l98 458q-56 27 -145 27q-129 0 -199 -70q-57 -55 -91 -165t-34 -209q0 -89 36 -128.5t114 -39.5q111 0 168 47q28 23 35 35q7 13 18 45z" />
    <glyph glyph-name="b" unicode="b" horiz-adv-x="1181" 
d="M297 55l-8 -20q-9 -24 -22.5 -30.5t-47.5 -6.5h-119q-26 0 -36.5 10.5t-10.5 34.5q0 21 10 66l256 1198h-63q-45 0 -45 41q0 37 25 137q12 47 63 47h279q53 0 53 -41q0 -5 -8 -55l-109 -504q101 110 311 110q147 0 222 -70.5t75 -223.5q0 -133 -47 -315t-129 -286
q-72 -90 -173 -123.5t-249 -33.5q-76 0 -138 18.5t-89 46.5zM365 236q20 -13 63 -23t80 -10q88 0 141 21.5t90 72.5q43 62 72 186.5t29 192.5q0 69 -37.5 103t-116.5 34q-106 0 -174 -43q-19 -11 -33 -35q-7 -14 -14 -45z" />
    <glyph glyph-name="c" unicode="c" horiz-adv-x="956" 
d="M709 817q-30 6 -78 6q-113 0 -174 -75q-50 -61 -78.5 -171t-28.5 -202q0 -91 46 -133.5t141 -42.5q84 0 159 16q60 12 70 12q27 0 37 -32q18 -81 18 -123q0 -23 -11 -35.5t-34 -20.5q-130 -43 -317 -43q-195 0 -295.5 79.5t-100.5 262.5q0 140 45 307t136 271
q141 156 432 156q153 0 244 -31q34 -12 34 -51q0 -23 -43 -271q-4 -28 -19 -38.5t-42 -10.5h-105q-49 0 -49 41q0 17 13 129z" />
    <glyph glyph-name="d" unicode="d" horiz-adv-x="1212" 
d="M999 0h-266q-31 0 -42 9.5t-11 31.5q0 4 2.5 20.5t3.5 24.5q-98 -111 -311 -111q-148 0 -227.5 80.5t-79.5 241.5q0 176 57.5 356.5t175.5 276.5q71 58 160 81t213 23q51 0 107 -12t85 -27l68 312h-66q-45 0 -45 41q0 23 25 137q9 47 63 47h277q29 0 41 -10t12 -35
q0 -7 -8 -47l-260 -1215h63q29 0 41.5 -8t12.5 -31q0 -20 -27 -139q-7 -29 -20.5 -38t-43.5 -9zM725 330l98 463q-57 24 -145 24q-132 0 -201 -69q-55 -55 -89 -167.5t-34 -211.5q0 -89 36 -128.5t114 -39.5q99 0 170 47q22 14 33 37q9 14 18 45z" />
    <glyph glyph-name="e" unicode="e" horiz-adv-x="1067" 
d="M350 432q-6 -49 -6 -78q0 -90 50.5 -121.5t158.5 -31.5q121 0 248 30q5 1 16.5 5t21 6t17.5 2q28 0 39 -33q23 -85 23 -117q0 -43 -44 -61q-71 -29 -185 -44.5t-222 -15.5q-221 0 -312.5 91t-91.5 274q0 135 45 289t134 258q73 84 173.5 123t243.5 39q201 0 283 -74.5
t82 -218.5q0 -93 -27 -248q-9 -46 -36 -64q-17 -10 -56 -10h-555zM383 623h375q16 59 16 114q0 58 -32 86.5t-117 28.5q-94 0 -148 -45q-62 -54 -94 -184z" />
    <glyph glyph-name="f" unicode="f" horiz-adv-x="712" 
d="M481 0h-448q-47 0 -47 41q0 31 24 137q12 47 64 47h63l125 568h-80q-49 0 -49 43q0 27 23 129q6 27 20.5 40t44.5 13h86l37 166q45 213 152 291q106 77 311 77q96 0 145 -18q27 -12 27 -47q0 -24 -27 -125q-10 -37 -55 -37q-6 0 -43 3t-59 3q-88 0 -127 -39
q-39 -42 -58 -143l-28 -131h153q53 0 53 -43q0 -36 -24 -135q-10 -47 -68 -47h-159l-127 -568h110q26 0 38.5 -8.5t12.5 -32.5q0 -31 -24 -137q-7 -28 -22 -37.5t-44 -9.5z" />
    <glyph glyph-name="g" unicode="g" horiz-adv-x="1069" 
d="M123 10q-63 22 -92 60.5t-29 101.5q0 94 45.5 165t138.5 105q-53 53 -53 162q0 261 178 371q115 69 326 69q120 0 194 -26h259q47 0 47 -39q0 -49 -19 -139q-11 -47 -59 -47h-80q10 -20 10 -72q0 -74 -31.5 -154t-85.5 -129q-114 -106 -346 -106q-69 0 -131 12
q-50 8 -57 8q-23 0 -41 -12q-17 -12 -28 -37t-11 -49q0 -44 41 -55q41 -9 260 -9q239 0 335.5 -53.5t96.5 -185.5q0 -131 -36.5 -220t-113.5 -141.5t-183.5 -75t-258.5 -22.5q-136 0 -231 20.5t-144 58t-69.5 80.5t-20.5 97q0 100 45.5 163.5t143.5 98.5zM721 -137
q0 49 -38.5 73t-143.5 27q-74 2 -170 2q-50 0 -78 -12q-86 -39 -86 -131q0 -119 235 -119q51 0 84 2t74 11t65 25t41 47t17 75zM750 733q0 61 -39 87t-113 26q-85 0 -129 -33q-76 -51 -76 -174q0 -113 156 -113q102 0 151 52q50 53 50 155z" />
    <glyph glyph-name="h" unicode="h" horiz-adv-x="1259" 
d="M418 0h-410q-47 0 -47 41q0 24 27 137q12 47 61 47h64l233 1082h-63q-47 0 -47 41q0 12 26 137q9 47 64 47h276q27 0 40 -9t13 -32q0 -30 -6 -57l-110 -496q44 54 128.5 79t184.5 25q278 0 278 -180q0 -69 -22 -168l-102 -469h61q27 0 40 -8t13 -31q0 -22 -24 -139
q-7 -29 -22 -38t-44 -9h-289q-43 0 -43 39q0 6 1 13.5t3 15.5l3 12l120 573q13 54 13 88q0 40 -26 56t-85 16q-89 0 -162 -31q-32 -12 -51 -34q-15 -18 -25 -62l-102 -461h70q26 0 38.5 -9.5t12.5 -33.5q0 -25 -25 -135q-7 -28 -22 -37.5t-43 -9.5z" />
    <glyph glyph-name="i" unicode="i" horiz-adv-x="669" 
d="M442 0h-409q-47 0 -47 41q0 32 24 133q13 51 64 51h63l125 568h-65q-45 0 -45 41q0 24 24 137q9 47 64 47h290q43 0 43 -39q0 -24 -14 -82l-145 -672h65q28 0 40.5 -8.5t12.5 -32.5q0 -23 -26 -137q-7 -28 -21 -37.5t-43 -9.5zM639 1386q0 -33 -14.5 -79.5t-42.5 -71.5
q-46 -43 -123 -43q-135 0 -135 117q0 101 49 145q52 49 129 49q66 0 101.5 -26.5t35.5 -90.5z" />
    <glyph glyph-name="j" unicode="j" horiz-adv-x="612" 
d="M307 -98q-26 -119 -56.5 -191t-76.5 -114q-63 -57 -146 -82t-235 -25q-78 0 -78 61q0 21 21 113q14 55 74 55q99 0 149 31q50 32 72 144l194 899h-65q-47 0 -47 41q0 12 26 137q9 47 64 47h286q46 0 46 -37q0 -21 -5 -41zM600 1386q0 -33 -14.5 -79.5t-42.5 -71.5
q-46 -43 -123 -43q-135 0 -135 117q0 101 49 145q52 49 129 49q66 0 101.5 -26.5t35.5 -90.5z" />
    <glyph glyph-name="k" unicode="k" horiz-adv-x="1167" 
d="M416 0h-410q-47 0 -47 41q0 29 27 137q12 47 63 47h64l233 1082h-65q-48 0 -48 39q0 9 27 139q9 47 62 47h286q47 0 47 -41q0 -22 -6 -43l-166 -778h92q38 0 60 11.5t43 39.5l53 72h-14q-19 0 -31 11t-12 30q0 28 24 137q9 47 64 47h360q27 0 39.5 -9t12.5 -32
q0 -29 -25 -137q-7 -28 -22 -37.5t-44 -9.5h-73q-137 -173 -195 -242q50 -118 123 -275q14 -30 29.5 -40.5t50.5 -10.5h39q28 0 40.5 -8.5t12.5 -32.5q0 -18 -27 -137q-6 -28 -20.5 -37.5t-42.5 -9.5h-174q-102 0 -137 88l-127 334q-7 21 -23.5 28t-48.5 7h-70l-53 -232h68
q28 0 40.5 -8.5t12.5 -32.5q0 -18 -27 -137q-7 -28 -21.5 -37.5t-43.5 -9.5z" />
    <glyph glyph-name="l" unicode="l" horiz-adv-x="651" 
d="M432 0h-409q-48 0 -48 41q0 18 25 137q9 47 66 47h61l235 1084h-63q-47 0 -47 41q0 25 24 137q9 45 66 45h285q45 0 45 -43q0 -7 -4 -28t-4 -23l-261 -1213h68q27 0 40 -9t13 -32t-26 -137q-7 -28 -22 -37.5t-44 -9.5z" />
    <glyph glyph-name="m" unicode="m" horiz-adv-x="1880" 
d="M438 0h-405q-47 0 -47 41q0 27 24 137q12 47 64 47h63l125 568h-65q-47 0 -47 41q0 12 26 137q9 47 62 47h272q30 0 40.5 -10.5t10.5 -34.5q0 -15 -6 -49q41 59 125.5 88.5t193.5 29.5q93 0 163.5 -28.5t92.5 -91.5q50 56 144.5 88t200.5 32q276 0 276 -176
q0 -73 -20 -170l-105 -471h64q27 0 39 -8t12 -33q0 -15 -25 -137q-6 -28 -20.5 -37.5t-44.5 -9.5h-291q-43 0 -43 37q0 7 3 21.5t3 17.5l125 577q10 52 10 86q0 74 -106 74q-94 0 -158 -31q-30 -15 -49 -37q-17 -24 -27 -75l-96 -445h57q28 0 39.5 -8t11.5 -33
q0 -20 -24 -137q-6 -28 -21 -37.5t-45 -9.5h-286q-43 0 -43 39q0 7 3 21.5t3 17.5l123 575q12 53 12 88q0 72 -107 72q-73 0 -157 -31q-25 -11 -47 -30q-17 -17 -27 -62l-102 -465h65q28 0 40.5 -8.5t12.5 -32.5q0 -23 -26 -137q-7 -28 -22 -37.5t-44 -9.5z" />
    <glyph glyph-name="n" unicode="n" horiz-adv-x="1282" 
d="M442 0h-409q-47 0 -47 41q0 35 24 137q12 47 64 47h63l125 568h-65q-45 0 -45 41q0 29 24 137q9 47 64 47h268q30 0 40.5 -10.5t10.5 -34.5q0 -22 -6 -49q42 61 129 89.5t195 28.5q276 0 276 -180q0 -78 -20 -168l-103 -469h62q28 0 40.5 -8t12.5 -31q0 -20 -27 -139
q-7 -29 -20 -38t-43 -9h-291q-43 0 -43 39q0 4 1 10t2.5 13.5t2.5 11.5l123 579q10 55 10 88q0 40 -25.5 56t-80.5 16q-87 0 -162 -29q-37 -16 -51 -32q-18 -18 -29 -66l-100 -461h67q28 0 40.5 -8.5t12.5 -32.5q0 -23 -26 -137q-7 -28 -21 -37.5t-43 -9.5z" />
    <glyph glyph-name="o" unicode="o" horiz-adv-x="1144" 
d="M1085 717q0 -83 -17 -185.5t-59.5 -218.5t-101.5 -188q-126 -152 -403 -152q-64 0 -115.5 5.5t-103 19.5t-89.5 40t-67.5 63.5t-45 93t-15.5 127.5q0 152 48.5 318t145.5 267q135 140 381 140q66 0 115.5 -4t103.5 -15.5t91.5 -35t69 -58.5t47 -90t15.5 -127zM805 676
q0 83 -43.5 113t-136.5 30q-112 0 -170 -78q-47 -63 -76 -188.5t-29 -202.5q0 -87 41.5 -119t134.5 -32q126 0 179 80q41 59 70.5 192.5t29.5 204.5z" />
    <glyph glyph-name="p" unicode="p" horiz-adv-x="1210" 
d="M342 -500h-436q-47 0 -47 41q0 23 26 137q12 48 64 48h61l230 1067h-64q-47 0 -47 41q0 7 27 137q9 47 63 47h256q35 0 49.5 -8.5t14.5 -30.5q0 -37 -7 -51q96 114 314 114q148 0 225.5 -69t77.5 -225q0 -122 -36 -280.5t-103 -266.5q-74 -122 -182 -166.5t-283 -44.5
q-51 0 -114 12t-81 27l-67 -303h98q28 0 40.5 -8.5t12.5 -32.5t-26 -138q-7 -28 -22 -37.5t-44 -9.5zM391 233q25 -11 68 -20.5t78 -9.5q93 0 147.5 24t87.5 82q40 68 66 178.5t26 188.5q0 72 -37.5 105.5t-124.5 33.5q-96 0 -161 -41q-21 -14 -31 -31q-12 -29 -18 -57z" />
    <glyph glyph-name="q" unicode="q" horiz-adv-x="1189" 
d="M893 -500h-436q-45 0 -45 41q0 31 24 137q12 48 64 48h94l72 331q-55 -44 -122.5 -63t-166.5 -19q-144 0 -226.5 77.5t-82.5 242.5q0 163 50 333t154 277q132 135 396 135q75 0 140.5 -17t86.5 -44l6 18q10 24 26 30.5t52 6.5h104q30 0 43 -8t13 -29q0 -8 -4 -28
l-267 -1243h64q28 0 40.5 -8.5t12.5 -32.5q0 -19 -27 -138q-7 -28 -21.5 -37.5t-43.5 -9.5zM723 324l100 469q-43 24 -149 24q-134 0 -207 -88q-50 -62 -81.5 -170.5t-31.5 -198.5q0 -80 36.5 -118.5t115.5 -38.5q114 0 170 41q17 14 29 32q12 19 18 48z" />
    <glyph glyph-name="r" unicode="r" horiz-adv-x="858" 
d="M481 0h-448q-47 0 -47 41q0 34 24 137q12 47 64 47h63l125 568h-65q-45 0 -45 41q0 27 24 137q9 47 64 47h272q47 0 47 -39q0 -34 -6 -55q26 50 104 84t164 34q51 0 74 -8q29 -12 29 -45q0 -16 -15.5 -80.5t-25.5 -83.5q-15 -32 -58 -32q-13 0 -56 3t-60 3
q-86 0 -134 -25q-26 -14 -40 -37q-13 -20 -23 -61l-100 -451h108q26 0 38.5 -8.5t12.5 -32.5t-24 -137q-6 -28 -21 -37.5t-45 -9.5z" />
    <glyph glyph-name="s" unicode="s" horiz-adv-x="925" 
d="M20 72v231q0 57 60 57h100q46 0 49 -47l9 -110q75 -17 163 -17q105 0 138 37q20 22 20 60q0 28 -21 50.5t-79 41.5l-121 39q-109 34 -164 90t-55 160q0 194 133 294q112 86 338 86q162 0 260 -28q41 -10 41 -49q0 -35 -27 -244q-3 -27 -18 -37t-43 -10h-101q-45 0 -45 43
q0 7 1 21t2 37.5t2 45.5q-64 11 -105 11q-94 0 -129 -25q-35 -27 -35 -72q0 -34 22 -54t85 -42l118 -41q209 -69 209 -248q0 -187 -104 -282q-108 -97 -344 -97q-222 0 -326 43q-33 13 -33 56z" />
    <glyph glyph-name="t" unicode="t" horiz-adv-x="700" 
d="M508 793l-92 -414q-17 -84 -17 -117q0 -27 21.5 -42t62.5 -15q20 0 48 3t34 3q35 0 41 -43q4 -37 4 -102q0 -23 -18.5 -41.5t-46.5 -24.5q-83 -18 -193 -18q-241 0 -241 188q0 65 18 145l104 478h-86q-45 0 -45 38q0 27 23 132q10 55 61 55h97q8 38 55 221q8 31 22 46
t41 15h158q21 0 31 -8t10 -30q0 -14 -6 -50l-43 -194h141q28 0 38.5 -9t10.5 -28q0 -32 -24 -145q-10 -43 -66 -43h-143z" />
    <glyph glyph-name="u" unicode="u" horiz-adv-x="1282" 
d="M1042 0h-274q-32 0 -42.5 11t-10.5 36q0 19 4 39q-117 -111 -316 -111q-280 0 -280 187q0 72 20 166l101 465h-62q-47 0 -47 41q0 33 25 137q9 47 63 47h289q43 0 43 -39q0 -1 -6 -37l-123 -573q-10 -55 -10 -86q0 -80 127 -80q77 0 149 33q30 11 51 32q17 20 27 64
l98 461h-63q-47 0 -47 41q0 12 26 137q9 47 62 47h291q43 0 43 -39q0 -11 -6 -41l-154 -713h61q27 0 39.5 -8t12.5 -33q0 -27 -25 -137q-7 -28 -22.5 -37.5t-43.5 -9.5z" />
    <glyph glyph-name="v" unicode="v" horiz-adv-x="1089" 
d="M1090 793h-39l-459 -744q-29 -51 -76 -51h-151q-57 0 -68 53l-141 742h-37q-47 0 -47 41q0 35 26 137q9 47 64 47h350q28 0 39.5 -8.5t11.5 -32.5q0 -19 -24 -137q-6 -28 -21 -37.5t-45 -9.5h-37q50 -358 62 -463q76 151 252 463h-31q-47 0 -47 41q0 39 24 137
q12 47 64 47h368q28 0 40 -8.5t12 -32.5q0 -29 -25 -137q-7 -28 -21.5 -37.5t-43.5 -9.5z" />
    <glyph glyph-name="w" unicode="w" horiz-adv-x="1630" 
d="M1612 793h-33l-385 -744q-25 -51 -78 -51h-153q-59 0 -62 53q-15 150 -29 293t-19.5 200t-8.5 95q-95 -195 -309 -590q-26 -51 -80 -51h-150q-29 0 -45 15t-18 40l-64 740h-31q-49 0 -49 41q0 22 27 137q12 47 63 47h351q26 0 38.5 -8.5t12.5 -32.5q0 -29 -25 -137
q-7 -28 -21.5 -37.5t-43.5 -9.5h-43q16 -331 16 -449q82 183 289 578q32 63 88 63h117q47 0 57 -65q63 -474 72 -578q93 238 188 451h-47q-47 0 -47 41q0 22 27 137q9 47 61 47h375q26 0 38.5 -8.5t12.5 -32.5q0 -21 -27 -137q-6 -28 -20.5 -37.5t-44.5 -9.5z" />
    <glyph glyph-name="x" unicode="x" horiz-adv-x="1114" 
d="M1067 793h-51l-264 -283l159 -285h52q27 0 40 -9t13 -32q0 -18 -27 -137q-7 -27 -20.5 -37t-38.5 -10h-361q-47 0 -47 41q0 34 27 137q5 19 27 33t51 14q-75 136 -92 174q-54 -66 -160 -174q69 0 69 -51q0 -21 -24 -127q-6 -28 -20.5 -37.5t-43.5 -9.5h-356
q-18 0 -29.5 10.5t-11.5 30.5q0 30 25 137q12 47 63 47h49l297 310l-143 258h-64q-47 0 -47 41q0 22 27 137q9 47 61 47h346q28 0 41 -8.5t13 -32.5q0 -21 -27 -137q-5 -19 -22.5 -31t-40.5 -12q34 -64 77 -152q31 42 119 148q-21 2 -34 13t-13 28q0 30 25 137q12 47 63 47
h326q57 0 57 -39q0 -23 -27 -139q-7 -28 -20.5 -37.5t-42.5 -9.5z" />
    <glyph glyph-name="y" unicode="y" horiz-adv-x="1095" 
d="M1087 793h-34l-533 -875q-11 -18 -35 -58t-33 -54.5t-28 -45.5t-28.5 -44.5t-25.5 -36t-28 -36t-27.5 -29.5t-31.5 -30q-112 -96 -303 -96q-100 0 -146 16q-15 6 -25 20.5t-10 31.5q0 22 14 66.5t29 72.5q14 26 47 26q7 0 43 -4t56 -4q88 0 147 62q68 74 150 215l16 28
l-143 775h-39q-47 0 -47 41t24 137q12 47 64 47h352q27 0 40 -9t13 -32q0 -25 -26 -137q-7 -28 -22 -37.5t-48 -9.5h-37q45 -293 66 -476q133 253 266 476h-47q-45 0 -45 41q0 35 24 137q12 47 64 47h366q27 0 39.5 -9t12.5 -32q0 -29 -25 -137q-7 -28 -22 -37.5t-44 -9.5z
" />
    <glyph glyph-name="z" unicode="z" horiz-adv-x="1019" 
d="M827 0h-815q-47 0 -47 41q0 29 15 88q15 51 53 92l569 574h-270l-23 -93q-7 -28 -20.5 -37.5t-40.5 -9.5h-105q-47 0 -47 41q0 39 37 269q10 53 68 53h764q49 0 49 -39q0 -21 -13 -90q-7 -36 -20 -56.5t-55 -62.5l-531 -547h293l29 103q7 28 22 37.5t45 9.5h105
q45 0 45 -41q0 -46 -39 -279q-10 -53 -68 -53z" />
    <glyph glyph-name="braceleft" unicode="{" horiz-adv-x="724" 
d="M289 621q77 -16 116 -59.5t39 -123.5q0 -34 -16 -116l-59 -281q-13 -63 -13 -98q0 -41 19 -70q26 -37 129 -45q35 0 35 -35q0 -28 -9 -55q-13 -41 -59 -41q-229 0 -289 70q-47 47 -47 131q0 54 17 127l59 280q18 88 18 119q0 64 -29 95.5t-87 39.5q-39 3 -39 37
q0 22 8 53q12 51 55 58q89 17 138 73.5t73 173.5l53 242q37 183 111 254q56 54 134 74t206 20q49 0 49 -37q0 -21 -6 -51q-4 -27 -18 -36t-41 -11q-56 -2 -96 -13.5t-68 -43.5q-36 -38 -56 -154l-59 -272q-30 -139 -94 -208t-174 -97z" />
    <glyph glyph-name="bar" unicode="|" horiz-adv-x="540" 
d="M221 -242q-12 -59 -59 -59h-117q-43 0 -43 37q0 15 6 45l365 1712q6 30 19.5 43.5t41.5 13.5h119q41 0 41 -34q0 -6 -8 -46z" />
    <glyph glyph-name="braceright" unicode="}" horiz-adv-x="743" 
d="M496 618q-156 32 -156 185q0 33 16 115l60 280q12 62 12 98q0 43 -18 70q-26 37 -129 45q-35 3 -35 35q0 25 10 55q11 43 57 43q227 0 291 -71q45 -48 45 -132q0 -52 -14 -127l-62 -280q-16 -78 -16 -119q0 -121 115 -133q41 -5 41 -37q0 -24 -8 -55q-6 -16 -10 -24.5
t-16.5 -19t-31.5 -14.5q-89 -17 -137 -72.5t-74 -174.5l-51 -242q-41 -183 -113 -252q-56 -54 -133.5 -74t-206.5 -20q-26 0 -37.5 8t-11.5 27q0 18 6 53q4 27 18.5 36t41.5 9q56 2 96 13.5t68 43.5q33 39 57 154l57 272q31 140 95 208.5t174 96.5z" />
    <glyph glyph-name="asciitilde" unicode="~" horiz-adv-x="1435" 
d="M365 494q-28 -31 -52 -31q-31 0 -69 33q-19 16 -26 28t-7 31q0 26 18 47q152 174 308 174q50 0 99 -16.5t136 -65.5q108 -61 186 -61q49 0 90 20.5t85 71.5q29 33 57 33q23 0 53 -27q29 -21 38 -33t9 -30q0 -22 -18 -47q-70 -90 -144.5 -136.5t-171.5 -46.5
q-109 0 -233 72q-120 70 -186 70q-89 0 -172 -86z" />
    <glyph glyph-name="exclamdown" unicode="&#xa1;" horiz-adv-x="608" 
d="M152 457q19 73 86 73h84q35 0 53 -12.5t18 -44.5q0 -5 -8 -61q-121 -686 -133 -738q-10 -48 -31.5 -72t-64.5 -24h-142q-67 0 -67 60q0 30 87 363q67 259 118 456zM193 840q0 38 14 85.5t43 75.5q43 43 123 43q137 0 137 -124q0 -93 -51 -150q-45 -51 -129 -51
q-66 0 -101.5 27t-35.5 94z" />
    <glyph glyph-name="cent" unicode="&#xa2;" horiz-adv-x="1034" 
d="M522 -143q-5 -26 -15.5 -38t-33.5 -12h-39q-39 0 -39 29q0 13 4 33l27 127q-157 11 -237 86.5t-80 232.5q0 147 55 322.5t160 273.5q115 109 325 127l31 144q10 51 51 51h39q35 0 35 -27q0 -15 -6 -45l-27 -119q129 -3 205 -26q35 -14 35 -53q0 -46 -41 -248
q-10 -49 -64 -49h-90q-47 0 -47 43q0 22 8 102l-53 6l-127 -598q73 0 166 21q45 10 57 10q27 0 37 -35q14 -54 14 -111q0 -40 -43 -59q-107 -42 -278 -49zM399 373q0 -111 78 -140l121 570q-53 -16 -94 -70q-46 -63 -75.5 -172t-29.5 -188z" />
    <glyph glyph-name="sterling" unicode="&#xa3;" horiz-adv-x="1230" 
d="M1024 0h-907q-45 0 -45 35q0 39 20 127q7 41 45 57q50 23 88.5 48t76.5 60t58.5 81t20.5 100q0 27 -4 67h-170q-41 0 -41 33q0 31 14 97q8 38 51 38h129q-12 83 -12 197q0 155 71 262t195 158t295 51q184 0 299 -37q37 -11 37 -47q0 -46 -37 -250q-11 -53 -63 -53h-98
q-48 0 -48 45q0 4 0.5 10t1.5 32.5t3 59.5q-59 11 -117 11q-250 -3 -250 -267q0 -104 10 -172h359q23 0 34 -7t11 -29q0 -3 -15 -95q-8 -37 -55 -37h-334q4 -20 4 -57q0 -95 -45.5 -163t-144.5 -115h598q49 0 49 -41q0 -32 -27 -156q-8 -43 -57 -43z" />
    <glyph glyph-name="currency" unicode="&#xa4;" horiz-adv-x="1122" 
d="M1016 233q-19 -22 -43 -22q-25 0 -43 20l-99 101q-97 -66 -235 -66q-136 0 -236 64l-94 -99q-19 -22 -45 -22q-21 0 -43 22l-20 21q-21 24 -21 43q0 20 21 45l100 102q-72 104 -72 238q0 131 72 235l-100 101q-21 24 -21 43q0 24 23 47l18 16q23 23 41 23q20 0 43 -23
l100 -100q99 74 234 74q140 0 233 -72l99 98q23 23 43 23t43 -23l16 -16q21 -21 21 -45q0 -19 -21 -43l-96 -100q70 -99 70 -238q0 -136 -70 -238l100 -102q19 -22 19 -43t-21 -45zM848 680q0 120 -71 191t-181 71q-109 0 -181.5 -72t-72.5 -188q0 -121 71.5 -193.5
t182.5 -72.5q109 0 180.5 72.5t71.5 191.5z" />
    <glyph glyph-name="yen" unicode="&#xa5;" horiz-adv-x="1335" 
d="M778 0h-446q-47 0 -47 41q0 37 26 139q9 47 64 47h78l34 164h-264q-39 0 -39 31q0 17 13 67q8 22 19 30.5t34 8.5h268l8 41l-39 101h-211q-38 0 -38 32q0 34 12 68q6 21 18 30t35 9h131l-147 348h-78q-45 0 -45 41q0 33 24 139q5 26 14.5 36.5t35.5 10.5h436q27 0 39 -8
t12 -33q0 -32 -25 -137q-7 -29 -21.5 -39t-43.5 -10h-41q90 -241 117 -319q98 132 256 319h-45q-45 0 -45 41q0 33 24 139q12 47 64 47h452q24 0 29.5 -6.5t5.5 -31.5q0 -27 -27 -140q-7 -30 -20.5 -39.5t-42.5 -9.5h-70l-303 -348h141q39 0 39 -31q0 -22 -12 -69
q-10 -39 -51 -39h-227l-78 -95l-10 -47h286q39 0 39 -28q0 -26 -12 -70q-9 -39 -53 -39h-289l-37 -164h92q27 0 40 -9t13 -32q0 -25 -26 -139q-7 -28 -22 -37.5t-44 -9.5z" />
    <glyph glyph-name="brokenbar" unicode="&#xa6;" horiz-adv-x="540" 
d="M465 899q-12 -57 -62 -57h-116q-43 0 -43 37q0 5 8 45l102 489q12 57 64 57h119q38 0 38 -36q0 -15 -6 -45zM276 20q-6 -31 -20.5 -44t-40.5 -13h-117q-43 0 -43 35q0 5 8 45l103 489q13 60 63 60h119q39 0 39 -39q0 -15 -6 -45z" />
    <glyph glyph-name="section" unicode="&#xa7;" horiz-adv-x="1083" 
d="M776 258q86 -64 86 -192q0 -194 -125 -295t-364 -101q-192 0 -330 56q-45 17 -45 59q0 46 27 264q7 51 57 51h98q47 0 47 -51v-133q82 -27 176 -27q183 0 183 134q0 38 -27.5 67.5t-105.5 73.5l-125 72q-119 68 -172.5 136.5t-53.5 157.5q0 132 76 215t195 103
q-35 27 -57.5 76.5t-22.5 105.5q0 177 107.5 281.5t334.5 105.5q186 0 301 -39q45 -13 45 -57q0 -58 -30 -268q-5 -49 -60 -49h-94q-47 0 -47 40v142q-72 16 -139 16q-158 0 -158 -133q0 -34 27 -67t100 -76l106 -64q136 -78 189 -143t53 -148q0 -128 -67 -207t-185 -106z
M770 500q0 35 -16 59.5t-58 50.5q-88 60 -161 99q-19 12 -48 12q-20 0 -41 -6q-42 -12 -71 -44.5t-29 -82.5q0 -33 18.5 -58.5t63.5 -54.5q66 -45 172 -100q20 -10 41 -10q22 0 39 10q37 17 63.5 50t26.5 75z" />
    <glyph glyph-name="dieresis" unicode="&#xa8;" horiz-adv-x="403" 
d="M137 1380q0 -31 -11 -71t-34 -62q-38 -35 -102 -35q-111 0 -111 101q0 81 41 125q40 43 105 43q112 0 112 -101zM522 1380q0 -31 -11 -71t-34 -62q-38 -35 -100 -35q-113 0 -113 101q0 84 41 125q40 43 107 43q110 0 110 -101z" />
    <glyph glyph-name="copyright" unicode="&#xa9;" horiz-adv-x="1699" 
d="M1616 707q0 -208 -89 -375t-255.5 -264t-382.5 -97q-162 0 -299 56.5t-230 155t-145.5 234t-52.5 290.5q0 208 89.5 375.5t255.5 264.5t380 97q221 0 388.5 -97t254 -263.5t86.5 -376.5zM1530 707q0 187 -77.5 335t-225 234t-340.5 86q-143 0 -263 -50.5t-201 -138
t-126 -208t-45 -258.5t45 -258t126 -207.5t201.5 -138t264.5 -50.5q192 0 339 86t224.5 234t77.5 334zM1065 991q-35 6 -72 6q-76 0 -125 -18t-82 -61q-92 -122 -92 -320q0 -87 46.5 -132.5t136.5 -45.5q87 0 157 20q37 11 49 11q25 0 33 -27q17 -60 17 -88q0 -25 -46 -43
q-104 -41 -282 -41q-144 0 -233 85.5t-89 240.5q0 117 35.5 233t112.5 205q125 143 381 143q127 0 198 -22q31 -9 31 -43q0 -21 -29 -187q-6 -45 -45 -45h-75q-33 0 -33 43q0 27 6 86z" />
    <glyph glyph-name="ordfeminine" unicode="&#xaa;" horiz-adv-x="788" 
d="M481 592q-63 -66 -184 -66q-94 0 -146.5 49t-52.5 146q0 106 36.5 218t111.5 171q75 61 229 61q95 0 129 -34q7 32 43 32h103q34 0 34 -28q0 -23 -6 -47l-92 -404h39q37 0 37 -26q0 -7 -19 -97q-3 -17 -11 -22.5t-27 -5.5h-191q-22 0 -28.5 5t-8.5 19q0 13 4 29zM508 752
l59 262q-31 14 -78 14q-75 0 -114 -39q-33 -33 -53.5 -101t-20.5 -128q0 -47 20 -67.5t66 -20.5q49 0 88 28q11 8 19 19q9 14 14 33z" />
    <glyph glyph-name="guillemotleft" unicode="&#xab;" horiz-adv-x="1095" 
d="M330 537l176 -328q14 -25 14 -41q0 -12 -11 -22.5t-30 -10.5h-110q-41 0 -66 43l-188 322q-17 30 -17 47q0 26 33 59l309 301q47 47 88 47h127q29 0 29 -26q0 -21 -35 -56zM766 537l176 -328q14 -28 14 -41q0 -12 -10.5 -22.5t-30.5 -10.5h-110q-41 0 -66 43l-188 322
q-14 25 -14 47q0 27 32 59l308 301q47 47 90 47h125q30 0 30 -26q0 -17 -35 -56z" />
    <glyph glyph-name="logicalnot" unicode="&#xac;" horiz-adv-x="1435" 
d="M1182 129q-12 -57 -70 -57h-63q-58 0 -58 51q0 13 4 29l76 358h-813q-26 0 -41.5 14.5t-15.5 40.5q0 12 12 74q15 59 68 59h944q57 0 57 -53q0 -17 -6 -41z" />
    <glyph glyph-name="uni00AD" unicode="&#xad;" horiz-adv-x="700" 
d="M561 438h-430q-45 0 -45 37q0 25 27 139q13 50 65 50h426q49 0 49 -37q0 -19 -30 -142q-6 -28 -20 -37.5t-42 -9.5z" />
    <glyph glyph-name="registered" unicode="&#xae;" horiz-adv-x="1699" 
d="M1616 707q0 -208 -89 -375t-255.5 -264t-382.5 -97q-162 0 -299 56.5t-230 155t-145.5 234t-52.5 290.5q0 208 89.5 375.5t255.5 264.5t380 97q221 0 388.5 -97t254 -263.5t86.5 -376.5zM1530 707q0 187 -77.5 335t-225 234t-340.5 86q-143 0 -263 -50.5t-201 -138
t-126 -208t-45 -258.5t45 -258t126 -207.5t201.5 -138t264.5 -50.5q192 0 339 86t224.5 234t77.5 334zM758 279h-281q-33 0 -33 28q0 11 15 82q9 37 49 37h39l127 586h-47q-35 0 -35 32q0 20 16 76q5 21 16.5 30t37.5 9h280q187 0 252 -41q86 -56 86 -174q0 -217 -195 -287
l80 -202q12 -29 39 -29h43q33 0 33 -31q0 -17 -14 -80q-4 -20 -16.5 -28t-37.5 -8h-110q-77 0 -98 63l-95 285q-20 -4 -67 -4h-64l-45 -197h45q43 0 43 -31q0 -15 -16 -84q-4 -19 -14.5 -25.5t-32.5 -6.5zM807 768h72q84 0 125 14q42 14 64 50t22 83q0 63 -48 84
q-37 13 -110 13h-72z" />
    <glyph glyph-name="macron" unicode="&#xaf;" horiz-adv-x="403" 
d="M412 1227h-459q-45 0 -45 39q0 32 18 106q8 27 22.5 39t43.5 12h454q50 0 50 -39q0 -31 -21 -110q-7 -28 -20.5 -37.5t-42.5 -9.5z" />
    <glyph glyph-name="degree" unicode="&#xb0;" horiz-adv-x="688" 
d="M778 1204q0 -141 -81 -225t-222 -84q-119 0 -189.5 67t-70.5 191q0 140 82 222.5t223 82.5q122 0 190 -65.5t68 -188.5zM672 1194q0 84 -42.5 127t-121.5 43q-85 0 -135.5 -54t-50.5 -159q0 -77 45 -119.5t120 -42.5q83 0 134 53t51 152z" />
    <glyph glyph-name="plusminus" unicode="&#xb1;" horiz-adv-x="1435" 
d="M788 369q-9 -60 -67 -60h-64q-55 0 -55 51q0 13 4 37l72 342h-371q-57 0 -57 52q0 23 12 75q12 58 68 58h381l75 366q13 58 66 58h68q57 0 57 -54q0 -14 -4 -34l-70 -336h367q59 0 59 -52q0 -1 -12 -75q-12 -58 -68 -58h-383zM1130 0h-946q-27 0 -42 13.5t-15 37.5
q0 17 12 76q9 59 66 59h950q57 0 57 -53q0 -9 -12 -76q-9 -57 -70 -57z" />
    <glyph glyph-name="twosuperior" unicode="&#xb2;" 
d="M778 860h-602q-14 0 -22.5 8t-8.5 19q0 10 17 88q5 24 33 41q119 71 352 246q55 41 82.5 86t27.5 106q0 59 -28.5 86t-98.5 27q-68 0 -129 -15q-36 -8 -49 -8q-20 0 -26 23q-13 61 -13 86q0 26 39 37q102 30 244 30q266 0 266 -204q0 -182 -137 -302q-121 -104 -289 -196
q68 2 260 2l21 82q6 21 16.5 29t32.5 8h63q37 0 37 -27q0 -13 -37 -213q-6 -39 -51 -39z" />
    <glyph glyph-name="threesuperior" unicode="&#xb3;" 
d="M676 1305q77 -7 113 -46.5t36 -113.5q0 -157 -90 -227q-94 -74 -309 -74q-138 0 -203 24q-26 9 -26 33q0 35 26 92q8 23 33 23q4 0 12 -1t18.5 -2.5t16.5 -2.5q84 -15 143 -15q103 0 150 41q35 32 35 105q0 40 -33 59t-113 19h-30q-15 0 -24 8t-9 20q0 29 16 88
q9 37 45 37h35q81 0 121 29q37 26 37 92q0 41 -26.5 57.5t-98.5 16.5q-52 0 -115 -13q-36 -8 -49 -8q-15 0 -22 23q-13 53 -13 84q0 30 43 41q110 26 221 26q144 0 199 -45.5t55 -130.5q0 -102 -44 -159t-150 -80z" />
    <glyph glyph-name="acute" unicode="&#xb4;" horiz-adv-x="403" 
d="M170 1225q-37 -37 -84 -37h-100q-49 0 -49 37q0 24 20 47l219 239q20 24 37.5 34.5t42.5 10.5h162q51 0 51 -38q0 -21 -27 -48z" />
    <glyph glyph-name="mu" unicode="&#xb5;" horiz-adv-x="1193" 
d="M322 29l-82 -389q-13 -58 -62 -58h-174q-41 0 -41 37q0 15 6 45l277 1299q14 57 59 57h176q20 0 30.5 -11.5t10.5 -27.5q0 -7 -6 -37l-123 -573q-12 -52 -12 -92q0 -72 123 -72q100 0 176 26q33 11 49 29q16 21 25 60l137 641q14 57 63 57h172q41 0 41 -41q0 -21 -4 -37
l-190 -876q-13 -68 -72 -68h-149q-30 0 -41 9.5t-11 31.5q0 12 5 37q-89 -80 -254 -80q-98 0 -129 33z" />
    <glyph glyph-name="paragraph" unicode="&#xb6;" horiz-adv-x="1179" 
d="M502 -221q-5 -22 -13 -31.5t-28 -9.5h-43q-31 0 -31 24q0 9 4 29l148 684q-103 0 -178 25.5t-118 72t-63 104.5t-20 130q0 165 66 308t192 226q155 105 438 105h270q56 0 56 -41q0 -5 -6 -47l-338 -1577q-5 -24 -12 -33.5t-27 -9.5h-45q-29 0 -29 26q0 11 4 27l328 1542
h-226z" />
    <glyph glyph-name="periodcentered" unicode="&#xb7;" horiz-adv-x="499" 
d="M416 596q0 -37 -14.5 -85t-43.5 -77q-48 -45 -122 -45q-138 0 -138 127q0 39 14 80t38 68q48 53 129 53q66 0 101.5 -27.5t35.5 -93.5z" />
    <glyph glyph-name="cedilla" unicode="&#xb8;" horiz-adv-x="403" 
d="M268 -104q92 -4 127 -48.5t35 -115.5q0 -140 -77.5 -194t-233.5 -54q-73 0 -109 10q-37 8 -37 47q0 23 15 70q9 23 21 31t34 8q15 0 43 -4q27 -6 64 -6q44 0 59.5 14t15.5 53q0 25 -12.5 35t-38.5 10q-8 0 -26 -1t-23 -1q-41 3 -41 45q0 14 18 70l56 155h149z" />
    <glyph glyph-name="onesuperior" unicode="&#xb9;" 
d="M705 860h-394q-39 0 -39 33q0 4 17 84q5 24 16.5 33.5t38.5 9.5h96l119 504l-104 -41q-16 -8 -29 -8q-16 0 -23 18q-26 63 -26 92q0 22 24 31l197 78q23 10 55 10h92q17 0 26 -8t9 -21q0 -14 -4 -30l-143 -625h98q43 0 43 -33q0 -22 -16 -88q-6 -24 -16 -31.5t-37 -7.5z
" />
    <glyph glyph-name="ordmasculine" unicode="&#xba;" horiz-adv-x="755" 
d="M758 977q0 -84 -28.5 -191.5t-84.5 -169.5q-80 -92 -264 -92q-62 0 -108.5 8.5t-88.5 31t-64 66.5t-22 109q0 94 30.5 193.5t92.5 161.5q86 86 248 86q52 0 89.5 -3.5t77.5 -15.5t65 -33.5t41 -59.5t16 -91zM559 942q0 48 -25.5 65t-74.5 17q-65 0 -99 -45
q-28 -38 -44.5 -105.5t-16.5 -107.5q0 -49 25 -67.5t75 -18.5q70 0 101 43q26 33 42.5 104.5t16.5 114.5z" />
    <glyph glyph-name="guillemotright" unicode="&#xbb;" horiz-adv-x="1095" 
d="M793 553l-177 328q-14 23 -14 43q0 12 10.5 21t30.5 9h111q24 0 38 -10t27 -33l191 -321q12 -21 12 -49q0 -31 -31 -58l-309 -301q-47 -47 -88 -47h-127q-29 0 -29 29q0 20 35 55zM356 553l-176 328q-14 23 -14 43q0 12 10.5 21t30.5 9h110q41 0 66 -43l188 -321
q15 -26 15 -49q0 -29 -33 -58l-307 -301q-47 -47 -90 -47h-125q-29 0 -29 29q0 18 33 55z" />
    <glyph glyph-name="onequarter" unicode="&#xbc;" horiz-adv-x="1783" 
d="M510 -29q-13 -22 -24.5 -29.5t-30.5 -7.5h-56q-28 0 -28 25q0 14 20 41l918 1411q14 25 27 35t32 10h62q26 0 26 -22q0 -15 -24 -54zM610 541h-393q-39 0 -39 32q0 13 15 84q6 24 18 33.5t39 9.5h96l119 504l-107 -41q-20 -8 -28 -8q-13 0 -21 19q-28 74 -28 92
q0 20 26 30l195 78q23 10 57 10h92q33 0 33 -28q0 -15 -4 -31l-141 -625h98q41 0 41 -32q0 -20 -14 -88q-6 -24 -16.5 -31.5t-37.5 -7.5zM1501 0h-317q-37 0 -37 33q0 18 14 84q5 24 17 33.5t39 9.5h65l16 71h-352q-20 0 -26.5 7t-6.5 22q0 13 13 76q7 27 32 55l359 420
q26 33 63 33h123q27 0 27 -19q0 -15 -19 -37q-144 -164 -240.5 -275.5t-119.5 -137.5h174l35 137q10 41 43 41h110q31 0 31 -25q0 -18 -6 -36l-29 -117h78q33 0 33 -25q0 -15 -21 -92q-7 -27 -38 -27h-82l-17 -71h66q43 0 43 -33q0 -5 -17 -88q-6 -24 -16 -31.5t-37 -7.5z
" />
    <glyph glyph-name="onehalf" unicode="&#xbd;" horiz-adv-x="1783" 
d="M502 -29q-13 -22 -25 -29.5t-31 -7.5h-55q-29 0 -29 25q0 13 21 41l917 1411q26 45 60 45h61q27 0 27 -22q0 -13 -25 -54zM606 541h-393q-39 0 -39 32q0 18 14 84q6 24 18.5 33.5t39.5 9.5h96l119 504l-107 -41q-20 -8 -28 -8q-13 0 -21 19q-29 77 -29 92q0 20 27 30
l195 78q23 10 57 10h92q33 0 33 -28q0 -15 -4 -31l-141 -625h98q41 0 41 -32q0 -15 -15 -88q-6 -24 -16 -31.5t-37 -7.5zM1589 0h-602q-14 0 -22.5 8t-8.5 19q0 10 17 88q5 24 33 41q126 75 352 245q55 41 82.5 86.5t27.5 106.5q0 59 -28.5 86t-98.5 27q-67 0 -129 -15
q-36 -8 -49 -8q-20 0 -26 23q-13 61 -13 86t39 36q105 31 244 31q266 0 266 -205q0 -181 -137 -301q-121 -104 -289 -196q68 2 260 2l21 82q6 21 16.5 29t32.5 8h63q37 0 37 -27q0 -13 -37 -213q-6 -39 -51 -39z" />
    <glyph glyph-name="threequarters" unicode="&#xbe;" horiz-adv-x="1783" 
d="M592 -29q-13 -22 -24.5 -29.5t-30.5 -7.5h-56q-28 0 -28 25q0 14 20 41l918 1411q14 25 27 35t32 10h61q27 0 27 -22q0 -13 -25 -54zM655 985q78 -7 115 -46.5t37 -113.5q0 -156 -92 -227q-98 -74 -309 -74q-124 0 -201 25q-27 9 -27 35q0 31 25 90q11 22 35 22
q4 0 12 -1t18.5 -2.5t16.5 -2.5q75 -14 143 -14q109 0 150 41q32 29 32 104q0 40 -31.5 59t-111.5 19h-33q-14 0 -22.5 8.5t-8.5 20.5q0 25 17 88q5 20 14 28.5t29 8.5h37q82 0 121 28q34 25 34 93q0 41 -25.5 57t-97.5 16q-69 0 -116 -12q-36 -8 -47 -8q-17 0 -23 22
q-14 52 -14 84q0 30 41 41q114 27 225 27q142 0 197 -45.5t55 -130.5q0 -102 -44.5 -159.5t-150.5 -80.5zM1577 0h-317q-37 0 -37 33q0 18 14 84q5 24 16.5 33.5t38.5 9.5h66l16 71h-352q-20 0 -26.5 7t-6.5 22q0 18 12 76q7 25 33 55l359 420q26 33 63 33h123q27 0 27 -19
q0 -15 -19 -37q-144 -164 -240.5 -275.5t-119.5 -137.5h174l35 137q10 41 43 41h110q31 0 31 -25q0 -18 -6 -36l-29 -117h78q33 0 33 -25q0 -15 -21 -92q-7 -27 -39 -27h-82l-16 -71h66q43 0 43 -33q0 -5 -17 -88q-6 -24 -16 -31.5t-37 -7.5z" />
    <glyph glyph-name="questiondown" unicode="&#xbf;" horiz-adv-x="923" 
d="M475 528h96q58 0 58 -45q0 -13 -13 -94q-16 -72 -46.5 -116t-104.5 -93q-120 -80 -171.5 -137t-51.5 -137q0 -65 34.5 -96t120.5 -31q85 0 170 18q48 8 56 8q22 0 33.5 -10.5t17.5 -38.5q14 -54 14 -90q0 -61 -70 -78q-168 -41 -303 -41q-378 0 -378 265q0 158 66 251.5
t222 182.5q73 41 109 76t57 90q5 13 13.5 42.5t13.5 43.5q15 30 57 30zM424 840q0 39 13 86.5t42 74.5q43 43 125 43q135 0 135 -124q0 -96 -51 -150q-45 -51 -127 -51q-68 0 -102.5 27t-34.5 94z" />
    <glyph glyph-name="Agrave" unicode="&#xc0;" horiz-adv-x="1396" 
d="M414 0h-445q-47 0 -47 41q0 27 25 139q12 47 63 47h51l670 1166q30 55 84 55h180q57 0 66 -62l166 -1159h47q28 0 40.5 -8.5t12.5 -32.5q0 -20 -27 -139q-7 -28 -21.5 -37.5t-43.5 -9.5h-410q-45 0 -45 41q0 27 25 139q12 47 63 47h82l-26 205h-437l-120 -205h86
q28 0 40.5 -8.5t12.5 -32.5q0 -20 -27 -139q-7 -28 -21.5 -37.5t-43.5 -9.5zM852 1120q-40 -79 -260 -467h315q-27 210 -55 467zM850 1581l-275 207q-30 21 -30 49q0 14 12.5 25.5t36.5 11.5h176q52 0 94 -39l209 -199q27 -27 27 -49q0 -12 -9.5 -22.5t-31.5 -10.5h-117
q-40 0 -92 27z" />
    <glyph glyph-name="Aacute" unicode="&#xc1;" horiz-adv-x="1396" 
d="M414 0h-445q-47 0 -47 41q0 27 25 139q12 47 63 47h51l670 1166q30 55 84 55h180q57 0 66 -62l166 -1159h47q28 0 40.5 -8.5t12.5 -32.5q0 -20 -27 -139q-7 -28 -21.5 -37.5t-43.5 -9.5h-410q-45 0 -45 41q0 27 25 139q12 47 63 47h82l-26 205h-437l-120 -205h86
q28 0 40.5 -8.5t12.5 -32.5q0 -20 -27 -139q-7 -28 -21.5 -37.5t-43.5 -9.5zM852 1120q-40 -79 -260 -467h315q-27 210 -55 467zM944 1563q-49 -27 -92 -27h-121q-20 0 -30.5 9.5t-10.5 21.5q0 29 27 51l262 201q45 36 92 36h191q47 0 47 -32q0 -37 -29 -54z" />
    <glyph glyph-name="Acircumflex" unicode="&#xc2;" horiz-adv-x="1396" 
d="M414 0h-445q-47 0 -47 41q0 27 25 139q12 47 63 47h51l670 1166q30 55 84 55h180q57 0 66 -62l166 -1159h47q28 0 40.5 -8.5t12.5 -32.5q0 -20 -27 -139q-7 -28 -21.5 -37.5t-43.5 -9.5h-410q-45 0 -45 41q0 27 25 139q12 47 63 47h82l-26 205h-437l-120 -205h86
q28 0 40.5 -8.5t12.5 -32.5q0 -20 -27 -139q-7 -28 -21.5 -37.5t-43.5 -9.5zM852 1120q-40 -79 -260 -467h315q-27 210 -55 467zM705 1554h-101q-47 0 -47 39q0 19 27 43l235 205q59 55 109 55h110q49 0 84 -47l162 -211q14 -20 14 -41q0 -43 -61 -43h-82q-27 0 -44 9
t-38 30l-115 119l-163 -121q-27 -21 -45.5 -29t-44.5 -8z" />
    <glyph glyph-name="Atilde" unicode="&#xc3;" horiz-adv-x="1396" 
d="M414 0h-445q-47 0 -47 41q0 27 25 139q12 47 63 47h51l670 1166q30 55 84 55h180q57 0 66 -62l166 -1159h47q28 0 40.5 -8.5t12.5 -32.5q0 -20 -27 -139q-7 -28 -21.5 -37.5t-43.5 -9.5h-410q-45 0 -45 41q0 27 25 139q12 47 63 47h82l-26 205h-437l-120 -205h86
q28 0 40.5 -8.5t12.5 -32.5q0 -20 -27 -139q-7 -28 -21.5 -37.5t-43.5 -9.5zM852 1120q-40 -79 -260 -467h315q-27 210 -55 467zM674 1554h-64q-26 0 -37.5 9t-11.5 32q0 20 19 64q85 196 223 196q55 0 143 -53q70 -39 113 -39q24 0 40.5 12t37.5 48q24 41 71 41h56
q49 0 49 -39q0 -28 -27 -80q-88 -180 -211 -180q-41 0 -76 10t-86 41q-59 35 -94 35q-46 0 -78 -54q-16 -25 -29 -34t-38 -9z" />
    <glyph glyph-name="Adieresis" unicode="&#xc4;" horiz-adv-x="1396" 
d="M414 0h-445q-47 0 -47 41q0 27 25 139q12 47 63 47h51l670 1166q30 55 84 55h180q57 0 66 -62l166 -1159h47q28 0 40.5 -8.5t12.5 -32.5q0 -20 -27 -139q-7 -28 -21.5 -37.5t-43.5 -9.5h-410q-45 0 -45 41q0 27 25 139q12 47 63 47h82l-26 205h-437l-120 -205h86
q28 0 40.5 -8.5t12.5 -32.5q0 -20 -27 -139q-7 -28 -21.5 -37.5t-43.5 -9.5zM852 1120q-40 -79 -260 -467h315q-27 210 -55 467zM864 1735q0 -32 -10.5 -71.5t-32.5 -61.5q-40 -37 -102 -37q-111 0 -111 100q0 85 39 127q38 41 107 41q53 0 81.5 -22t28.5 -76zM1266 1735
q0 -32 -10.5 -71.5t-32.5 -61.5q-40 -37 -103 -37q-112 0 -112 100q0 83 41 127q38 41 106 41q54 0 82.5 -22t28.5 -76z" />
    <glyph glyph-name="Aring" unicode="&#xc5;" horiz-adv-x="1396" 
d="M414 0h-445q-47 0 -47 41q0 27 25 139q12 47 63 47h51l670 1166q30 55 84 55h180q57 0 66 -62l166 -1159h47q28 0 40.5 -8.5t12.5 -32.5q0 -20 -27 -139q-7 -28 -21.5 -37.5t-43.5 -9.5h-410q-45 0 -45 41q0 27 25 139q12 47 63 47h82l-26 205h-437l-120 -205h86
q28 0 40.5 -8.5t12.5 -32.5q0 -20 -27 -139q-7 -28 -21.5 -37.5t-43.5 -9.5zM852 1120q-40 -79 -260 -467h315q-27 210 -55 467zM1139 1720q0 -98 -55 -155.5t-154 -57.5q-81 0 -127.5 45.5t-46.5 128.5q0 98 55.5 156.5t151.5 58.5q82 0 129 -46t47 -130zM1053 1718
q0 49 -26.5 75t-72.5 26q-50 0 -84 -35.5t-34 -91.5q0 -51 27 -79t75 -28q53 0 84 34.5t31 98.5z" />
    <glyph glyph-name="AE" unicode="&#xc6;" horiz-adv-x="2070" 
d="M449 0h-472q-49 0 -49 41q0 17 27 139q12 47 63 47h68l834 992h-105q-47 0 -47 41q0 20 27 139q9 47 61 47h1198q49 0 49 -43q0 -13 -51 -303q-4 -27 -18.5 -37t-40.5 -10h-121q-45 0 -45 43q0 15 12 123h-346l-74 -355h400q51 0 51 -39q0 -34 -25 -145q-11 -47 -67 -47
h-408l-88 -406h422l31 113q14 53 59 53h117q51 0 51 -41q0 -18 -53 -295q-5 -30 -19 -43.5t-43 -13.5h-960q-47 0 -47 41q0 22 26 139q9 47 64 47h67l45 197h-454l-168 -197h67q27 0 40.5 -9t13.5 -32q0 -20 -27 -139q-7 -28 -21.5 -37.5t-43.5 -9.5zM766 655h328l116 549
q-328 -408 -444 -549z" />
    <glyph glyph-name="Ccedilla" unicode="&#xc7;" horiz-adv-x="1253" 
d="M625 -111q170 -7 170 -172q0 -144 -79 -200t-239 -56q-61 0 -119 15q-21 5 -30 15.5t-9 31.5q0 22 15 69q11 27 20 35t29 8q4 0 13.5 -1.5t22 -3.5t17.5 -3q18 -4 66 -4q46 0 63 15.5t17 54.5q0 27 -13 37t-41 10q-8 0 -27.5 -1t-23.5 -1q-43 3 -43 49q0 6 3 16t8 25.5
t8 24.5l43 127q-186 24 -284.5 143.5t-98.5 339.5q0 123 26.5 266t87.5 294t144 249q92 106 222 154.5t318 48.5q205 0 334 -39q43 -13 43 -56q0 -25 -49 -299q-4 -26 -18.5 -36.5t-40.5 -10.5h-119q-47 0 -47 45q0 9 16 154q-44 8 -139 8q-100 0 -171 -26t-124 -85
q-89 -96 -138.5 -282.5t-49.5 -347.5q0 -147 70 -219t214 -72q163 0 275 33q51 14 67 14q25 0 37 -29q25 -70 25 -133q0 -16 -15.5 -33.5t-42.5 -25.5q-166 -56 -387 -62z" />
    <glyph glyph-name="Egrave" unicode="&#xc8;" horiz-adv-x="1224" 
d="M999 0h-958q-45 0 -45 41q0 31 24 139q12 47 64 47h70l215 992h-78q-45 0 -45 41q0 36 24 139q12 47 64 47h874q26 0 37.5 -9t11.5 -32q0 -16 -51 -305q-4 -27 -18.5 -37t-40.5 -10h-121q-45 0 -45 43q0 15 12 123h-342l-76 -355h406q26 0 38.5 -8.5t12.5 -30.5
q0 -30 -26 -145q-6 -26 -22 -36.5t-46 -10.5h-412l-86 -406h418l29 113q14 53 61 53h117q51 0 51 -41q0 -10 -53 -295q-6 -33 -19 -45t-45 -12zM725 1581l-274 207q-31 22 -31 49q0 14 12.5 25.5t36.5 11.5h176q52 0 94 -39l209 -199q27 -27 27 -49q0 -12 -9.5 -22.5
t-31.5 -10.5h-117q-39 0 -92 27z" />
    <glyph glyph-name="Eacute" unicode="&#xc9;" horiz-adv-x="1224" 
d="M999 0h-958q-45 0 -45 41q0 31 24 139q12 47 64 47h70l215 992h-78q-45 0 -45 41q0 36 24 139q12 47 64 47h874q26 0 37.5 -9t11.5 -32q0 -16 -51 -305q-4 -27 -18.5 -37t-40.5 -10h-121q-45 0 -45 43q0 15 12 123h-342l-76 -355h406q26 0 38.5 -8.5t12.5 -30.5
q0 -30 -26 -145q-6 -26 -22 -36.5t-46 -10.5h-412l-86 -406h418l29 113q14 53 61 53h117q51 0 51 -41q0 -10 -53 -295q-6 -33 -19 -45t-45 -12zM856 1563q-49 -27 -92 -27h-121q-20 0 -30.5 9.5t-10.5 21.5q0 29 27 51l262 201q45 36 92 36h191q47 0 47 -32q0 -37 -29 -54z
" />
    <glyph glyph-name="Ecircumflex" unicode="&#xca;" horiz-adv-x="1224" 
d="M999 0h-958q-45 0 -45 41q0 31 24 139q12 47 64 47h70l215 992h-78q-45 0 -45 41q0 36 24 139q12 47 64 47h874q26 0 37.5 -9t11.5 -32q0 -16 -51 -305q-4 -27 -18.5 -37t-40.5 -10h-121q-45 0 -45 43q0 15 12 123h-342l-76 -355h406q26 0 38.5 -8.5t12.5 -30.5
q0 -30 -26 -145q-6 -26 -22 -36.5t-46 -10.5h-412l-86 -406h418l29 113q14 53 61 53h117q51 0 51 -41q0 -10 -53 -295q-6 -33 -19 -45t-45 -12zM582 1554h-101q-47 0 -47 39q0 19 27 43l235 205q59 55 109 55h110q49 0 84 -47l162 -211q15 -21 15 -41q0 -43 -62 -43h-82
q-27 0 -44 9t-38 30l-114 119l-164 -121q-27 -21 -45.5 -29t-44.5 -8z" />
    <glyph glyph-name="Edieresis" unicode="&#xcb;" horiz-adv-x="1224" 
d="M999 0h-958q-45 0 -45 41q0 31 24 139q12 47 64 47h70l215 992h-78q-45 0 -45 41q0 36 24 139q12 47 64 47h874q26 0 37.5 -9t11.5 -32q0 -16 -51 -305q-4 -27 -18.5 -37t-40.5 -10h-121q-45 0 -45 43q0 15 12 123h-342l-76 -355h406q26 0 38.5 -8.5t12.5 -30.5
q0 -30 -26 -145q-6 -26 -22 -36.5t-46 -10.5h-412l-86 -406h418l29 113q14 53 61 53h117q51 0 51 -41q0 -10 -53 -295q-6 -33 -19 -45t-45 -12zM745 1735q0 -32 -10.5 -71.5t-32.5 -61.5q-40 -37 -102 -37q-111 0 -111 100q0 85 39 127q38 41 107 41q53 0 81.5 -22t28.5 -76
zM1147 1735q0 -32 -10.5 -71.5t-32.5 -61.5q-40 -37 -103 -37q-112 0 -112 100q0 83 41 127q38 41 106 41q54 0 82.5 -22t28.5 -76z" />
    <glyph glyph-name="Igrave" unicode="&#xcc;" horiz-adv-x="710" 
d="M475 0h-434q-45 0 -45 41q0 31 24 139q12 47 64 47h70l213 992h-76q-45 0 -45 41q0 33 24 139q9 47 64 47h430q27 0 40 -8t13 -33q0 -28 -26 -137q-7 -29 -21.5 -39t-44.5 -10h-72l-215 -992h76q27 0 40 -9t13 -32q0 -25 -26 -139q-7 -28 -22 -37.5t-44 -9.5zM502 1581
l-275 207q-30 21 -30 49q0 14 12.5 25.5t36.5 11.5h176q52 0 94 -39l209 -199q27 -27 27 -49q0 -12 -9.5 -22.5t-31.5 -10.5h-117q-40 0 -92 27z" />
    <glyph glyph-name="Iacute" unicode="&#xcd;" horiz-adv-x="710" 
d="M475 0h-434q-45 0 -45 41q0 31 24 139q12 47 64 47h70l213 992h-76q-45 0 -45 41q0 33 24 139q9 47 64 47h430q27 0 40 -8t13 -33q0 -28 -26 -137q-7 -29 -21.5 -39t-44.5 -10h-72l-215 -992h76q27 0 40 -9t13 -32q0 -25 -26 -139q-7 -28 -22 -37.5t-44 -9.5zM602 1581
q-50 -27 -92 -27h-121q-20 0 -30.5 9.5t-10.5 21.5q0 29 27 51l262 201q46 37 92 37h191q47 0 47 -33q0 -36 -29 -53z" />
    <glyph glyph-name="Icircumflex" unicode="&#xce;" horiz-adv-x="710" 
d="M475 0h-434q-45 0 -45 41q0 31 24 139q12 47 64 47h70l213 992h-76q-45 0 -45 41q0 33 24 139q9 47 64 47h430q27 0 40 -8t13 -33q0 -28 -26 -137q-7 -29 -21.5 -39t-44.5 -10h-72l-215 -992h76q27 0 40 -9t13 -32q0 -25 -26 -139q-7 -28 -22 -37.5t-44 -9.5zM356 1554
h-100q-47 0 -47 39q0 19 27 43l235 205q59 55 109 55h110q49 0 84 -47l162 -211q14 -20 14 -41q0 -43 -61 -43h-82q-27 0 -44 9t-38 30l-115 119l-164 -121q-27 -21 -45.5 -29t-44.5 -8z" />
    <glyph glyph-name="Idieresis" unicode="&#xcf;" horiz-adv-x="710" 
d="M475 0h-434q-45 0 -45 41q0 31 24 139q12 47 64 47h70l213 992h-76q-45 0 -45 41q0 33 24 139q9 47 64 47h430q27 0 40 -8t13 -33q0 -28 -26 -137q-7 -29 -21.5 -39t-44.5 -10h-72l-215 -992h76q27 0 40 -9t13 -32q0 -25 -26 -139q-7 -28 -22 -37.5t-44 -9.5zM528 1735
q0 -32 -10.5 -71.5t-32.5 -61.5q-40 -37 -102 -37q-111 0 -111 100q0 85 39 127q38 41 107 41q53 0 81.5 -22t28.5 -76zM930 1735q0 -32 -10.5 -71.5t-32.5 -61.5q-40 -37 -103 -37q-112 0 -112 100q0 83 41 127q38 41 106 41q54 0 82.5 -22t28.5 -76z" />
    <glyph glyph-name="Eth" unicode="&#xd0;" horiz-adv-x="1441" 
d="M502 0h-461q-45 0 -45 41q0 31 24 139q12 47 64 47h70l88 412h-129q-45 0 -45 39q0 20 26 127q9 49 60 49h133l80 365h-76q-45 0 -45 41q0 27 24 139q9 47 64 47h467q242 0 375 -45q123 -42 185 -150t62 -270q0 -117 -13.5 -226t-49 -223.5t-90 -206t-143.5 -165.5
t-203 -111q-75 -24 -197.5 -36.5t-224.5 -12.5zM440 227h123q75 0 156.5 12t128.5 33q63 27 113 86.5t80 130.5t50 155t27.5 156.5t7.5 139.5q0 178 -108 238q-78 41 -250 41h-117l-78 -365h215q48 0 48 -39q0 -16 -27 -129q-7 -28 -21 -37.5t-43 -9.5h-217z" />
    <glyph glyph-name="Ntilde" unicode="&#xd1;" horiz-adv-x="1497" 
d="M475 0h-434q-45 0 -45 41q0 31 24 139q12 47 64 47h72l211 992h-76q-45 0 -45 41q0 36 24 139q9 47 64 47h282q23 0 39 -12t23 -29q235 -546 362 -873q38 221 146 687h-86q-47 0 -47 41q0 25 26 139q9 47 62 47h430q28 0 40.5 -8t12.5 -33q0 -24 -27 -137
q-7 -29 -21.5 -39t-43.5 -10h-70l-245 -1160q-6 -29 -25.5 -45t-46.5 -16h-123q-32 0 -49 9.5t-29 37.5q-268 634 -360 885q-30 -151 -152 -703h82q27 0 40 -9t13 -32q0 -25 -26 -139q-7 -28 -22 -37.5t-44 -9.5zM750 1554h-64q-26 0 -37.5 9t-11.5 32q0 22 18 64
q85 196 224 196q55 0 143 -53q70 -39 113 -39q24 0 40 12t37 48q24 41 72 41h55q50 0 50 -39q0 -28 -27 -80q-88 -180 -211 -180q-41 0 -76 10t-86 41q-59 35 -94 35q-46 0 -78 -54q-16 -25 -29 -34t-38 -9z" />
    <glyph glyph-name="Ograve" unicode="&#xd2;" horiz-adv-x="1427" 
d="M1409 1038q0 -91 -15.5 -206.5t-46 -240.5t-84 -243.5t-120.5 -191.5q-89 -98 -208 -140.5t-286 -42.5q-96 0 -171 11.5t-145.5 42.5t-116.5 81.5t-73.5 132t-27.5 191.5q0 137 26 288t89.5 311t154.5 257q172 185 481 185q100 0 174 -9t147 -36.5t119 -74t74.5 -126.5
t28.5 -189zM1112 993q0 141 -60.5 192.5t-203.5 51.5q-168 0 -258 -109q-83 -103 -131.5 -307t-48.5 -354q0 -149 62 -204.5t200 -55.5q97 0 160 26t114 101q72 106 119 318.5t47 340.5zM866 1581l-274 207q-31 22 -31 49q0 14 12.5 25.5t36.5 11.5h176q53 0 95 -39
l209 -199q26 -26 26 -49q0 -12 -9.5 -22.5t-31.5 -10.5h-117q-40 0 -92 27z" />
    <glyph glyph-name="Oacute" unicode="&#xd3;" horiz-adv-x="1427" 
d="M1409 1038q0 -91 -15.5 -206.5t-46 -240.5t-84 -243.5t-120.5 -191.5q-89 -98 -208 -140.5t-286 -42.5q-96 0 -171 11.5t-145.5 42.5t-116.5 81.5t-73.5 132t-27.5 191.5q0 137 26 288t89.5 311t154.5 257q172 185 481 185q100 0 174 -9t147 -36.5t119 -74t74.5 -126.5
t28.5 -189zM1112 993q0 141 -60.5 192.5t-203.5 51.5q-168 0 -258 -109q-83 -103 -131.5 -307t-48.5 -354q0 -149 62 -204.5t200 -55.5q97 0 160 26t114 101q72 106 119 318.5t47 340.5zM993 1581q-50 -27 -92 -27h-121q-20 0 -30.5 9.5t-10.5 21.5q0 29 27 51l262 201
q46 37 92 37h191q47 0 47 -33q0 -36 -29 -53z" />
    <glyph glyph-name="Ocircumflex" unicode="&#xd4;" horiz-adv-x="1427" 
d="M1409 1038q0 -91 -15.5 -206.5t-46 -240.5t-84 -243.5t-120.5 -191.5q-89 -98 -208 -140.5t-286 -42.5q-96 0 -171 11.5t-145.5 42.5t-116.5 81.5t-73.5 132t-27.5 191.5q0 137 26 288t89.5 311t154.5 257q172 185 481 185q100 0 174 -9t147 -36.5t119 -74t74.5 -126.5
t28.5 -189zM1112 993q0 141 -60.5 192.5t-203.5 51.5q-168 0 -258 -109q-83 -103 -131.5 -307t-48.5 -354q0 -149 62 -204.5t200 -55.5q97 0 160 26t114 101q72 106 119 318.5t47 340.5zM696 1554h-100q-47 0 -47 39q0 20 26 43l236 205q59 55 109 55h110q49 0 84 -47
l162 -211q14 -20 14 -41q0 -43 -61 -43h-82q-27 0 -44 9t-38 30l-115 119l-164 -121q-27 -21 -45.5 -29t-44.5 -8z" />
    <glyph glyph-name="Otilde" unicode="&#xd5;" horiz-adv-x="1427" 
d="M1409 1038q0 -91 -15.5 -206.5t-46 -240.5t-84 -243.5t-120.5 -191.5q-89 -98 -208 -140.5t-286 -42.5q-96 0 -171 11.5t-145.5 42.5t-116.5 81.5t-73.5 132t-27.5 191.5q0 137 26 288t89.5 311t154.5 257q172 185 481 185q100 0 174 -9t147 -36.5t119 -74t74.5 -126.5
t28.5 -189zM1112 993q0 141 -60.5 192.5t-203.5 51.5q-168 0 -258 -109q-83 -103 -131.5 -307t-48.5 -354q0 -149 62 -204.5t200 -55.5q97 0 160 26t114 101q72 106 119 318.5t47 340.5zM678 1554h-64q-26 0 -37.5 9t-11.5 32q0 20 19 64q85 196 223 196q55 0 143 -53
q70 -39 113 -39q24 0 40.5 12t37.5 48q24 41 71 41h56q49 0 49 -39q0 -28 -27 -80q-88 -180 -211 -180q-41 0 -75.5 10t-85.5 41q-59 35 -95 35q-46 0 -78 -54q-16 -25 -29 -34t-38 -9z" />
    <glyph glyph-name="Odieresis" unicode="&#xd6;" horiz-adv-x="1427" 
d="M1409 1038q0 -91 -15.5 -206.5t-46 -240.5t-84 -243.5t-120.5 -191.5q-89 -98 -208 -140.5t-286 -42.5q-96 0 -171 11.5t-145.5 42.5t-116.5 81.5t-73.5 132t-27.5 191.5q0 137 26 288t89.5 311t154.5 257q172 185 481 185q100 0 174 -9t147 -36.5t119 -74t74.5 -126.5
t28.5 -189zM1112 993q0 141 -60.5 192.5t-203.5 51.5q-168 0 -258 -109q-83 -103 -131.5 -307t-48.5 -354q0 -149 62 -204.5t200 -55.5q97 0 160 26t114 101q72 106 119 318.5t47 340.5zM877 1735q0 -32 -10.5 -71.5t-32.5 -61.5q-40 -37 -103 -37q-110 0 -110 100
q0 86 38 127t107 41q54 0 82.5 -22t28.5 -76zM1278 1735q0 -32 -10.5 -71.5t-32.5 -61.5q-40 -37 -102 -37q-113 0 -113 100q0 83 41 127q38 41 106 41q54 0 82.5 -22t28.5 -76z" />
    <glyph glyph-name="multiply" unicode="&#xd7;" horiz-adv-x="1435" 
d="M1151 328q20 -20 20 -45q0 -23 -22 -45l-53 -54q-23 -20 -45 -20q-21 0 -43 22l-258 281l-318 -287q-18 -18 -43 -18q-22 0 -43 24l-39 45q-20 20 -20 43q0 24 26 50l318 284l-262 283q-21 21 -21 43q0 25 25 47l55 51q21 21 43 21q25 0 45 -23l258 -285l324 291
q22 19 41 19q26 0 45 -25l39 -47q16 -19 16 -41q0 -25 -22 -47l-326 -289z" />
    <glyph glyph-name="Oslash" unicode="&#xd8;" horiz-adv-x="1427" 
d="M193 -25q-16 -16 -31 -16q-18 0 -66 45q-12 10 -12 23q0 16 16 32l80 95q-65 103 -65 278q0 137 26 288t89.5 311t154.5 257q172 185 481 185q254 0 375 -72l82 96q16 19 31 19q13 0 26 -13q52 -41 52 -53t-15 -35l-82 -96q74 -104 74 -281q0 -91 -15.5 -206.5
t-46 -240.5t-84 -243.5t-120.5 -191.5q-89 -98 -208 -140.5t-286 -42.5q-254 0 -381 90zM1112 993q0 24 -4 60l-655 -770q57 -76 219 -76q97 0 160 26t114 101q72 106 119 318.5t47 340.5zM410 467v-43l645 758q-58 55 -207 55q-168 0 -258 -109q-83 -103 -131.5 -307
t-48.5 -354z" />
    <glyph glyph-name="Ugrave" unicode="&#xd9;" horiz-adv-x="1480" 
d="M1305 578q-38 -180 -65.5 -270t-74.5 -150q-75 -97 -199.5 -142t-324.5 -45q-467 0 -467 316q0 103 39 286l137 646h-71q-48 0 -48 41q0 43 25 139q12 47 63 47h433q27 0 39 -8t12 -33q0 -20 -25 -137q-7 -29 -22 -39t-43 -10h-78l-150 -693q-18 -95 -18 -161
q0 -156 225 -156q82 0 139.5 15t98.5 59q31 31 51.5 83.5t40.5 141.5l152 711h-87q-47 0 -47 41q0 20 27 139q9 47 61 47h420q29 0 41.5 -8t12.5 -33q0 -11 -27 -137q-6 -29 -20 -39t-44 -10h-65zM881 1581l-275 207q-31 22 -31 49q0 14 13 25.5t37 11.5h176q52 0 94 -39
l209 -199q26 -26 26 -49q0 -12 -9 -22.5t-31 -10.5h-117q-39 0 -92 27z" />
    <glyph glyph-name="Uacute" unicode="&#xda;" horiz-adv-x="1480" 
d="M1305 578q-38 -180 -65.5 -270t-74.5 -150q-75 -97 -199.5 -142t-324.5 -45q-467 0 -467 316q0 103 39 286l137 646h-71q-48 0 -48 41q0 43 25 139q12 47 63 47h433q27 0 39 -8t12 -33q0 -20 -25 -137q-7 -29 -22 -39t-43 -10h-78l-150 -693q-18 -95 -18 -161
q0 -156 225 -156q82 0 139.5 15t98.5 59q31 31 51.5 83.5t40.5 141.5l152 711h-87q-47 0 -47 41q0 20 27 139q9 47 61 47h420q29 0 41.5 -8t12.5 -33q0 -11 -27 -137q-6 -29 -20 -39t-44 -10h-65zM999 1581q-49 -27 -92 -27h-121q-20 0 -30.5 9.5t-10.5 21.5q0 29 27 51
l262 201q46 37 92 37h191q47 0 47 -33q0 -36 -29 -53z" />
    <glyph glyph-name="Ucircumflex" unicode="&#xdb;" horiz-adv-x="1480" 
d="M1305 578q-38 -180 -65.5 -270t-74.5 -150q-75 -97 -199.5 -142t-324.5 -45q-467 0 -467 316q0 103 39 286l137 646h-71q-48 0 -48 41q0 43 25 139q12 47 63 47h433q27 0 39 -8t12 -33q0 -20 -25 -137q-7 -29 -22 -39t-43 -10h-78l-150 -693q-18 -95 -18 -161
q0 -156 225 -156q82 0 139.5 15t98.5 59q31 31 51.5 83.5t40.5 141.5l152 711h-87q-47 0 -47 41q0 20 27 139q9 47 61 47h420q29 0 41.5 -8t12.5 -33q0 -11 -27 -137q-6 -29 -20 -39t-44 -10h-65zM737 1554h-100q-47 0 -47 39q0 20 26 43l236 205q59 55 109 55h110
q49 0 84 -47l162 -211q14 -20 14 -41q0 -43 -61 -43h-82q-27 0 -44 9t-38 30l-115 119l-164 -121q-27 -21 -45.5 -29t-44.5 -8z" />
    <glyph glyph-name="Udieresis" unicode="&#xdc;" horiz-adv-x="1480" 
d="M1305 578q-38 -180 -65.5 -270t-74.5 -150q-75 -97 -199.5 -142t-324.5 -45q-467 0 -467 316q0 103 39 286l137 646h-71q-48 0 -48 41q0 43 25 139q12 47 63 47h433q27 0 39 -8t12 -33q0 -20 -25 -137q-7 -29 -22 -39t-43 -10h-78l-150 -693q-18 -95 -18 -161
q0 -156 225 -156q82 0 139.5 15t98.5 59q31 31 51.5 83.5t40.5 141.5l152 711h-87q-47 0 -47 41q0 20 27 139q9 47 61 47h420q29 0 41.5 -8t12.5 -33q0 -11 -27 -137q-6 -29 -20 -39t-44 -10h-65zM891 1735q0 -32 -10.5 -71.5t-32.5 -61.5q-40 -37 -103 -37q-110 0 -110 100
q0 85 39 127q38 41 106 41q54 0 82.5 -22t28.5 -76zM1292 1735q0 -32 -10.5 -71.5t-32.5 -61.5q-40 -37 -102 -37q-113 0 -113 100q0 83 41 127q38 41 107 41q53 0 81.5 -22t28.5 -76z" />
    <glyph glyph-name="Yacute" unicode="&#xdd;" horiz-adv-x="1331" 
d="M1415 1219h-72l-514 -611l-81 -381h81q27 0 40.5 -9t13.5 -32q0 -20 -27 -139q-7 -28 -21 -37.5t-42 -9.5h-449q-47 0 -47 41q0 14 25 139q12 47 65 47h76l82 373l-250 619h-72q-47 0 -47 41q0 20 27 139q12 47 63 47h420q28 0 40.5 -8t12.5 -33q0 -28 -26 -137
q-7 -30 -21 -39.5t-43 -9.5h-37q92 -248 123 -347q80 121 266 347h-26q-47 0 -47 41q0 25 26 139q12 47 64 47h434q27 0 40 -8t13 -31q0 -27 -24 -139q-7 -29 -22.5 -39t-43.5 -10zM913 1571q-49 -27 -92 -27h-121q-20 0 -30.5 9.5t-10.5 21.5q0 29 27 51l262 201
q46 37 92 37h191q47 0 47 -33q0 -36 -29 -53z" />
    <glyph glyph-name="Thorn" unicode="&#xde;" horiz-adv-x="1310" 
d="M723 1219h-72l-12 -64h102q289 0 400 -57q73 -37 110 -105.5t37 -154.5q0 -414 -354 -512q-112 -33 -350 -33h-131l-13 -66h72q27 0 40 -9t13 -32q0 -25 -26 -139q-7 -28 -22 -37.5t-44 -9.5h-434q-45 0 -45 41q0 31 24 139q12 47 64 47h76l209 992h-78q-45 0 -45 41
q0 33 24 139q12 47 64 47h430q27 0 40 -8t13 -33q0 -24 -27 -137q-7 -29 -21.5 -39t-43.5 -10zM500 514h137q139 0 209 23q143 52 143 239q0 97 -69 125q-50 23 -201 23h-129z" />
    <glyph glyph-name="germandbls" unicode="&#xdf;" horiz-adv-x="1210" 
d="M297 0h-291q-47 0 -47 41q0 18 27 137q9 47 61 47h66l157 731q52 237 105 320q32 51 65.5 85t84.5 63.5t125 44t173 14.5q187 0 272 -80t85 -207q0 -343 -285 -401q231 -25 231 -242q0 -122 -32.5 -240.5t-104.5 -201.5q-62 -70 -153 -99.5t-220 -29.5q-94 0 -147 18
q-27 12 -27 37q0 20 11.5 64t25.5 75q17 33 47 33q11 0 39 -4q41 -6 84 -6q98 0 146 80q55 101 55 243q0 73 -46 106.5t-155 33.5h-24q-37 0 -37 34q0 43 28 146q7 26 21 36.5t39 10.5h22q89 0 144 67q65 80 65 209q0 115 -133 115q-106 0 -156 -74q-31 -51 -63 -202
l-201 -949q-12 -55 -57 -55z" />
    <glyph glyph-name="agrave" unicode="&#xe0;" horiz-adv-x="1226" 
d="M997 0h-262q-31 0 -43 10t-12 33q0 3 6 45q-95 -113 -311 -113q-148 0 -227.5 80.5t-79.5 241.5q0 111 22 225t77.5 229t135.5 181q71 58 156.5 80t208.5 22q70 0 129.5 -17.5t83.5 -47.5q13 36 27.5 47.5t43.5 11.5h127q54 0 54 -43q0 -21 -11 -74l-149 -686h63
q27 0 39 -8t12 -33t-24 -137q-6 -28 -21 -37.5t-45 -9.5zM725 328l98 458q-56 27 -145 27q-129 0 -199 -70q-57 -55 -91 -165t-34 -209q0 -89 36 -128.5t114 -39.5q111 0 168 47q28 23 35 35q7 13 18 45zM633 1225l-213 239q-21 27 -21 49q0 43 50 43h151q45 0 78 -51
l166 -233q18 -27 18 -47q0 -37 -51 -37h-92q-52 0 -86 37z" />
    <glyph glyph-name="aacute" unicode="&#xe1;" horiz-adv-x="1226" 
d="M997 0h-262q-31 0 -43 10t-12 33q0 3 6 45q-95 -113 -311 -113q-148 0 -227.5 80.5t-79.5 241.5q0 111 22 225t77.5 229t135.5 181q71 58 156.5 80t208.5 22q70 0 129.5 -17.5t83.5 -47.5q13 36 27.5 47.5t43.5 11.5h127q54 0 54 -43q0 -21 -11 -74l-149 -686h63
q27 0 39 -8t12 -33t-24 -137q-6 -28 -21 -37.5t-45 -9.5zM725 328l98 458q-56 27 -145 27q-129 0 -199 -70q-57 -55 -91 -165t-34 -209q0 -89 36 -128.5t114 -39.5q111 0 168 47q28 23 35 35q7 13 18 45zM797 1225q-37 -37 -84 -37h-101q-49 0 -49 37q0 23 21 47l219 239
q20 24 37.5 34.5t42.5 10.5h161q24 0 38 -10.5t14 -27.5q0 -21 -27 -48z" />
    <glyph glyph-name="acircumflex" unicode="&#xe2;" horiz-adv-x="1226" 
d="M997 0h-262q-31 0 -43 10t-12 33q0 3 6 45q-95 -113 -311 -113q-148 0 -227.5 80.5t-79.5 241.5q0 111 22 225t77.5 229t135.5 181q71 58 156.5 80t208.5 22q70 0 129.5 -17.5t83.5 -47.5q13 36 27.5 47.5t43.5 11.5h127q54 0 54 -43q0 -21 -11 -74l-149 -686h63
q27 0 39 -8t12 -33t-24 -137q-6 -28 -21 -37.5t-45 -9.5zM725 328l98 458q-56 27 -145 27q-129 0 -199 -70q-57 -55 -91 -165t-34 -209q0 -89 36 -128.5t114 -39.5q111 0 168 47q28 23 35 35q7 13 18 45zM575 1182h-98q-41 0 -41 35q0 18 25 47l219 239q49 53 88 53h127
q44 0 70 -51l125 -243q10 -23 10 -41q0 -39 -56 -39h-86q-25 0 -39.5 9t-27.5 30l-86 145l-148 -145q-39 -39 -82 -39z" />
    <glyph glyph-name="atilde" unicode="&#xe3;" horiz-adv-x="1226" 
d="M997 0h-262q-31 0 -43 10t-12 33q0 3 6 45q-95 -113 -311 -113q-148 0 -227.5 80.5t-79.5 241.5q0 111 22 225t77.5 229t135.5 181q71 58 156.5 80t208.5 22q70 0 129.5 -17.5t83.5 -47.5q13 36 27.5 47.5t43.5 11.5h127q54 0 54 -43q0 -21 -11 -74l-149 -686h63
q27 0 39 -8t12 -33t-24 -137q-6 -28 -21 -37.5t-45 -9.5zM725 328l98 458q-56 27 -145 27q-129 0 -199 -70q-57 -55 -91 -165t-34 -209q0 -89 36 -128.5t114 -39.5q111 0 168 47q28 23 35 35q7 13 18 45zM528 1198h-65q-24 0 -34.5 8.5t-10.5 32.5q0 21 16 64
q79 196 217 196q41 0 135 -53q65 -39 105 -39q24 0 39.5 11.5t36.5 47.5q21 41 69 41h56q25 0 36 -9t11 -32q0 -21 -25 -77q-80 -181 -203 -181q-39 0 -71 10.5t-84 41.5q-57 34 -90 34q-42 0 -74 -51q-15 -25 -28 -35t-36 -10z" />
    <glyph glyph-name="adieresis" unicode="&#xe4;" horiz-adv-x="1226" 
d="M997 0h-262q-31 0 -43 10t-12 33q0 3 6 45q-95 -113 -311 -113q-148 0 -227.5 80.5t-79.5 241.5q0 111 22 225t77.5 229t135.5 181q71 58 156.5 80t208.5 22q70 0 129.5 -17.5t83.5 -47.5q13 36 27.5 47.5t43.5 11.5h127q54 0 54 -43q0 -21 -11 -74l-149 -686h63
q27 0 39 -8t12 -33t-24 -137q-6 -28 -21 -37.5t-45 -9.5zM725 328l98 458q-56 27 -145 27q-129 0 -199 -70q-57 -55 -91 -165t-34 -209q0 -89 36 -128.5t114 -39.5q111 0 168 47q28 23 35 35q7 13 18 45zM737 1380q0 -31 -11 -71t-34 -62q-38 -35 -102 -35q-111 0 -111 101
q0 81 41 125q40 43 105 43q112 0 112 -101zM1122 1380q0 -31 -11 -71t-34 -62q-38 -35 -100 -35q-113 0 -113 101q0 84 41 125q40 43 107 43q110 0 110 -101z" />
    <glyph glyph-name="aring" unicode="&#xe5;" horiz-adv-x="1226" 
d="M997 0h-262q-31 0 -43 10t-12 33q0 3 6 45q-95 -113 -311 -113q-148 0 -227.5 80.5t-79.5 241.5q0 111 22 225t77.5 229t135.5 181q71 58 156.5 80t208.5 22q70 0 129.5 -17.5t83.5 -47.5q13 36 27.5 47.5t43.5 11.5h127q54 0 54 -43q0 -21 -11 -74l-149 -686h63
q27 0 39 -8t12 -33t-24 -137q-6 -28 -21 -37.5t-45 -9.5zM725 328l98 458q-56 27 -145 27q-129 0 -199 -70q-57 -55 -91 -165t-34 -209q0 -89 36 -128.5t114 -39.5q111 0 168 47q28 23 35 35q7 13 18 45zM967 1397q0 -102 -58.5 -162.5t-160.5 -60.5q-86 0 -134.5 47.5
t-48.5 134.5q0 99 60 160t159 61q87 0 135 -47t48 -133zM879 1395q0 102 -105 102q-54 0 -89.5 -36.5t-35.5 -96.5q0 -54 28 -82.5t79 -28.5q59 0 91 36.5t32 105.5z" />
    <glyph glyph-name="ae" unicode="&#xe6;" horiz-adv-x="1718" 
d="M803 88q-154 -113 -410 -113q-155 0 -240 82.5t-85 243.5q0 173 59 353t176 276q75 60 159 85t202 25q125 0 194 -49l6 19q17 45 66 45h86q47 0 47 -39q0 -17 -4 -45l-4 -23q37 43 112 68.5t152 25.5q198 0 278 -72t80 -216q0 -105 -28 -248q-10 -51 -35 -64
q-18 -12 -58 -12h-552q-7 -58 -7 -76q0 -90 52 -122.5t159 -32.5q124 0 248 30q44 11 55 11q29 0 39 -33q21 -74 21 -111q0 -41 -41 -59q-72 -30 -185 -46t-221 -16q-127 0 -204.5 27t-116.5 86zM745 295q-2 18 -2 55q0 124 41 295l35 146q-49 22 -141 22q-128 0 -201 -70
q-57 -55 -90 -164.5t-33 -209.5q0 -89 36 -128.5t114 -39.5q157 0 241 94zM1036 623h373q16 59 16 114q0 59 -32 88t-115 29q-96 0 -152 -47q-58 -49 -90 -184z" />
    <glyph glyph-name="ccedilla" unicode="&#xe7;" horiz-adv-x="956" 
d="M461 -104q92 -4 127 -48.5t35 -115.5q0 -140 -78 -194t-234 -54q-72 0 -108 10q-37 8 -37 47q0 26 14 70q8 23 21 31t35 8q15 0 43 -4q27 -6 63 -6q44 0 60 14.5t16 52.5q0 25 -12.5 35t-38.5 10q-7 0 -26 -1t-24 -1q-41 3 -41 45q0 11 19 70l41 117q-135 21 -204 101
t-69 232q0 140 45 307t136 271q141 156 432 156q153 0 244 -31q34 -12 34 -51q0 -23 -43 -271q-4 -28 -19 -38.5t-42 -10.5h-105q-49 0 -49 41q0 17 13 129q-30 6 -78 6q-113 0 -174 -75q-50 -61 -78.5 -171t-28.5 -202q0 -91 46 -133.5t141 -42.5q84 0 159 16q60 12 70 12
q27 0 37 -32q18 -81 18 -123q0 -23 -11 -35.5t-34 -20.5q-125 -39 -291 -43z" />
    <glyph glyph-name="egrave" unicode="&#xe8;" horiz-adv-x="1067" 
d="M350 432q-6 -49 -6 -78q0 -90 50.5 -121.5t158.5 -31.5q121 0 248 30q5 1 16.5 5t21 6t17.5 2q28 0 39 -33q23 -85 23 -117q0 -43 -44 -61q-71 -29 -185 -44.5t-222 -15.5q-221 0 -312.5 91t-91.5 274q0 135 45 289t134 258q73 84 173.5 123t243.5 39q201 0 283 -74.5
t82 -218.5q0 -93 -27 -248q-9 -46 -36 -64q-17 -10 -56 -10h-555zM383 623h375q16 59 16 114q0 58 -32 86.5t-117 28.5q-94 0 -148 -45q-62 -54 -94 -184zM584 1225l-213 239q-21 27 -21 49q0 43 49 43h152q45 0 78 -51l166 -233q18 -27 18 -47q0 -37 -51 -37h-92
q-52 0 -86 37z" />
    <glyph glyph-name="eacute" unicode="&#xe9;" horiz-adv-x="1067" 
d="M350 432q-6 -49 -6 -78q0 -90 50.5 -121.5t158.5 -31.5q121 0 248 30q5 1 16.5 5t21 6t17.5 2q28 0 39 -33q23 -85 23 -117q0 -43 -44 -61q-71 -29 -185 -44.5t-222 -15.5q-221 0 -312.5 91t-91.5 274q0 135 45 289t134 258q73 84 173.5 123t243.5 39q201 0 283 -74.5
t82 -218.5q0 -93 -27 -248q-9 -46 -36 -64q-17 -10 -56 -10h-555zM383 623h375q16 59 16 114q0 58 -32 86.5t-117 28.5q-94 0 -148 -45q-62 -54 -94 -184zM731 1225q-37 -37 -84 -37h-100q-49 0 -49 37q0 24 20 47l219 239q20 24 37.5 34.5t42.5 10.5h162q51 0 51 -38
q0 -22 -26 -48z" />
    <glyph glyph-name="ecircumflex" unicode="&#xea;" horiz-adv-x="1067" 
d="M350 432q-6 -49 -6 -78q0 -90 50.5 -121.5t158.5 -31.5q121 0 248 30q5 1 16.5 5t21 6t17.5 2q28 0 39 -33q23 -85 23 -117q0 -43 -44 -61q-71 -29 -185 -44.5t-222 -15.5q-221 0 -312.5 91t-91.5 274q0 135 45 289t134 258q73 84 173.5 123t243.5 39q201 0 283 -74.5
t82 -218.5q0 -93 -27 -248q-9 -46 -36 -64q-17 -10 -56 -10h-555zM383 623h375q16 59 16 114q0 58 -32 86.5t-117 28.5q-94 0 -148 -45q-62 -54 -94 -184zM498 1182h-99q-41 0 -41 35q0 18 25 47l219 239q49 53 88 53h127q44 0 70 -51l125 -243q10 -23 10 -41q0 -39 -55 -39
h-86q-45 0 -68 39l-86 145l-147 -145q-39 -39 -82 -39z" />
    <glyph glyph-name="edieresis" unicode="&#xeb;" horiz-adv-x="1067" 
d="M350 432q-6 -49 -6 -78q0 -90 50.5 -121.5t158.5 -31.5q121 0 248 30q5 1 16.5 5t21 6t17.5 2q28 0 39 -33q23 -85 23 -117q0 -43 -44 -61q-71 -29 -185 -44.5t-222 -15.5q-221 0 -312.5 91t-91.5 274q0 135 45 289t134 258q73 84 173.5 123t243.5 39q201 0 283 -74.5
t82 -218.5q0 -93 -27 -248q-9 -46 -36 -64q-17 -10 -56 -10h-555zM383 623h375q16 59 16 114q0 58 -32 86.5t-117 28.5q-94 0 -148 -45q-62 -54 -94 -184zM637 1380q0 -31 -11 -71t-34 -62q-38 -35 -103 -35q-110 0 -110 101q0 81 41 125q40 43 104 43q113 0 113 -101z
M1022 1380q0 -31 -11 -71t-34 -62q-38 -35 -100 -35q-113 0 -113 101q0 84 41 125q40 43 106 43q111 0 111 -101z" />
    <glyph glyph-name="igrave" unicode="&#xec;" horiz-adv-x="669" 
d="M344 1225l-213 239q-20 26 -20 49q0 43 49 43h151q45 0 78 -51l166 -233q18 -27 18 -47q0 -37 -51 -37h-92q-52 0 -86 37zM442 0h-409q-47 0 -47 41q0 38 24 137q12 47 64 47h63l125 568h-65q-45 0 -45 41q0 39 24 137q12 47 64 47h290q43 0 43 -39q0 -7 -4 -28t-4 -23
l-151 -703h65q28 0 40.5 -8.5t12.5 -32.5q0 -23 -26 -137q-7 -28 -21 -37.5t-43 -9.5z" />
    <glyph glyph-name="iacute" unicode="&#xed;" horiz-adv-x="669" 
d="M475 1225q-37 -37 -84 -37h-100q-49 0 -49 37q0 24 20 47l219 239q20 24 37.5 34.5t42.5 10.5h162q51 0 51 -38q0 -22 -26 -48zM442 0h-409q-47 0 -47 41q0 38 24 137q12 47 64 47h63l125 568h-65q-45 0 -45 41q0 39 24 137q12 47 64 47h290q43 0 43 -39q0 -7 -4 -28
t-4 -23l-151 -703h65q28 0 40.5 -8.5t12.5 -32.5q0 -23 -26 -137q-7 -28 -21 -37.5t-43 -9.5z" />
    <glyph glyph-name="icircumflex" unicode="&#xee;" horiz-adv-x="669" 
d="M442 0h-409q-47 0 -47 41q0 38 24 137q12 47 64 47h63l125 568h-65q-45 0 -45 41q0 39 24 137q12 47 64 47h290q43 0 43 -39q0 -7 -4 -28t-4 -23l-151 -703h65q28 0 40.5 -8.5t12.5 -32.5q0 -23 -26 -137q-7 -28 -21 -37.5t-43 -9.5zM240 1182h-99q-41 0 -41 35
q0 18 25 47l219 239q49 53 88 53h127q44 0 70 -51l125 -243q10 -23 10 -41q0 -39 -55 -39h-86q-45 0 -68 39l-86 145l-147 -145q-39 -39 -82 -39z" />
    <glyph glyph-name="idieresis" unicode="&#xef;" horiz-adv-x="669" 
d="M393 1380q0 -31 -11 -71t-34 -62q-38 -35 -102 -35q-111 0 -111 101q0 81 41 125q40 43 105 43q112 0 112 -101zM778 1380q0 -31 -11 -71t-34 -62q-38 -35 -100 -35q-113 0 -113 101q0 84 41 125q40 43 107 43q110 0 110 -101zM442 0h-409q-47 0 -47 41q0 38 24 137
q12 47 64 47h63l125 568h-65q-45 0 -45 41q0 39 24 137q12 47 64 47h290q43 0 43 -39q0 -7 -4 -28t-4 -23l-151 -703h65q28 0 40.5 -8.5t12.5 -32.5q0 -23 -26 -137q-7 -28 -21 -37.5t-43 -9.5z" />
    <glyph glyph-name="eth" unicode="&#xf0;" horiz-adv-x="1153" 
d="M1102 1366l-98 -57q98 -140 98 -396q0 -540 -189 -784q-65 -83 -165.5 -118.5t-241.5 -35.5q-78 0 -138 7.5t-118.5 30.5t-96.5 60.5t-61.5 100.5t-23.5 148q0 152 42.5 303.5t137.5 255.5q129 137 381 137q69 0 133 -19t84 -57q-3 152 -62 234l-139 -80q-32 -19 -51 -19
q-21 0 -35 25q-43 68 -43 90q0 27 39 47l88 49q-66 36 -192 51q-39 6 -39 43q0 43 20 105q16 43 60 43q48 0 71 -2q193 -21 314 -98l133 77q27 17 47 17q18 0 33 -19q47 -70 47 -94q0 -25 -35 -45zM807 668q0 81 -44 110t-136 29q-120 0 -174 -74q-47 -65 -75 -185.5
t-28 -197.5q0 -87 42.5 -119t135.5 -32q127 0 181 77q41 61 69.5 190.5t28.5 201.5z" />
    <glyph glyph-name="ntilde" unicode="&#xf1;" horiz-adv-x="1282" 
d="M442 0h-409q-47 0 -47 41q0 35 24 137q12 47 64 47h63l125 568h-65q-45 0 -45 41q0 29 24 137q9 47 64 47h268q30 0 40.5 -10.5t10.5 -34.5q0 -22 -6 -49q42 61 129 89.5t195 28.5q276 0 276 -180q0 -78 -20 -168l-103 -469h62q28 0 40.5 -8t12.5 -31q0 -20 -27 -139
q-7 -29 -20 -38t-43 -9h-291q-43 0 -43 39q0 4 1 10t2.5 13.5t2.5 11.5l123 579q10 55 10 88q0 40 -25.5 56t-80.5 16q-87 0 -162 -29q-37 -16 -51 -32q-18 -18 -29 -66l-100 -461h67q28 0 40.5 -8.5t12.5 -32.5q0 -23 -26 -137q-7 -28 -21 -37.5t-43 -9.5zM520 1198h-65
q-24 0 -34.5 8.5t-10.5 32.5q0 21 16 64q79 196 217 196q41 0 135 -53q65 -39 105 -39q24 0 39 11.5t36 47.5q21 41 70 41h55q25 0 36 -9t11 -32t-24 -77q-80 -181 -203 -181q-39 0 -71 10.5t-84 41.5q-57 34 -91 34q-41 0 -73 -51q-15 -25 -28 -35t-36 -10z" />
    <glyph glyph-name="ograve" unicode="&#xf2;" horiz-adv-x="1144" 
d="M1085 717q0 -83 -17 -185.5t-59.5 -218.5t-101.5 -188q-126 -152 -403 -152q-64 0 -115.5 5.5t-103 19.5t-89.5 40t-67.5 63.5t-45 93t-15.5 127.5q0 152 48.5 318t145.5 267q135 140 381 140q66 0 115.5 -4t103.5 -15.5t91.5 -35t69 -58.5t47 -90t15.5 -127zM805 676
q0 83 -43.5 113t-136.5 30q-112 0 -170 -78q-47 -63 -76 -188.5t-29 -202.5q0 -87 41.5 -119t134.5 -32q126 0 179 80q41 59 70.5 192.5t29.5 204.5zM625 1225l-213 239q-21 27 -21 49q0 43 49 43h152q45 0 78 -51l166 -233q18 -27 18 -47q0 -37 -51 -37h-92q-52 0 -86 37z
" />
    <glyph glyph-name="oacute" unicode="&#xf3;" horiz-adv-x="1144" 
d="M1085 717q0 -83 -17 -185.5t-59.5 -218.5t-101.5 -188q-126 -152 -403 -152q-64 0 -115.5 5.5t-103 19.5t-89.5 40t-67.5 63.5t-45 93t-15.5 127.5q0 152 48.5 318t145.5 267q135 140 381 140q66 0 115.5 -4t103.5 -15.5t91.5 -35t69 -58.5t47 -90t15.5 -127zM805 676
q0 83 -43.5 113t-136.5 30q-112 0 -170 -78q-47 -63 -76 -188.5t-29 -202.5q0 -87 41.5 -119t134.5 -32q126 0 179 80q41 59 70.5 192.5t29.5 204.5zM774 1225q-37 -37 -84 -37h-100q-49 0 -49 37q0 24 20 47l219 239q20 24 37.5 34.5t42.5 10.5h162q51 0 51 -38
q0 -22 -26 -48z" />
    <glyph glyph-name="ocircumflex" unicode="&#xf4;" horiz-adv-x="1144" 
d="M1085 717q0 -83 -17 -185.5t-59.5 -218.5t-101.5 -188q-126 -152 -403 -152q-64 0 -115.5 5.5t-103 19.5t-89.5 40t-67.5 63.5t-45 93t-15.5 127.5q0 152 48.5 318t145.5 267q135 140 381 140q66 0 115.5 -4t103.5 -15.5t91.5 -35t69 -58.5t47 -90t15.5 -127zM805 676
q0 83 -43.5 113t-136.5 30q-112 0 -170 -78q-47 -63 -76 -188.5t-29 -202.5q0 -87 41.5 -119t134.5 -32q126 0 179 80q41 59 70.5 192.5t29.5 204.5zM524 1182h-98q-41 0 -41 35q0 18 25 47l219 239q49 53 88 53h127q43 0 69 -51l125 -243q11 -26 11 -41q0 -39 -56 -39h-86
q-25 0 -39.5 9t-27.5 30l-86 145l-148 -145q-39 -39 -82 -39z" />
    <glyph glyph-name="otilde" unicode="&#xf5;" horiz-adv-x="1144" 
d="M1085 717q0 -83 -17 -185.5t-59.5 -218.5t-101.5 -188q-126 -152 -403 -152q-64 0 -115.5 5.5t-103 19.5t-89.5 40t-67.5 63.5t-45 93t-15.5 127.5q0 152 48.5 318t145.5 267q135 140 381 140q66 0 115.5 -4t103.5 -15.5t91.5 -35t69 -58.5t47 -90t15.5 -127zM805 676
q0 83 -43.5 113t-136.5 30q-112 0 -170 -78q-47 -63 -76 -188.5t-29 -202.5q0 -87 41.5 -119t134.5 -32q126 0 179 80q41 59 70.5 192.5t29.5 204.5zM489 1198h-65q-24 0 -34.5 8.5t-10.5 32.5q0 21 16 64q79 196 217 196q42 0 136 -53q65 -39 104 -39q24 0 39.5 11.5
t36.5 47.5q21 41 69 41h56q25 0 36 -9t11 -32q0 -21 -25 -77q-80 -181 -203 -181q-38 0 -70.5 10.5t-84.5 41.5q-57 34 -90 34q-42 0 -74 -51q-15 -25 -28 -35t-36 -10z" />
    <glyph glyph-name="odieresis" unicode="&#xf6;" horiz-adv-x="1144" 
d="M1085 717q0 -83 -17 -185.5t-59.5 -218.5t-101.5 -188q-126 -152 -403 -152q-64 0 -115.5 5.5t-103 19.5t-89.5 40t-67.5 63.5t-45 93t-15.5 127.5q0 152 48.5 318t145.5 267q135 140 381 140q66 0 115.5 -4t103.5 -15.5t91.5 -35t69 -58.5t47 -90t15.5 -127zM805 676
q0 83 -43.5 113t-136.5 30q-112 0 -170 -78q-47 -63 -76 -188.5t-29 -202.5q0 -87 41.5 -119t134.5 -32q126 0 179 80q41 59 70.5 192.5t29.5 204.5zM688 1380q0 -31 -11 -71t-34 -62q-38 -35 -102 -35q-111 0 -111 101q0 81 41 125q40 43 104 43q113 0 113 -101zM1073 1380
q0 -31 -11 -71t-34 -62q-38 -35 -100 -35q-113 0 -113 101q0 84 41 125q40 43 107 43q110 0 110 -101z" />
    <glyph glyph-name="divide" unicode="&#xf7;" horiz-adv-x="1435" 
d="M948 995q0 -70 -35 -114.5t-108 -44.5q-48 0 -77.5 25t-29.5 77q0 72 35 113t101 41q46 0 80 -24.5t34 -72.5zM1214 514h-942q-26 0 -40.5 14t-14.5 39q0 22 12 74q12 59 66 59h942q57 0 57 -49q0 -28 -12 -84q-11 -53 -68 -53zM803 266q0 -67 -36 -111t-108 -44
q-48 0 -78 25t-30 77q0 71 35 111.5t102 40.5q47 0 81 -24.5t34 -74.5z" />
    <glyph glyph-name="oslash" unicode="&#xf8;" horiz-adv-x="1144" 
d="M162 -53q-1 -1 -4.5 -5t-5.5 -5.5t-5.5 -4t-7 -3.5t-8.5 -1q-19 0 -59 37q-11 14 -11 25q0 13 15 28l61 72q-69 78 -69 232q0 153 48 318.5t146 266.5q132 140 381 140q185 0 275 -39l73 86q11 14 27 14q16 -4 24 -12q45 -35 45 -52q0 -12 -12 -24l-63 -76
q73 -79 73 -227q0 -135 -45.5 -311t-130.5 -281q-126 -152 -405 -152q-182 0 -279 47zM805 676q0 16 -2 24l-404 -475q38 -26 127 -26q127 0 181 77q41 61 69.5 194.5t28.5 205.5zM350 350v-10l391 461q-37 18 -116 18q-115 0 -172 -76q-47 -65 -75 -190t-28 -203z" />
    <glyph glyph-name="ugrave" unicode="&#xf9;" horiz-adv-x="1282" 
d="M1042 0h-274q-32 0 -42.5 11t-10.5 36q0 19 4 39q-117 -111 -316 -111q-280 0 -280 187q0 72 20 166l101 465h-62q-47 0 -47 41q0 33 25 137q9 47 63 47h289q43 0 43 -39q0 -1 -6 -37l-123 -573q-10 -55 -10 -86q0 -80 127 -80q77 0 149 33q30 11 51 32q17 20 27 64
l98 461h-63q-47 0 -47 41q0 12 26 137q9 47 62 47h291q43 0 43 -39q0 -11 -6 -41l-154 -713h61q27 0 39.5 -8t12.5 -33q0 -27 -25 -137q-7 -28 -22.5 -37.5t-43.5 -9.5zM635 1229l-213 239q-21 27 -21 50q0 43 50 43h151q44 0 78 -52l166 -233q18 -27 18 -47q0 -37 -51 -37
h-92q-52 0 -86 37z" />
    <glyph glyph-name="uacute" unicode="&#xfa;" horiz-adv-x="1282" 
d="M1042 0h-274q-32 0 -42.5 11t-10.5 36q0 19 4 39q-117 -111 -316 -111q-280 0 -280 187q0 72 20 166l101 465h-62q-47 0 -47 41q0 33 25 137q9 47 63 47h289q43 0 43 -39q0 -1 -6 -37l-123 -573q-10 -55 -10 -86q0 -80 127 -80q77 0 149 33q30 11 51 32q17 20 27 64
l98 461h-63q-47 0 -47 41q0 12 26 137q9 47 62 47h291q43 0 43 -39q0 -11 -6 -41l-154 -713h61q27 0 39.5 -8t12.5 -33q0 -27 -25 -137q-7 -28 -22.5 -37.5t-43.5 -9.5zM784 1225q-37 -37 -84 -37h-100q-49 0 -49 37q0 24 20 47l220 239q21 24 37.5 34.5t41.5 10.5h162
q51 0 51 -38q0 -22 -26 -48z" />
    <glyph glyph-name="ucircumflex" unicode="&#xfb;" horiz-adv-x="1282" 
d="M1042 0h-274q-32 0 -42.5 11t-10.5 36q0 19 4 39q-117 -111 -316 -111q-280 0 -280 187q0 72 20 166l101 465h-62q-47 0 -47 41q0 33 25 137q9 47 63 47h289q43 0 43 -39q0 -1 -6 -37l-123 -573q-10 -55 -10 -86q0 -80 127 -80q77 0 149 33q30 11 51 32q17 20 27 64
l98 461h-63q-47 0 -47 41q0 12 26 137q9 47 62 47h291q43 0 43 -39q0 -11 -6 -41l-154 -713h61q27 0 39.5 -8t12.5 -33q0 -27 -25 -137q-7 -28 -22.5 -37.5t-43.5 -9.5zM539 1182h-99q-41 0 -41 35q0 18 25 47l219 239q49 53 88 53h127q44 0 70 -51l125 -243q10 -23 10 -41
q0 -39 -55 -39h-86q-45 0 -68 39l-86 145l-147 -145q-39 -39 -82 -39z" />
    <glyph glyph-name="udieresis" unicode="&#xfc;" horiz-adv-x="1282" 
d="M1042 0h-274q-32 0 -42.5 11t-10.5 36q0 19 4 39q-117 -111 -316 -111q-280 0 -280 187q0 72 20 166l101 465h-62q-47 0 -47 41q0 33 25 137q9 47 63 47h289q43 0 43 -39q0 -1 -6 -37l-123 -573q-10 -55 -10 -86q0 -80 127 -80q77 0 149 33q30 11 51 32q17 20 27 64
l98 461h-63q-47 0 -47 41q0 12 26 137q9 47 62 47h291q43 0 43 -39q0 -11 -6 -41l-154 -713h61q27 0 39.5 -8t12.5 -33q0 -27 -25 -137q-7 -28 -22.5 -37.5t-43.5 -9.5zM682 1380q0 -31 -11 -71t-34 -62q-38 -35 -102 -35q-111 0 -111 101q0 81 41 125q40 43 104 43
q113 0 113 -101zM1067 1380q0 -31 -11 -71t-34 -62q-38 -35 -100 -35q-113 0 -113 101q0 84 41 125q40 43 106 43q111 0 111 -101z" />
    <glyph glyph-name="yacute" unicode="&#xfd;" horiz-adv-x="1095" 
d="M1087 793h-34l-533 -875q-11 -18 -35 -58t-33 -54.5t-28 -45.5t-28.5 -44.5t-25.5 -36t-28 -36t-27.5 -29.5t-31.5 -30q-112 -96 -303 -96q-100 0 -146 16q-15 6 -25 20.5t-10 31.5q0 22 14 66.5t29 72.5q14 26 47 26q7 0 43 -4t56 -4q88 0 147 62q68 74 150 215l16 28
l-143 775h-39q-47 0 -47 41t24 137q12 47 64 47h352q27 0 40 -9t13 -32q0 -25 -26 -137q-7 -28 -22 -37.5t-48 -9.5h-37q45 -293 66 -476q133 253 266 476h-47q-45 0 -45 41q0 35 24 137q12 47 64 47h366q27 0 39.5 -9t12.5 -32q0 -29 -25 -137q-7 -28 -22 -37.5t-44 -9.5z
M737 1225q-37 -37 -84 -37h-100q-49 0 -49 37q0 24 20 47l219 239q20 24 37.5 34.5t42.5 10.5h162q51 0 51 -38q0 -22 -26 -48z" />
    <glyph glyph-name="thorn" unicode="&#xfe;" horiz-adv-x="1210" 
d="M326 -500h-435q-49 0 -49 41q0 18 27 137q12 48 63 48h62l338 1583h-64q-47 0 -47 41q0 18 25 137q12 45 65 45h269q35 0 48 -9t13 -34q0 -27 -8 -59l-109 -494q104 104 307 104q149 0 226.5 -68t77.5 -224q0 -119 -38 -278.5t-104 -270.5q-73 -121 -181.5 -165
t-285.5 -44q-52 0 -112 11.5t-80 25.5l-68 -301h99q28 0 40.5 -8.5t12.5 -32.5q0 -19 -27 -138q-7 -28 -21.5 -37.5t-43.5 -9.5zM377 233q24 -12 65.5 -21t77.5 -9q93 0 147 24t89 82q40 69 67 180t27 187q0 72 -38 105.5t-124 33.5q-97 0 -166 -39q-19 -10 -28 -24
q-8 -17 -15 -43z" />
    <glyph glyph-name="ydieresis" unicode="&#xff;" horiz-adv-x="1095" 
d="M1087 793h-34l-533 -875q-11 -18 -35 -58t-33 -54.5t-28 -45.5t-28.5 -44.5t-25.5 -36t-28 -36t-27.5 -29.5t-31.5 -30q-112 -96 -303 -96q-100 0 -146 16q-15 6 -25 20.5t-10 31.5q0 22 14 66.5t29 72.5q14 26 47 26q7 0 43 -4t56 -4q88 0 147 62q68 74 150 215l16 28
l-143 775h-39q-47 0 -47 41t24 137q12 47 64 47h352q27 0 40 -9t13 -32q0 -25 -26 -137q-7 -28 -22 -37.5t-48 -9.5h-37q45 -293 66 -476q133 253 266 476h-47q-45 0 -45 41q0 35 24 137q12 47 64 47h366q27 0 39.5 -9t12.5 -32q0 -29 -25 -137q-7 -28 -22 -37.5t-44 -9.5z
M604 1380q0 -31 -11 -71t-34 -62q-38 -35 -102 -35q-111 0 -111 101q0 81 41 125q40 43 105 43q112 0 112 -101zM989 1380q0 -31 -11 -71t-34 -62q-38 -35 -100 -35q-113 0 -113 101q0 84 41 125q40 43 107 43q110 0 110 -101z" />
    <glyph glyph-name="Amacron" unicode="&#x100;" horiz-adv-x="1396" 
d="M414 0h-445q-47 0 -47 41q0 27 25 139q12 47 63 47h51l670 1166q30 55 84 55h180q57 0 66 -62l166 -1159h47q28 0 40.5 -8.5t12.5 -32.5q0 -20 -27 -139q-7 -28 -21.5 -37.5t-43.5 -9.5h-410q-45 0 -45 41q0 27 25 139q12 47 63 47h82l-26 205h-437l-120 -205h86
q28 0 40.5 -8.5t12.5 -32.5q0 -20 -27 -139q-7 -28 -21.5 -37.5t-43.5 -9.5zM852 1120q-40 -79 -260 -467h315q-27 210 -55 467zM1192 1595h-528q-46 0 -46 39q0 26 23 105q13 51 64 51h524q47 0 47 -39q0 -27 -21 -106q-7 -28 -21.5 -39t-41.5 -11z" />
    <glyph glyph-name="amacron" unicode="&#x101;" horiz-adv-x="1226" 
d="M997 0h-262q-31 0 -43 10t-12 33q0 3 6 45q-95 -113 -311 -113q-148 0 -227.5 80.5t-79.5 241.5q0 111 22 225t77.5 229t135.5 181q71 58 156.5 80t208.5 22q70 0 129.5 -17.5t83.5 -47.5q13 36 27.5 47.5t43.5 11.5h127q54 0 54 -43q0 -21 -11 -74l-149 -686h63
q27 0 39 -8t12 -33t-24 -137q-6 -28 -21 -37.5t-45 -9.5zM725 328l98 458q-56 27 -145 27q-129 0 -199 -70q-57 -55 -91 -165t-34 -209q0 -89 36 -128.5t114 -39.5q111 0 168 47q28 23 35 35q7 13 18 45zM979 1227h-459q-45 0 -45 39q0 28 19 106q8 27 22 39t43 12h455
q49 0 49 -39q0 -31 -21 -110q-7 -28 -20.5 -37.5t-42.5 -9.5z" />
    <glyph glyph-name="Abreve" unicode="&#x102;" horiz-adv-x="1396" 
d="M414 0h-445q-47 0 -47 41q0 27 25 139q12 47 63 47h51l670 1166q30 55 84 55h180q57 0 66 -62l166 -1159h47q28 0 40.5 -8.5t12.5 -32.5q0 -20 -27 -139q-7 -28 -21.5 -37.5t-43.5 -9.5h-410q-45 0 -45 41q0 27 25 139q12 47 63 47h82l-26 205h-437l-120 -205h86
q28 0 40.5 -8.5t12.5 -32.5q0 -20 -27 -139q-7 -28 -21.5 -37.5t-43.5 -9.5zM852 1120q-40 -79 -260 -467h315q-27 210 -55 467zM1231 1874q23 0 32 -11.5t9 -35.5q0 -36 -21 -90q-25 -59 -63.5 -99.5t-108.5 -66t-168 -25.5q-130 0 -212.5 59.5t-82.5 172.5q0 32 7 57
q6 18 17.5 28.5t39.5 10.5h59q27 0 41 -9.5t15 -33.5q4 -33 14 -51q27 -58 121 -58q77 0 113 26t57 79q11 28 23.5 37.5t41.5 9.5h66z" />
    <glyph glyph-name="abreve" unicode="&#x103;" horiz-adv-x="1226" 
d="M997 0h-262q-31 0 -43 10t-12 33q0 3 6 45q-95 -113 -311 -113q-148 0 -227.5 80.5t-79.5 241.5q0 111 22 225t77.5 229t135.5 181q71 58 156.5 80t208.5 22q70 0 129.5 -17.5t83.5 -47.5q13 36 27.5 47.5t43.5 11.5h127q54 0 54 -43q0 -21 -11 -74l-149 -686h63
q27 0 39 -8t12 -33t-24 -137q-6 -28 -21 -37.5t-45 -9.5zM725 328l98 458q-56 27 -145 27q-129 0 -199 -70q-57 -55 -91 -165t-34 -209q0 -89 36 -128.5t114 -39.5q111 0 168 47q28 23 35 35q7 13 18 45zM1038 1516q39 0 39 -48q0 -37 -22 -94q-42 -100 -117.5 -152.5
t-214.5 -52.5q-132 0 -202 64.5t-70 157.5q0 42 6 69q8 56 53 56h55q26 0 37.5 -10.5t11.5 -35.5q0 -34 9 -55q23 -67 125 -67q77 0 109 28.5t56 91.5q18 48 64 48h61z" />
    <glyph glyph-name="Aogonek" unicode="&#x104;" horiz-adv-x="1396" 
d="M414 0h-445q-47 0 -47 41q0 27 25 139q12 47 63 47h51l670 1166q30 55 84 55h180q57 0 66 -62l166 -1159h47q28 0 40.5 -8.5t12.5 -32.5q0 -20 -27 -139q-7 -28 -21.5 -37.5t-43.5 -9.5h-80q-42 -28 -64 -43.5t-58 -46t-54.5 -56t-33.5 -61t-15 -72.5q0 -77 80 -77
q21 0 53.5 5t36.5 5q18 0 26.5 -9t14.5 -34q8 -24 8 -62q0 -25 -12 -37t-41 -20q-48 -14 -148 -14q-122 0 -175.5 47.5t-53.5 140.5q0 62 18.5 113.5t54.5 91.5t78.5 70t100.5 59h-146q-45 0 -45 41q0 27 25 139q12 47 63 47h82l-26 205h-437l-120 -205h86q28 0 40.5 -8.5
t12.5 -32.5q0 -20 -27 -139q-7 -28 -21.5 -37.5t-43.5 -9.5zM852 1120q-40 -79 -260 -467h315q-27 210 -55 467z" />
    <glyph glyph-name="aogonek" unicode="&#x105;" horiz-adv-x="1226" 
d="M997 0h-73q-12 -9 -43.5 -31.5t-41.5 -30l-34 -25.5t-31 -26.5t-23 -25t-21 -28t-13 -28.5t-10 -34t-2 -37q0 -72 77 -72q20 0 51.5 4t34.5 4q19 0 27 -8t14 -31q9 -41 9 -61q0 -24 -11.5 -34.5t-42.5 -18.5q-58 -15 -141 -15q-118 0 -170.5 46t-52.5 135q0 113 63 186.5
t180 130.5h-8q-31 0 -43 10t-12 33q0 3 6 45q-95 -113 -311 -113q-148 0 -227.5 80.5t-79.5 241.5q0 111 22 225t77.5 229t135.5 181q71 58 156.5 80t208.5 22q70 0 129.5 -17.5t83.5 -47.5q13 36 27.5 47.5t43.5 11.5h127q54 0 54 -43q0 -21 -11 -74l-149 -686h63
q27 0 39 -8t12 -33t-24 -137q-6 -28 -21 -37.5t-45 -9.5zM725 328l98 458q-56 27 -145 27q-129 0 -199 -70q-57 -55 -91 -165t-34 -209q0 -89 36 -128.5t114 -39.5q111 0 168 47q28 23 35 35q7 13 18 45z" />
    <glyph glyph-name="Cacute" unicode="&#x106;" horiz-adv-x="1253" 
d="M1030 1233q-44 8 -139 8q-100 0 -171 -26t-124 -85q-89 -96 -138.5 -282.5t-49.5 -347.5q0 -147 70 -219t214 -72q163 0 275 33q51 14 67 14q25 0 37 -29q25 -70 25 -133q0 -16 -15.5 -33.5t-42.5 -25.5q-175 -62 -438 -62q-235 0 -361 120.5t-126 369.5q0 123 26.5 266
t87.5 294t144 249q92 106 222 154.5t318 48.5q205 0 334 -39q43 -13 43 -56q0 -25 -49 -299q-4 -26 -18.5 -36.5t-40.5 -10.5h-119q-47 0 -47 45q0 9 16 154zM946 1581q-49 -27 -92 -27h-121q-20 0 -30.5 9.5t-10.5 21.5q0 29 27 51l262 201q46 37 92 37h191q47 0 47 -33
q0 -36 -29 -53z" />
    <glyph glyph-name="cacute" unicode="&#x107;" horiz-adv-x="956" 
d="M709 817q-30 6 -78 6q-113 0 -174 -75q-50 -61 -78.5 -171t-28.5 -202q0 -91 46 -133.5t141 -42.5q84 0 159 16q60 12 70 12q27 0 37 -32q18 -81 18 -123q0 -23 -11 -35.5t-34 -20.5q-130 -43 -317 -43q-195 0 -295.5 79.5t-100.5 262.5q0 140 45 307t136 271
q141 156 432 156q153 0 244 -31q34 -12 34 -51q0 -23 -43 -271q-4 -28 -19 -38.5t-42 -10.5h-105q-49 0 -49 41q0 17 13 129zM735 1225q-37 -37 -84 -37h-100q-49 0 -49 37q0 24 20 47l219 239q20 24 37.5 34.5t42.5 10.5h162q51 0 51 -38q0 -22 -26 -48z" />
    <glyph glyph-name="Ccircumflex" unicode="&#x108;" horiz-adv-x="1253" 
d="M1030 1233q-44 8 -139 8q-100 0 -171 -26t-124 -85q-89 -96 -138.5 -282.5t-49.5 -347.5q0 -147 70 -219t214 -72q163 0 275 33q51 14 67 14q25 0 37 -29q25 -70 25 -133q0 -16 -15.5 -33.5t-42.5 -25.5q-175 -62 -438 -62q-235 0 -361 120.5t-126 369.5q0 123 26.5 266
t87.5 294t144 249q92 106 222 154.5t318 48.5q205 0 334 -39q43 -13 43 -56q0 -25 -49 -299q-4 -26 -18.5 -36.5t-40.5 -10.5h-119q-47 0 -47 45q0 9 16 154zM684 1554h-100q-47 0 -47 39q0 20 26 43l236 205q59 55 108 55h111q49 0 84 -47l162 -211q14 -20 14 -41
q0 -43 -61 -43h-82q-27 0 -44 9t-38 30l-115 119l-164 -121q-27 -21 -45.5 -29t-44.5 -8z" />
    <glyph glyph-name="ccircumflex" unicode="&#x109;" horiz-adv-x="956" 
d="M709 817q-30 6 -78 6q-113 0 -174 -75q-50 -61 -78.5 -171t-28.5 -202q0 -91 46 -133.5t141 -42.5q84 0 159 16q60 12 70 12q27 0 37 -32q18 -81 18 -123q0 -23 -11 -35.5t-34 -20.5q-130 -43 -317 -43q-195 0 -295.5 79.5t-100.5 262.5q0 140 45 307t136 271
q141 156 432 156q153 0 244 -31q34 -12 34 -51q0 -23 -43 -271q-4 -28 -19 -38.5t-42 -10.5h-105q-49 0 -49 41q0 17 13 129zM473 1182h-98q-41 0 -41 35q0 20 24 47l220 239q49 53 88 53h127q43 0 69 -51l125 -243q10 -23 10 -41q0 -39 -55 -39h-86q-45 0 -68 39l-86 145
l-147 -145q-39 -39 -82 -39z" />
    <glyph glyph-name="Cdotaccent" unicode="&#x10a;" horiz-adv-x="1253" 
d="M1030 1233q-44 8 -139 8q-100 0 -171 -26t-124 -85q-89 -96 -138.5 -282.5t-49.5 -347.5q0 -147 70 -219t214 -72q163 0 275 33q51 14 67 14q25 0 37 -29q25 -70 25 -133q0 -16 -15.5 -33.5t-42.5 -25.5q-175 -62 -438 -62q-235 0 -361 120.5t-126 369.5q0 123 26.5 266
t87.5 294t144 249q92 106 222 154.5t318 48.5q205 0 334 -39q43 -13 43 -56q0 -25 -49 -299q-4 -26 -18.5 -36.5t-40.5 -10.5h-119q-47 0 -47 45q0 9 16 154zM1044 1735q0 -32 -10.5 -71.5t-32.5 -61.5q-37 -37 -102 -37q-111 0 -111 100q0 80 41 127q38 41 105 41
q55 0 82.5 -22t27.5 -76z" />
    <glyph glyph-name="cdotaccent" unicode="&#x10b;" horiz-adv-x="956" 
d="M709 817q-30 6 -78 6q-113 0 -174 -75q-50 -61 -78.5 -171t-28.5 -202q0 -91 46 -133.5t141 -42.5q84 0 159 16q60 12 70 12q27 0 37 -32q18 -81 18 -123q0 -23 -11 -35.5t-34 -20.5q-130 -43 -317 -43q-195 0 -295.5 79.5t-100.5 262.5q0 140 45 307t136 271
q141 156 432 156q153 0 244 -31q34 -12 34 -51q0 -23 -43 -271q-4 -28 -19 -38.5t-42 -10.5h-105q-49 0 -49 41q0 17 13 129zM809 1380q0 -31 -10.5 -71t-32.5 -62q-38 -35 -102 -35q-111 0 -111 101q0 78 41 125q40 43 104 43q54 0 82.5 -23.5t28.5 -77.5z" />
    <glyph glyph-name="Ccaron" unicode="&#x10c;" horiz-adv-x="1253" 
d="M1030 1233q-44 8 -139 8q-100 0 -171 -26t-124 -85q-89 -96 -138.5 -282.5t-49.5 -347.5q0 -147 70 -219t214 -72q163 0 275 33q51 14 67 14q25 0 37 -29q25 -70 25 -133q0 -16 -15.5 -33.5t-42.5 -25.5q-175 -62 -438 -62q-235 0 -361 120.5t-126 369.5q0 123 26.5 266
t87.5 294t144 249q92 106 222 154.5t318 48.5q205 0 334 -39q43 -13 43 -56q0 -25 -49 -299q-4 -26 -18.5 -36.5t-40.5 -10.5h-119q-47 0 -47 45q0 9 16 154zM1161 1896h103q45 0 45 -38q0 -21 -25 -46l-237 -204q-66 -54 -109 -54h-111q-46 0 -82 48l-161 208
q-17 20 -17 43q0 18 16.5 30.5t47.5 12.5h82q28 0 44.5 -9t35.5 -29l114 -119l164 119q30 21 48 29.5t42 8.5z" />
    <glyph glyph-name="ccaron" unicode="&#x10d;" horiz-adv-x="956" 
d="M709 817q-30 6 -78 6q-113 0 -174 -75q-50 -61 -78.5 -171t-28.5 -202q0 -91 46 -133.5t141 -42.5q84 0 159 16q60 12 70 12q27 0 37 -32q18 -81 18 -123q0 -23 -11 -35.5t-34 -20.5q-130 -43 -317 -43q-195 0 -295.5 79.5t-100.5 262.5q0 140 45 307t136 271
q141 156 432 156q153 0 244 -31q34 -12 34 -51q0 -23 -43 -271q-4 -28 -19 -38.5t-42 -10.5h-105q-49 0 -49 41q0 17 13 129zM893 1556h98q41 0 41 -36q0 -18 -24 -45l-220 -240q-49 -53 -88 -53h-127q-43 0 -69 51l-125 244q-10 23 -10 41q0 16 13.5 27t41.5 11h86
q26 0 41 -8.5t27 -29.5l86 -148l147 148q38 38 82 38z" />
    <glyph glyph-name="Dcaron" unicode="&#x10e;" horiz-adv-x="1441" 
d="M502 0h-461q-45 0 -45 41q0 31 24 139q12 47 64 47h70l213 992h-76q-45 0 -45 41q0 27 24 139q9 47 64 47h467q242 0 375 -45q123 -42 185 -150t62 -270q0 -117 -13.5 -226t-49 -223.5t-90 -206t-143.5 -165.5t-203 -111q-75 -24 -197.5 -36.5t-224.5 -12.5zM440 227h123
q75 0 156.5 12t128.5 33q63 27 113 86.5t80 130.5t50 155t27.5 156.5t7.5 139.5q0 178 -108 238q-78 41 -250 41h-117zM1100 1896h102q45 0 45 -38q0 -22 -24 -46l-238 -204q-66 -54 -108 -54h-111q-46 0 -82 48l-162 208q-16 19 -16 43q0 18 16 30.5t47 12.5h82
q28 0 44.5 -9t35.5 -29l115 -119l164 119q30 21 48 29.5t42 8.5z" />
    <glyph glyph-name="dcaron" unicode="&#x10f;" horiz-adv-x="1212" 
d="M999 0h-266q-31 0 -42 9.5t-11 31.5q0 4 2.5 20.5t3.5 24.5q-98 -111 -311 -111q-148 0 -227.5 80.5t-79.5 241.5q0 176 57.5 356.5t175.5 276.5q71 58 160 81t213 23q51 0 107 -12t85 -27l68 312h-66q-45 0 -45 41q0 23 25 137q9 47 63 47h277q29 0 41 -10t12 -35
q0 -7 -8 -47l-260 -1215h63q29 0 41.5 -8t12.5 -31q0 -20 -27 -139q-7 -29 -20.5 -38t-43.5 -9zM725 330l98 463q-57 24 -145 24q-132 0 -201 -69q-55 -55 -89 -167.5t-34 -211.5q0 -89 36 -128.5t114 -39.5q99 0 170 47q22 14 33 37q9 14 18 45zM1563 1530q59 0 59 -57
q0 -48 -27 -121q-51 -147 -153 -244q-41 -41 -76 -41q-28 0 -66 25q-28 17 -28 43q0 19 24 55q88 114 103 260q5 40 23 60t57 20h84z" />
    <glyph glyph-name="Dcroat" unicode="&#x110;" horiz-adv-x="1441" 
d="M502 0h-461q-45 0 -45 41q0 31 24 139q12 47 64 47h70l88 416h-121q-43 0 -43 39q0 28 24 127q7 25 20 37t42 12h125l78 361h-76q-45 0 -45 41q0 27 24 139q9 47 64 47h467q242 0 375 -45q123 -42 185 -150t62 -270q0 -117 -13.5 -226t-49 -223.5t-90 -206t-143.5 -165.5
t-203 -111q-75 -24 -197.5 -36.5t-224.5 -12.5zM440 227h123q75 0 156.5 12t128.5 33q63 27 113 86.5t80 130.5t50 155t27.5 156.5t7.5 139.5q0 178 -108 238q-78 41 -250 41h-117l-78 -361h224q47 0 47 -39q0 -30 -27 -129q-7 -28 -20.5 -37.5t-42.5 -9.5h-226z" />
    <glyph glyph-name="dcroat" unicode="&#x111;" horiz-adv-x="1212" 
d="M999 0h-266q-31 0 -42 9.5t-11 31.5q0 4 2.5 20.5t3.5 24.5q-98 -111 -311 -111q-148 0 -227.5 80.5t-79.5 241.5q0 176 57.5 356.5t175.5 276.5q71 58 160 81t213 23q51 0 107 -12t85 -27l21 97h-185q-45 0 -45 38q0 23 13 76q7 26 20.5 38.5t42.5 12.5h189l12 50h-66
q-45 0 -45 41q0 23 25 137q9 47 63 47h277q29 0 41 -10t12 -35q0 -7 -8 -47l-39 -183h59q45 0 45 -38q0 -15 -14 -82q-10 -45 -61 -45h-66l-184 -867h63q29 0 41.5 -8t12.5 -31q0 -20 -27 -139q-7 -29 -20.5 -38t-43.5 -9zM725 330l98 463q-57 24 -145 24q-132 0 -201 -69
q-55 -55 -89 -167.5t-34 -211.5q0 -89 36 -128.5t114 -39.5q99 0 170 47q22 14 33 37q9 14 18 45z" />
    <glyph glyph-name="Emacron" unicode="&#x112;" horiz-adv-x="1224" 
d="M999 0h-958q-45 0 -45 41q0 31 24 139q12 47 64 47h70l215 992h-78q-45 0 -45 41q0 36 24 139q12 47 64 47h874q26 0 37.5 -9t11.5 -32q0 -16 -51 -305q-4 -27 -18.5 -37t-40.5 -10h-121q-45 0 -45 43q0 15 12 123h-342l-76 -355h406q26 0 38.5 -8.5t12.5 -30.5
q0 -30 -26 -145q-6 -26 -22 -36.5t-46 -10.5h-412l-86 -406h418l29 113q14 53 61 53h117q51 0 51 -41q0 -10 -53 -295q-6 -33 -19 -45t-45 -12zM1059 1595h-529q-45 0 -45 39q0 26 23 105q7 26 20.5 38.5t42.5 12.5h525q47 0 47 -39q0 -27 -21 -106q-7 -28 -21.5 -39
t-41.5 -11z" />
    <glyph glyph-name="emacron" unicode="&#x113;" horiz-adv-x="1067" 
d="M350 432q-6 -49 -6 -78q0 -90 50.5 -121.5t158.5 -31.5q121 0 248 30q5 1 16.5 5t21 6t17.5 2q28 0 39 -33q23 -85 23 -117q0 -43 -44 -61q-71 -29 -185 -44.5t-222 -15.5q-221 0 -312.5 91t-91.5 274q0 135 45 289t134 258q73 84 173.5 123t243.5 39q201 0 283 -74.5
t82 -218.5q0 -93 -27 -248q-9 -46 -36 -64q-17 -10 -56 -10h-555zM383 623h375q16 59 16 114q0 58 -32 86.5t-117 28.5q-94 0 -148 -45q-62 -54 -94 -184zM901 1227h-459q-45 0 -45 39q0 28 19 106q8 27 22 39t43 12h455q49 0 49 -39q0 -35 -20 -110q-7 -28 -21 -37.5
t-43 -9.5z" />
    <glyph glyph-name="Ebreve" unicode="&#x114;" horiz-adv-x="1224" 
d="M999 0h-958q-45 0 -45 41q0 31 24 139q12 47 64 47h70l215 992h-78q-45 0 -45 41q0 36 24 139q12 47 64 47h874q26 0 37.5 -9t11.5 -32q0 -16 -51 -305q-4 -27 -18.5 -37t-40.5 -10h-121q-45 0 -45 43q0 15 12 123h-342l-76 -355h406q26 0 38.5 -8.5t12.5 -30.5
q0 -30 -26 -145q-6 -26 -22 -36.5t-46 -10.5h-412l-86 -406h418l29 113q14 53 61 53h117q51 0 51 -41q0 -10 -53 -295q-6 -33 -19 -45t-45 -12zM1092 1874q23 0 32 -11.5t9 -35.5q0 -36 -21 -90q-25 -59 -63.5 -99.5t-108.5 -66t-168 -25.5q-130 0 -212.5 59.5t-82.5 172.5
q0 36 6 57q12 39 58 39h59q27 0 40.5 -9.5t14.5 -33.5q3 -31 15 -51q27 -58 121 -58q77 0 113 26t57 79q11 28 23.5 37.5t41.5 9.5h66z" />
    <glyph glyph-name="ebreve" unicode="&#x115;" horiz-adv-x="1067" 
d="M350 432q-6 -49 -6 -78q0 -90 50.5 -121.5t158.5 -31.5q121 0 248 30q5 1 16.5 5t21 6t17.5 2q28 0 39 -33q23 -85 23 -117q0 -43 -44 -61q-71 -29 -185 -44.5t-222 -15.5q-221 0 -312.5 91t-91.5 274q0 135 45 289t134 258q73 84 173.5 123t243.5 39q201 0 283 -74.5
t82 -218.5q0 -93 -27 -248q-9 -46 -36 -64q-17 -10 -56 -10h-555zM383 623h375q16 59 16 114q0 58 -32 86.5t-117 28.5q-94 0 -148 -45q-62 -54 -94 -184zM956 1516q39 0 39 -48q0 -37 -22 -94q-42 -100 -117.5 -152.5t-214.5 -52.5q-132 0 -202 64.5t-70 157.5q0 42 6 69
q8 56 53 56h55q26 0 37.5 -10.5t11.5 -35.5q0 -34 9 -55q23 -67 125 -67q77 0 109 28.5t56 91.5q18 48 64 48h61z" />
    <glyph glyph-name="Edotaccent" unicode="&#x116;" horiz-adv-x="1224" 
d="M999 0h-958q-45 0 -45 41q0 31 24 139q12 47 64 47h70l215 992h-78q-45 0 -45 41q0 36 24 139q12 47 64 47h874q26 0 37.5 -9t11.5 -32q0 -16 -51 -305q-4 -27 -18.5 -37t-40.5 -10h-121q-45 0 -45 43q0 15 12 123h-342l-76 -355h406q26 0 38.5 -8.5t12.5 -30.5
q0 -30 -26 -145q-6 -26 -22 -36.5t-46 -10.5h-412l-86 -406h418l29 113q14 53 61 53h117q51 0 51 -41q0 -10 -53 -295q-6 -33 -19 -45t-45 -12zM944 1735q0 -32 -10.5 -71.5t-32.5 -61.5q-37 -37 -102 -37q-111 0 -111 100q0 80 41 127q38 41 105 41q55 0 82.5 -22t27.5 -76
z" />
    <glyph glyph-name="edotaccent" unicode="&#x117;" horiz-adv-x="1067" 
d="M350 432q-6 -49 -6 -78q0 -90 50.5 -121.5t158.5 -31.5q121 0 248 30q5 1 16.5 5t21 6t17.5 2q28 0 39 -33q23 -85 23 -117q0 -43 -44 -61q-71 -29 -185 -44.5t-222 -15.5q-221 0 -312.5 91t-91.5 274q0 135 45 289t134 258q73 84 173.5 123t243.5 39q201 0 283 -74.5
t82 -218.5q0 -93 -27 -248q-9 -46 -36 -64q-17 -10 -56 -10h-555zM383 623h375q16 59 16 114q0 58 -32 86.5t-117 28.5q-94 0 -148 -45q-62 -54 -94 -184zM791 1380q0 -31 -10.5 -71t-32.5 -62q-38 -35 -103 -35q-110 0 -110 101q0 79 40 125q40 43 105 43q54 0 82.5 -23.5
t28.5 -77.5z" />
    <glyph glyph-name="Eogonek" unicode="&#x118;" horiz-adv-x="1224" 
d="M999 0h-38q-35 -23 -53 -36t-50 -37.5t-49.5 -44t-37 -46t-28 -55.5t-8.5 -60q0 -77 80 -77q21 0 53.5 5t36.5 5q18 0 26.5 -9t14.5 -34q8 -24 8 -62q0 -25 -12 -37t-41 -20q-48 -14 -147 -14q-122 0 -176 47.5t-54 140.5q0 62 18.5 113.5t54.5 91.5t78.5 70t100.5 59
h-735q-45 0 -45 41q0 31 24 139q12 47 64 47h70l215 992h-78q-45 0 -45 41q0 36 24 139q12 47 64 47h874q26 0 37.5 -9t11.5 -32q0 -16 -51 -305q-4 -27 -18.5 -37t-40.5 -10h-121q-45 0 -45 43q0 15 12 123h-342l-76 -355h406q26 0 38.5 -8.5t12.5 -30.5q0 -30 -26 -145
q-6 -26 -22 -36.5t-46 -10.5h-412l-86 -406h418l29 113q14 53 61 53h117q51 0 51 -41q0 -10 -53 -295q-6 -33 -19 -45t-45 -12z" />
    <glyph glyph-name="eogonek" unicode="&#x119;" horiz-adv-x="1067" 
d="M350 432q-6 -49 -6 -78q0 -90 50.5 -121.5t158.5 -31.5q121 0 248 30q5 1 16.5 5t21 6t17.5 2q28 0 39 -33q23 -85 23 -117q0 -43 -44 -61q-60 -23 -110 -33q-13 -9 -40.5 -28.5t-37.5 -27l-32 -24t-30 -24t-23.5 -22t-21 -24t-15 -24.5t-12.5 -28t-6 -29.5t-3 -34.5
q0 -72 78 -72q20 0 51.5 4t34.5 4q19 0 27 -8t14 -31q8 -36 8 -61q0 -24 -11.5 -34.5t-42.5 -18.5q-58 -15 -141 -15q-118 0 -170.5 46t-52.5 135q0 100 50 169t144 123q-23 -2 -65 -2q-221 0 -312.5 91t-91.5 274q0 135 45 289t134 258q73 84 173.5 123t243.5 39
q201 0 283 -74.5t82 -218.5q0 -93 -27 -248q-9 -46 -36 -64q-17 -10 -56 -10h-555zM383 623h375q16 59 16 114q0 58 -32 86.5t-117 28.5q-94 0 -148 -45q-62 -54 -94 -184z" />
    <glyph glyph-name="Ecaron" unicode="&#x11a;" horiz-adv-x="1224" 
d="M999 0h-958q-45 0 -45 41q0 31 24 139q12 47 64 47h70l215 992h-78q-45 0 -45 41q0 36 24 139q12 47 64 47h874q26 0 37.5 -9t11.5 -32q0 -16 -51 -305q-4 -27 -18.5 -37t-40.5 -10h-121q-45 0 -45 43q0 15 12 123h-342l-76 -355h406q26 0 38.5 -8.5t12.5 -30.5
q0 -30 -26 -145q-6 -26 -22 -36.5t-46 -10.5h-412l-86 -406h418l29 113q14 53 61 53h117q51 0 51 -41q0 -10 -53 -295q-6 -33 -19 -45t-45 -12zM1061 1896h102q45 0 45 -38q0 -22 -24 -46l-238 -204q-66 -54 -108 -54h-111q-46 0 -82 48l-162 208q-16 19 -16 43
q0 18 16 30.5t47 12.5h82q28 0 44.5 -9t35.5 -29l115 -119l164 119q30 21 48 29.5t42 8.5z" />
    <glyph glyph-name="ecaron" unicode="&#x11b;" horiz-adv-x="1067" 
d="M350 432q-6 -49 -6 -78q0 -90 50.5 -121.5t158.5 -31.5q121 0 248 30q5 1 16.5 5t21 6t17.5 2q28 0 39 -33q23 -85 23 -117q0 -43 -44 -61q-71 -29 -185 -44.5t-222 -15.5q-221 0 -312.5 91t-91.5 274q0 135 45 289t134 258q73 84 173.5 123t243.5 39q201 0 283 -74.5
t82 -218.5q0 -93 -27 -248q-9 -46 -36 -64q-17 -10 -56 -10h-555zM383 623h375q16 59 16 114q0 58 -32 86.5t-117 28.5q-94 0 -148 -45q-62 -54 -94 -184zM907 1556h99q41 0 41 -36q0 -16 -25 -45l-219 -240q-49 -53 -88 -53h-127q-44 0 -70 51l-125 244q-10 23 -10 41
q0 16 13.5 27t41.5 11h86q26 0 41 -8.5t27 -29.5l86 -148l147 148q38 38 82 38z" />
    <glyph glyph-name="Gcircumflex" unicode="&#x11c;" horiz-adv-x="1380" 
d="M1184 133q-6 -33 -21 -51.5t-45 -30.5q-80 -37 -215 -57.5t-291 -20.5q-237 0 -368 115t-131 354q0 225 71 466t209 384q175 181 541 181q99 0 212 -13t165 -33q21 -6 30 -17t9 -32q0 -28 -47 -299q-4 -28 -19.5 -38.5t-42.5 -10.5h-119q-45 0 -45 45q0 14 15 152
q-79 14 -179 14q-207 0 -305 -98q-65 -64 -112.5 -184.5t-67.5 -238.5t-20 -222q0 -148 69.5 -219.5t218.5 -71.5q128 0 238 29l63 290h-209q-40 0 -40 33q0 37 30 164q9 43 53 43h426q26 0 39 -8t13 -31q0 -15 -11 -65zM705 1554h-101q-47 0 -47 39q0 19 27 43l235 205
q59 55 109 55h110q49 0 84 -47l162 -211q14 -20 14 -41q0 -43 -61 -43h-82q-27 0 -44 9t-38 30l-115 119l-163 -121q-27 -21 -45.5 -29t-44.5 -8z" />
    <glyph glyph-name="gcircumflex" unicode="&#x11d;" horiz-adv-x="1069" 
d="M123 10q-63 22 -92 60.5t-29 101.5q0 94 45.5 165t138.5 105q-53 53 -53 162q0 261 178 371q115 69 326 69q120 0 194 -26h259q47 0 47 -39q0 -49 -19 -139q-11 -47 -59 -47h-80q10 -20 10 -72q0 -74 -31.5 -154t-85.5 -129q-114 -106 -346 -106q-69 0 -131 12
q-50 8 -57 8q-23 0 -41 -12q-17 -12 -28 -37t-11 -49q0 -44 41 -55q41 -9 260 -9q239 0 335.5 -53.5t96.5 -185.5q0 -131 -36.5 -220t-113.5 -141.5t-183.5 -75t-258.5 -22.5q-136 0 -231 20.5t-144 58t-69.5 80.5t-20.5 97q0 100 45.5 163.5t143.5 98.5zM721 -137
q0 49 -38.5 73t-143.5 27q-74 2 -170 2q-50 0 -78 -12q-86 -39 -86 -131q0 -119 235 -119q51 0 84 2t74 11t65 25t41 47t17 75zM750 733q0 61 -39 87t-113 26q-85 0 -129 -33q-76 -51 -76 -174q0 -113 156 -113q102 0 151 52q50 53 50 155zM465 1182h-98q-41 0 -41 35
q0 20 24 47l219 239q49 53 88 53h127q44 0 70 -51l125 -243q10 -23 10 -41q0 -39 -55 -39h-86q-45 0 -68 39l-86 145l-147 -145q-39 -39 -82 -39z" />
    <glyph glyph-name="Gbreve" unicode="&#x11e;" horiz-adv-x="1380" 
d="M1184 133q-6 -33 -21 -51.5t-45 -30.5q-80 -37 -215 -57.5t-291 -20.5q-237 0 -368 115t-131 354q0 225 71 466t209 384q175 181 541 181q99 0 212 -13t165 -33q21 -6 30 -17t9 -32q0 -28 -47 -299q-4 -28 -19.5 -38.5t-42.5 -10.5h-119q-45 0 -45 45q0 14 15 152
q-79 14 -179 14q-207 0 -305 -98q-65 -64 -112.5 -184.5t-67.5 -238.5t-20 -222q0 -148 69.5 -219.5t218.5 -71.5q128 0 238 29l63 290h-209q-40 0 -40 33q0 37 30 164q9 43 53 43h426q26 0 39 -8t13 -31q0 -15 -11 -65zM1235 1874q23 0 32 -11.5t9 -35.5q0 -36 -21 -90
q-25 -59 -63.5 -99.5t-108.5 -66t-168 -25.5q-130 0 -212 59t-82 173q0 36 6 57q6 18 17.5 28.5t39.5 10.5h59q27 0 41 -9.5t15 -33.5q4 -33 14 -51q27 -58 121 -58q77 0 113 26t57 79q11 28 23.5 37.5t41.5 9.5h66z" />
    <glyph glyph-name="gbreve" unicode="&#x11f;" horiz-adv-x="1069" 
d="M123 10q-63 22 -92 60.5t-29 101.5q0 94 45.5 165t138.5 105q-53 53 -53 162q0 261 178 371q115 69 326 69q120 0 194 -26h259q47 0 47 -39q0 -49 -19 -139q-11 -47 -59 -47h-80q10 -20 10 -72q0 -74 -31.5 -154t-85.5 -129q-114 -106 -346 -106q-69 0 -131 12
q-50 8 -57 8q-23 0 -41 -12q-17 -12 -28 -37t-11 -49q0 -44 41 -55q41 -9 260 -9q239 0 335.5 -53.5t96.5 -185.5q0 -131 -36.5 -220t-113.5 -141.5t-183.5 -75t-258.5 -22.5q-136 0 -231 20.5t-144 58t-69.5 80.5t-20.5 97q0 100 45.5 163.5t143.5 98.5zM721 -137
q0 49 -38.5 73t-143.5 27q-74 2 -170 2q-50 0 -78 -12q-86 -39 -86 -131q0 -119 235 -119q51 0 84 2t74 11t65 25t41 47t17 75zM750 733q0 61 -39 87t-113 26q-85 0 -129 -33q-76 -51 -76 -174q0 -113 156 -113q102 0 151 52q50 53 50 155zM944 1516q39 0 39 -48
q0 -37 -22 -94q-42 -100 -117.5 -152.5t-214.5 -52.5q-132 0 -202.5 64.5t-70.5 157.5q0 42 6 69q8 56 54 56h55q26 0 37.5 -10.5t11.5 -35.5q0 -36 8 -55q23 -67 125 -67q77 0 109.5 28.5t56.5 91.5q18 48 64 48h61z" />
    <glyph glyph-name="Gdotaccent" unicode="&#x120;" horiz-adv-x="1380" 
d="M1184 133q-6 -33 -21 -51.5t-45 -30.5q-80 -37 -215 -57.5t-291 -20.5q-237 0 -368 115t-131 354q0 225 71 466t209 384q175 181 541 181q99 0 212 -13t165 -33q21 -6 30 -17t9 -32q0 -28 -47 -299q-4 -28 -19.5 -38.5t-42.5 -10.5h-119q-45 0 -45 45q0 14 15 152
q-79 14 -179 14q-207 0 -305 -98q-65 -64 -112.5 -184.5t-67.5 -238.5t-20 -222q0 -148 69.5 -219.5t218.5 -71.5q128 0 238 29l63 290h-209q-40 0 -40 33q0 37 30 164q9 43 53 43h426q26 0 39 -8t13 -31q0 -15 -11 -65zM1063 1735q0 -32 -10.5 -71.5t-32.5 -61.5
q-37 -37 -102 -37q-111 0 -111 100q0 80 41 127q38 41 104 41q55 0 83 -22t28 -76z" />
    <glyph glyph-name="gdotaccent" unicode="&#x121;" horiz-adv-x="1069" 
d="M123 10q-63 22 -92 60.5t-29 101.5q0 94 45.5 165t138.5 105q-53 53 -53 162q0 261 178 371q115 69 326 69q120 0 194 -26h259q47 0 47 -39q0 -49 -19 -139q-11 -47 -59 -47h-80q10 -20 10 -72q0 -74 -31.5 -154t-85.5 -129q-114 -106 -346 -106q-69 0 -131 12
q-50 8 -57 8q-23 0 -41 -12q-17 -12 -28 -37t-11 -49q0 -44 41 -55q41 -9 260 -9q239 0 335.5 -53.5t96.5 -185.5q0 -131 -36.5 -220t-113.5 -141.5t-183.5 -75t-258.5 -22.5q-136 0 -231 20.5t-144 58t-69.5 80.5t-20.5 97q0 100 45.5 163.5t143.5 98.5zM721 -137
q0 49 -38.5 73t-143.5 27q-74 2 -170 2q-50 0 -78 -12q-86 -39 -86 -131q0 -119 235 -119q51 0 84 2t74 11t65 25t41 47t17 75zM750 733q0 61 -39 87t-113 26q-85 0 -129 -33q-76 -51 -76 -174q0 -113 156 -113q102 0 151 52q50 53 50 155zM782 1380q0 -31 -10.5 -71
t-32.5 -62q-38 -35 -102 -35q-111 0 -111 101q0 78 41 125q40 43 105 43q54 0 82 -23t28 -78z" />
    <glyph glyph-name="Gcommaaccent" unicode="&#x122;" horiz-adv-x="1380" 
d="M1184 133q-6 -33 -21 -51.5t-45 -30.5q-80 -37 -215 -57.5t-291 -20.5q-237 0 -368 115t-131 354q0 225 71 466t209 384q175 181 541 181q99 0 212 -13t165 -33q21 -6 30 -17t9 -32q0 -28 -47 -299q-4 -28 -19.5 -38.5t-42.5 -10.5h-119q-45 0 -45 45q0 14 15 152
q-79 14 -179 14q-207 0 -305 -98q-65 -64 -112.5 -184.5t-67.5 -238.5t-20 -222q0 -148 69.5 -219.5t218.5 -71.5q128 0 238 29l63 290h-209q-40 0 -40 33q0 37 30 164q9 43 53 43h426q26 0 39 -8t13 -31q0 -15 -11 -65zM702 -131q60 0 60 -59q0 -42 -19 -97
q-54 -164 -161 -266q-41 -41 -76 -41q-32 0 -66 23q-28 19 -28 45q0 21 24 55q44 56 66.5 114.5t36.5 145.5q7 40 24 60t55 20h84z" />
    <glyph glyph-name="gcommaaccent" unicode="&#x123;" horiz-adv-x="1069" 
d="M123 10q-63 22 -92 60.5t-29 101.5q0 94 45.5 165t138.5 105q-53 53 -53 162q0 261 178 371q115 69 326 69q120 0 194 -26h259q47 0 47 -39q0 -49 -19 -139q-11 -47 -59 -47h-80q10 -20 10 -72q0 -74 -31.5 -154t-85.5 -129q-114 -106 -346 -106q-69 0 -131 12
q-50 8 -57 8q-23 0 -41 -12q-17 -12 -28 -37t-11 -49q0 -44 41 -55q41 -9 260 -9q239 0 335.5 -53.5t96.5 -185.5q0 -131 -36.5 -220t-113.5 -141.5t-183.5 -75t-258.5 -22.5q-136 0 -231 20.5t-144 58t-69.5 80.5t-20.5 97q0 100 45.5 163.5t143.5 98.5zM721 -137
q0 49 -38.5 73t-143.5 27q-74 2 -170 2q-50 0 -78 -12q-86 -39 -86 -131q0 -119 235 -119q51 0 84 2t74 11t65 25t41 47t17 75zM750 733q0 61 -39 87t-113 26q-85 0 -129 -33q-76 -51 -76 -174q0 -113 156 -113q102 0 151 52q50 53 50 155zM659 1182h-69q-58 0 -58 57
q0 55 25 125q56 145 160 238q16 14 22.5 19t19 11t25.5 6q22 0 54 -20q16 -10 21 -18.5t5 -22.5q0 -19 -24 -55q-80 -108 -101 -260q-5 -41 -23 -60.5t-57 -19.5z" />
    <glyph glyph-name="Hcircumflex" unicode="&#x124;" horiz-adv-x="1507" 
d="M475 0h-434q-45 0 -45 41q0 31 24 139q12 47 64 47h70l213 992h-76q-45 0 -45 41q0 33 24 139q9 47 64 47h430q27 0 40 -8t13 -33q0 -28 -26 -137q-7 -29 -21.5 -39t-44.5 -10h-74l-76 -355h510l78 355h-76q-47 0 -47 41q0 32 25 139q12 47 63 47h433q27 0 39 -8t12 -33
q0 -24 -27 -137q-6 -29 -20.5 -39t-44.5 -10h-72l-215 -992h76q28 0 40.5 -8.5t12.5 -32.5q0 -20 -27 -139q-7 -28 -21.5 -37.5t-43.5 -9.5h-432q-47 0 -47 41q0 22 26 139q9 47 62 47h69l88 406h-510l-88 -406h76q27 0 40 -9t13 -32q0 -25 -26 -139q-7 -28 -22 -37.5
t-44 -9.5zM745 1554h-100q-47 0 -47 39q0 19 27 43l235 205q59 55 109 55h110q49 0 84 -47l162 -211q14 -20 14 -41q0 -43 -61 -43h-82q-27 0 -44 9t-38 30l-115 119l-163 -121q-49 -37 -91 -37z" />
    <glyph glyph-name="hcircumflex" unicode="&#x125;" horiz-adv-x="1241" 
d="M418 0h-410q-47 0 -47 41q0 24 27 137q12 47 61 47h64l233 1082h-63q-47 0 -47 41q0 12 26 137q9 47 64 47h276q27 0 40 -9t13 -32q0 -30 -6 -57l-110 -496q44 54 128.5 79t184.5 25q278 0 278 -180q0 -69 -22 -168l-102 -469h61q27 0 40 -8t13 -31q0 -22 -24 -139
q-7 -29 -22 -38t-44 -9h-289q-43 0 -43 39q0 6 1 13.5t3 15.5l3 12l120 573q13 54 13 88q0 40 -26 56t-85 16q-89 0 -162 -31q-32 -12 -51 -34q-15 -18 -25 -62l-102 -461h70q26 0 38.5 -9.5t12.5 -33.5q0 -25 -25 -135q-7 -28 -22 -37.5t-43 -9.5zM336 1602h-100
q-48 0 -48 38q0 19 27 43l236 205q60 56 108 56h111q48 0 84 -48l161 -210q15 -21 15 -41q0 -43 -62 -43h-82q-27 0 -43.5 8.5t-37.5 29.5l-115 119l-164 -121q-27 -20 -45.5 -28t-44.5 -8z" />
    <glyph glyph-name="Hbar" unicode="&#x126;" horiz-adv-x="1507" 
d="M475 0h-434q-45 0 -45 41q0 31 24 139q12 47 64 47h70l151 707h-94q-43 0 -43 39q0 31 18 110q7 27 19 39.5t41 12.5h102l19 84h-76q-45 0 -45 41q0 33 24 139q9 47 64 47h430q27 0 40 -8t13 -33q0 -28 -26 -137q-7 -29 -21.5 -39t-44.5 -10h-74l-18 -84h512l18 84h-76
q-47 0 -47 41q0 32 25 139q12 47 63 47h433q27 0 39 -8t12 -33q0 -24 -27 -137q-6 -29 -20.5 -39t-44.5 -10h-72l-18 -84h102q45 0 45 -37q0 -25 -23 -119q-7 -29 -20 -37t-41 -8h-107l-153 -707h76q28 0 40.5 -8.5t12.5 -32.5q0 -20 -27 -139q-7 -28 -21.5 -37.5
t-43.5 -9.5h-432q-47 0 -47 41q0 22 26 139q9 47 62 47h69l88 406h-510l-88 -406h76q27 0 40 -9t13 -32q0 -25 -26 -139q-7 -28 -22 -37.5t-44 -9.5zM573 852h510l17 82h-510z" />
    <glyph glyph-name="hbar" unicode="&#x127;" horiz-adv-x="1241" 
d="M418 0h-410q-47 0 -47 41q0 24 27 137q12 47 61 47h64l186 867h-86q-45 0 -45 38q0 27 12 76q13 51 64 51h92l10 50h-63q-47 0 -47 41q0 12 26 137q9 47 64 47h276q27 0 40 -9t13 -32q0 -30 -6 -57l-41 -177h156q45 0 45 -38q0 -15 -14 -82q-10 -45 -62 -45h-162
l-32 -154q44 54 128.5 79t184.5 25q278 0 278 -180q0 -69 -22 -168l-102 -469h61q27 0 40 -8t13 -31q0 -22 -24 -139q-7 -29 -22 -38t-44 -9h-289q-43 0 -43 39q0 6 1 13.5t3 15.5l3 12l120 573q13 54 13 88q0 40 -26 56t-85 16q-89 0 -162 -31q-32 -12 -51 -34
q-15 -18 -25 -62l-102 -461h70q26 0 38.5 -9.5t12.5 -33.5q0 -25 -25 -135q-7 -28 -22 -37.5t-43 -9.5z" />
    <glyph glyph-name="Itilde" unicode="&#x128;" horiz-adv-x="710" 
d="M475 0h-434q-45 0 -45 41q0 31 24 139q12 47 64 47h70l213 992h-76q-45 0 -45 41q0 33 24 139q9 47 64 47h430q27 0 40 -8t13 -33q0 -28 -26 -137q-7 -29 -21.5 -39t-44.5 -10h-72l-215 -992h76q27 0 40 -9t13 -32q0 -25 -26 -139q-7 -28 -22 -37.5t-44 -9.5zM313 1554
h-63q-26 0 -37.5 9t-11.5 32q0 22 18 64q85 196 223 196q56 0 144 -53q70 -39 112 -39q24 0 40.5 12t37.5 48q24 41 72 41h55q49 0 49 -39q0 -30 -26 -80q-88 -180 -211 -180q-41 0 -76 10t-86 41q-59 35 -94 35q-46 0 -78 -54q-16 -25 -29.5 -34t-38.5 -9z" />
    <glyph glyph-name="itilde" unicode="&#x129;" horiz-adv-x="669" 
d="M201 1198h-66q-24 0 -34.5 8.5t-10.5 32.5q0 21 16 64q79 196 218 196q41 0 135 -53q65 -39 104 -39q24 0 39.5 11.5t36.5 47.5q21 41 70 41h55q25 0 36 -9t11 -32q0 -21 -25 -77q-80 -181 -202 -181q-39 0 -71.5 11t-84.5 41q-57 34 -90 34q-42 0 -74 -51
q-15 -25 -27.5 -35t-35.5 -10zM442 0h-409q-47 0 -47 41q0 38 24 137q12 47 64 47h63l125 568h-65q-45 0 -45 41q0 39 24 137q12 47 64 47h290q43 0 43 -39q0 -7 -4 -28t-4 -23l-151 -703h65q28 0 40.5 -8.5t12.5 -32.5q0 -23 -26 -137q-7 -28 -21 -37.5t-43 -9.5z" />
    <glyph glyph-name="Imacron" unicode="&#x12a;" horiz-adv-x="710" 
d="M475 0h-434q-45 0 -45 41q0 31 24 139q12 47 64 47h70l213 992h-76q-45 0 -45 41q0 33 24 139q9 47 64 47h430q27 0 40 -8t13 -33q0 -28 -26 -137q-7 -29 -21.5 -39t-44.5 -10h-72l-215 -992h76q27 0 40 -9t13 -32q0 -25 -26 -139q-7 -28 -22 -37.5t-44 -9.5zM831 1595
h-528q-45 0 -45 39q0 26 23 105q7 26 20.5 38.5t42.5 12.5h524q47 0 47 -39q0 -31 -20 -106q-7 -28 -22 -39t-42 -11z" />
    <glyph glyph-name="imacron" unicode="&#x12b;" horiz-adv-x="669" 
d="M666 1227h-459q-45 0 -45 39q0 32 18 106q8 27 22.5 39t43.5 12h454q50 0 50 -39q0 -31 -21 -110q-7 -28 -20.5 -37.5t-42.5 -9.5zM442 0h-409q-47 0 -47 41q0 38 24 137q12 47 64 47h63l125 568h-65q-45 0 -45 41q0 39 24 137q12 47 64 47h290q43 0 43 -39q0 -7 -4 -28
t-4 -23l-151 -703h65q28 0 40.5 -8.5t12.5 -32.5q0 -23 -26 -137q-7 -28 -21 -37.5t-43 -9.5z" />
    <glyph glyph-name="Ibreve" unicode="&#x12c;" horiz-adv-x="710" 
d="M475 0h-434q-45 0 -45 41q0 31 24 139q12 47 64 47h70l213 992h-76q-45 0 -45 41q0 33 24 139q9 47 64 47h430q27 0 40 -8t13 -33q0 -28 -26 -137q-7 -29 -21.5 -39t-44.5 -10h-72l-215 -992h76q27 0 40 -9t13 -32q0 -25 -26 -139q-7 -28 -22 -37.5t-44 -9.5zM885 1874
q23 0 32 -11.5t9 -35.5q0 -36 -21 -90q-25 -59 -63.5 -99.5t-108.5 -66t-168 -25.5q-130 0 -212.5 59.5t-82.5 172.5q0 36 6 57q12 39 58 39h59q27 0 41 -9.5t15 -33.5q4 -33 14 -51q27 -58 121 -58q77 0 113 26t57 79q11 28 23.5 37.5t41.5 9.5h66z" />
    <glyph glyph-name="ibreve" unicode="&#x12d;" horiz-adv-x="669" 
d="M723 1516q39 0 39 -48q0 -35 -23 -94q-42 -100 -117.5 -152.5t-213.5 -52.5q-132 0 -202.5 64.5t-70.5 157.5q0 42 6 69q8 56 54 56h55q26 0 37.5 -10.5t11.5 -35.5q0 -36 8 -55q23 -67 125 -67q77 0 109.5 28.5t56.5 91.5q18 48 64 48h61zM442 0h-409q-47 0 -47 41
q0 38 24 137q12 47 64 47h63l125 568h-65q-45 0 -45 41q0 39 24 137q12 47 64 47h290q43 0 43 -39q0 -7 -4 -28t-4 -23l-151 -703h65q28 0 40.5 -8.5t12.5 -32.5q0 -23 -26 -137q-7 -28 -21 -37.5t-43 -9.5z" />
    <glyph glyph-name="Iogonek" unicode="&#x12e;" horiz-adv-x="710" 
d="M475 0h-94q-42 -28 -64 -43.5t-58 -46t-54.5 -56t-33.5 -61t-15 -72.5q0 -77 80 -77q21 0 53.5 5t36.5 5q18 0 26.5 -9t14.5 -34q8 -24 8 -62q0 -25 -12 -37t-41 -20q-48 -14 -148 -14q-122 0 -175.5 47.5t-53.5 140.5q0 62 18.5 113.5t54.5 91.5t78.5 70t100.5 59h-156
q-45 0 -45 41q0 31 24 139q12 47 64 47h70l213 992h-76q-45 0 -45 41q0 33 24 139q9 47 64 47h430q27 0 40 -8t13 -33q0 -28 -26 -137q-7 -29 -21.5 -39t-44.5 -10h-72l-215 -992h76q27 0 40 -9t13 -32q0 -25 -26 -139q-7 -28 -22 -37.5t-44 -9.5z" />
    <glyph glyph-name="iogonek" unicode="&#x12f;" horiz-adv-x="669" 
d="M442 0h-84q-12 -9 -43.5 -31.5t-41.5 -30l-34 -25.5t-31 -26.5t-23 -25t-21 -28t-13 -28.5t-10 -34t-2 -37q0 -72 78 -72q20 0 51.5 4t34.5 4q19 0 27 -8t14 -31q8 -36 8 -61q0 -24 -11.5 -34.5t-41.5 -18.5q-59 -15 -141 -15q-119 0 -171.5 46t-52.5 135
q0 113 63.5 186.5t180.5 130.5h-145q-47 0 -47 41q0 32 24 133q13 51 64 51h63l125 568h-65q-45 0 -45 41q0 24 24 137q9 47 64 47h290q43 0 43 -39q0 -24 -14 -82l-145 -672h65q28 0 40.5 -8.5t12.5 -32.5q0 -23 -26 -137q-7 -28 -21 -37.5t-43 -9.5zM639 1386
q0 -33 -14.5 -79.5t-42.5 -71.5q-46 -43 -123 -43q-135 0 -135 117q0 101 49 145q52 49 129 49q66 0 101.5 -26.5t35.5 -90.5z" />
    <glyph glyph-name="Idotaccent" unicode="&#x130;" horiz-adv-x="710" 
d="M475 0h-434q-45 0 -45 41q0 31 24 139q12 47 64 47h70l213 992h-76q-45 0 -45 41q0 33 24 139q9 47 64 47h430q27 0 40 -8t13 -33q0 -28 -26 -137q-7 -29 -21.5 -39t-44.5 -10h-72l-215 -992h76q27 0 40 -9t13 -32q0 -25 -26 -139q-7 -28 -22 -37.5t-44 -9.5zM723 1735
q0 -32 -10.5 -71.5t-32.5 -61.5q-37 -37 -102 -37q-111 0 -111 100q0 80 41 127q38 41 104 41q55 0 83 -22t28 -76z" />
    <glyph glyph-name="dotlessi" unicode="&#x131;" horiz-adv-x="669" 
d="M442 0h-409q-47 0 -47 41q0 38 24 137q12 47 64 47h63l125 568h-65q-45 0 -45 41q0 39 24 137q12 47 64 47h290q43 0 43 -39q0 -7 -4 -28t-4 -23l-151 -703h65q28 0 40.5 -8.5t12.5 -32.5q0 -23 -26 -137q-7 -28 -21 -37.5t-43 -9.5z" />
    <glyph glyph-name="IJ" unicode="&#x132;" horiz-adv-x="1433" 
d="M475 0h-434q-45 0 -45 41q0 31 24 139q12 47 64 47h70l213 992h-76q-45 0 -45 41q0 33 24 139q9 47 64 47h430q27 0 40 -8t13 -33q0 -28 -26 -137q-7 -29 -21.5 -39t-44.5 -10h-72l-215 -992h76q27 0 40 -9t13 -32q0 -25 -26 -139q-7 -28 -22 -37.5t-44 -9.5zM1174 203
q-27 -121 -61 -192t-83 -117q-117 -105 -342 -105q-66 0 -100 10q-31 9 -31 54q0 43 23 118q6 23 22 37.5t37 14.5q7 0 35 -1.5t43 -1.5q69 0 108 33q23 21 38 62t34 125l211 979h-90q-47 0 -47 41q0 27 26 139q9 47 64 47h434q28 0 40.5 -8t12.5 -33q0 -28 -26 -137
q-7 -29 -21.5 -39t-44.5 -10h-63z" />
    <glyph glyph-name="ij" unicode="&#x133;" horiz-adv-x="1261" 
d="M442 0h-409q-47 0 -47 41q0 32 24 133q13 51 64 51h63l125 568h-65q-45 0 -45 41q0 24 24 137q9 47 64 47h290q43 0 43 -39q0 -24 -14 -82l-145 -672h65q28 0 40.5 -8.5t12.5 -32.5q0 -23 -26 -137q-7 -28 -21 -37.5t-43 -9.5zM639 1386q0 -33 -14.5 -79.5t-42.5 -71.5
q-46 -43 -123 -43q-135 0 -135 117q0 101 49 145q52 49 129 49q66 0 101.5 -26.5t35.5 -90.5zM965 -98q-25 -118 -56.5 -190.5t-77.5 -114.5q-63 -57 -145.5 -82t-234.5 -25q-78 0 -78 61q0 25 20 113q14 55 74 55q99 0 149 31q50 32 72 144l195 899h-66q-47 0 -47 41
q0 7 27 137q9 47 63 47h287q45 0 45 -37q0 -25 -4 -41zM1257 1386q0 -33 -14.5 -79.5t-42.5 -71.5q-46 -43 -123 -43q-135 0 -135 117q0 101 49 145q52 49 129 49q66 0 101.5 -26.5t35.5 -90.5z" />
    <glyph glyph-name="Jcircumflex" unicode="&#x134;" horiz-adv-x="718" 
d="M467 203q-27 -121 -60.5 -192t-82.5 -117q-117 -105 -342 -105q-67 0 -101 10q-31 9 -31 54q0 43 23 118q6 23 22 37.5t37 14.5q7 0 35 -1.5t43 -1.5q70 0 109 33q23 20 37.5 60.5t33.5 126.5l211 979h-90q-47 0 -47 41q0 23 27 139q9 47 63 47h434q29 0 41.5 -8
t12.5 -33q0 -24 -27 -137q-7 -29 -21.5 -39t-43.5 -10h-64zM352 1554h-100q-47 0 -47 39q0 20 26 43l236 205q59 55 108 55h111q49 0 84 -47l162 -211q14 -20 14 -41q0 -43 -61 -43h-82q-27 0 -44 9t-38 30l-115 119l-164 -121q-27 -21 -45.5 -29t-44.5 -8z" />
    <glyph glyph-name="jcircumflex" unicode="&#x135;" horiz-adv-x="612" 
d="M307 -98q-26 -119 -56.5 -191t-76.5 -114q-63 -57 -146 -82t-235 -25q-78 0 -78 61q0 21 21 113q14 55 74 55q99 0 149 31q50 32 72 144l194 899h-65q-47 0 -47 41q0 12 26 137q9 47 64 47h286q46 0 46 -37q0 -21 -5 -41zM182 1182h-98q-41 0 -41 35q0 18 25 47l219 239
q49 53 88 53h127q43 0 69 -51l125 -243q11 -26 11 -41q0 -39 -56 -39h-86q-25 0 -39.5 9t-27.5 30l-86 145l-148 -145q-39 -39 -82 -39z" />
    <glyph glyph-name="Kcommaaccent" unicode="&#x136;" horiz-adv-x="1376" 
d="M1393 1219h-101q-278 -375 -374 -494l200 -449q12 -28 29.5 -38.5t52.5 -10.5h70q26 0 38.5 -8.5t12.5 -32.5q0 -29 -25 -139q-7 -28 -21.5 -37.5t-43.5 -9.5h-215q-61 0 -89.5 22.5t-49.5 73.5l-195 494q-8 23 -25.5 30t-50.5 7h-80l-88 -400h76q27 0 40 -9t13 -32
q0 -25 -26 -139q-7 -28 -22 -37.5t-44 -9.5h-434q-45 0 -45 41q0 31 24 139q12 47 64 47h70l213 992h-76q-45 0 -45 41q0 33 24 139q9 47 64 47h430q27 0 40 -8t13 -33q0 -28 -26 -137q-7 -29 -21.5 -39t-44.5 -10h-72l-78 -355h93q74 0 104 43l232 312q-64 0 -64 41
q0 29 25 139q12 47 63 47h404q27 0 39 -8t12 -33q0 -20 -25 -137q-7 -29 -22 -39t-43 -10zM705 -131q59 0 59 -59q0 -42 -19 -97q-54 -164 -161 -266q-41 -41 -76 -41q-32 0 -66 23q-28 19 -28 45q0 21 24 55q44 56 66.5 114.5t36.5 145.5q7 39 24.5 59.5t55.5 20.5h84z" />
    <glyph glyph-name="kcommaaccent" unicode="&#x137;" horiz-adv-x="1167" 
d="M416 0h-410q-47 0 -47 41q0 29 27 137q12 47 63 47h64l233 1082h-65q-48 0 -48 39q0 9 27 139q9 47 62 47h286q47 0 47 -41q0 -22 -6 -43l-166 -778h92q38 0 60 11.5t43 39.5l53 72h-14q-19 0 -31 11t-12 30q0 28 24 137q9 47 64 47h360q27 0 39.5 -9t12.5 -32
q0 -29 -25 -137q-7 -28 -22 -37.5t-44 -9.5h-73q-137 -173 -195 -242q50 -118 123 -275q14 -30 29.5 -40.5t50.5 -10.5h39q28 0 40.5 -8.5t12.5 -32.5q0 -18 -27 -137q-6 -28 -20.5 -37.5t-42.5 -9.5h-174q-102 0 -137 88l-127 334q-7 21 -23.5 28t-48.5 7h-70l-53 -232h68
q28 0 40.5 -8.5t12.5 -32.5q0 -18 -27 -137q-7 -28 -21.5 -37.5t-43.5 -9.5zM659 -131q60 0 60 -59q0 -42 -19 -97q-54 -164 -161 -266q-41 -41 -76 -41q-32 0 -66 23q-28 19 -28 45q0 21 24 55q44 56 66.5 114.5t36.5 145.5q7 40 24 60t55 20h84z" />
    <glyph glyph-name="kgreenlandic" unicode="&#x138;" horiz-adv-x="1167" 
d="M440 0h-409q-47 0 -47 41q0 15 26 137q9 47 64 47h63l125 568h-65q-45 0 -45 38t24 140q9 47 64 47h284q47 0 47 -41q0 -27 -4 -43l-61 -277h80q39 0 61 9.5t41 33.5l66 93q-29 3 -38 12.5t-9 28.5q0 22 24 137q9 47 64 47h364q26 0 38.5 -8.5t12.5 -32.5q0 -34 -24 -137
q-7 -28 -22 -37.5t-44 -9.5h-73q-57 -72 -127.5 -164.5t-83.5 -108.5q5 -11 125 -246q14 -28 30 -38.5t51 -10.5h39q28 0 41 -8.5t13 -32.5q0 -18 -27 -137q-6 -28 -21 -37.5t-43 -9.5h-174q-102 0 -137 88l-131 309q-9 21 -25 28t-47 7h-71l-47 -207h67q28 0 40.5 -8.5
t12.5 -32.5q0 -23 -26 -137q-7 -28 -22 -37.5t-44 -9.5z" />
    <glyph glyph-name="Lacute" unicode="&#x139;" horiz-adv-x="1191" 
d="M1006 0h-965q-45 0 -45 41q0 31 24 137q12 49 64 49h70l215 992h-78q-45 0 -45 41q0 43 24 139q12 47 64 47h438q28 0 40.5 -8t12.5 -33q0 -28 -26 -137q-7 -30 -21 -39.5t-43 -9.5h-84l-213 -992h418l33 121q14 53 61 53h117q51 0 51 -43q0 -25 -55 -301q-6 -31 -18 -44
t-39 -13zM664 1581q-50 -27 -93 -27h-120q-20 0 -30.5 9.5t-10.5 21.5q0 30 26 51l262 201q46 37 93 37h190q47 0 47 -33q0 -36 -29 -53z" />
    <glyph glyph-name="lacute" unicode="&#x13a;" horiz-adv-x="651" 
d="M432 0h-409q-48 0 -48 41q0 18 25 137q9 47 66 47h61l235 1084h-63q-47 0 -47 41q0 25 24 137q9 45 66 45h285q45 0 45 -43q0 -7 -4 -28t-4 -23l-261 -1213h68q27 0 40 -9t13 -32t-26 -137q-7 -28 -22 -37.5t-44 -9.5zM569 1622q-50 -27 -92 -27h-121q-20 0 -30.5 9.5
t-10.5 21.5q0 29 27 51l262 201q46 37 92 37h191q47 0 47 -33q0 -36 -29 -53z" />
    <glyph glyph-name="Lcommaaccent" unicode="&#x13b;" horiz-adv-x="1191" 
d="M1006 0h-965q-45 0 -45 41q0 31 24 137q12 49 64 49h70l215 992h-78q-45 0 -45 41q0 43 24 139q12 47 64 47h438q28 0 40.5 -8t12.5 -33q0 -28 -26 -137q-7 -30 -21 -39.5t-43 -9.5h-84l-213 -992h418l33 121q14 53 61 53h117q51 0 51 -43q0 -25 -55 -301q-6 -31 -18 -44
t-39 -13zM563 -131q60 0 60 -59q0 -42 -19 -97q-54 -163 -162 -266q-41 -41 -75 -41q-31 0 -66 23q-29 20 -29 45q0 20 25 55q43 56 65.5 114t36.5 146q7 39 24.5 59.5t55.5 20.5h84z" />
    <glyph glyph-name="lcommaaccent" unicode="&#x13c;" horiz-adv-x="651" 
d="M432 0h-409q-48 0 -48 41q0 18 25 137q9 47 66 47h61l235 1084h-63q-47 0 -47 41q0 25 24 137q9 45 66 45h285q45 0 45 -43q0 -7 -4 -28t-4 -23l-261 -1213h68q27 0 40 -9t13 -32t-26 -137q-7 -28 -22 -37.5t-44 -9.5zM266 -131q60 0 60 -59q0 -42 -19 -97
q-54 -163 -162 -266q-41 -41 -75 -41q-31 0 -66 23q-29 20 -29 45q0 20 25 55q43 56 65.5 114t36.5 146q7 39 24.5 59.5t55.5 20.5h84z" />
    <glyph glyph-name="Lcaron" unicode="&#x13d;" horiz-adv-x="1191" 
d="M1006 0h-965q-45 0 -45 41q0 31 24 137q12 49 64 49h70l215 992h-78q-45 0 -45 41q0 43 24 139q12 47 64 47h438q28 0 40.5 -8t12.5 -33q0 -28 -26 -137q-7 -30 -21 -39.5t-43 -9.5h-84l-213 -992h418l33 121q14 53 61 53h117q51 0 51 -43q0 -25 -55 -301q-6 -31 -18 -44
t-39 -13zM1139 1483q59 0 59 -58q0 -47 -27 -120q-51 -147 -153 -244q-41 -41 -76 -41q-29 0 -65 24q-29 18 -29 43q0 20 24 56q88 114 103 260q5 40 23 60t57 20h84z" />
    <glyph glyph-name="lcaron" unicode="&#x13e;" horiz-adv-x="651" 
d="M432 0h-409q-48 0 -48 41q0 18 25 137q9 47 66 47h61l235 1084h-63q-47 0 -47 41q0 25 24 137q9 45 66 45h285q45 0 45 -43q0 -7 -4 -28t-4 -23l-261 -1213h68q27 0 40 -9t13 -32t-26 -137q-7 -28 -22 -37.5t-44 -9.5zM991 1530q60 0 60 -57q0 -48 -27 -121
q-50 -146 -154 -244q-41 -41 -75 -41q-29 0 -66 25q-29 18 -29 43q0 17 25 55q87 112 102 260q5 40 23 60t57 20h84z" />
    <glyph glyph-name="Ldot" unicode="&#x13f;" horiz-adv-x="1191" 
d="M1149 776q0 -39 -13 -87t-42 -75q-45 -45 -125 -45q-138 0 -138 127q0 90 54 150q45 51 129 51q135 0 135 -121zM1006 0h-965q-45 0 -45 41q0 31 24 139q12 47 64 47h70l215 992h-78q-45 0 -45 41q0 33 24 139q9 47 64 47h438q28 0 40.5 -8t12.5 -33q0 -28 -26 -137
q-7 -30 -21 -39.5t-43 -9.5h-84l-213 -990h420l31 119q14 53 61 53h117q51 0 51 -43q0 -5 -55 -301q-5 -30 -17.5 -43.5t-39.5 -13.5z" />
    <glyph glyph-name="ldot" unicode="&#x140;" horiz-adv-x="856" 
d="M954 774q0 -37 -13 -84t-40 -74q-43 -43 -121 -43q-135 0 -135 123q0 89 51 146q43 51 127 51q63 0 97 -27t34 -92zM432 0h-409q-48 0 -48 41q0 20 25 137q12 47 66 47h61l235 1084h-63q-47 0 -47 41q0 28 24 137q9 45 66 45h289q23 0 32 -8.5t9 -30.5q0 -5 -1.5 -15.5
t-3.5 -23t-3 -16.5l-261 -1213h68q27 0 40 -9t13 -32t-26 -137q-7 -28 -22 -37.5t-44 -9.5z" />
    <glyph glyph-name="Lslash" unicode="&#x141;" horiz-adv-x="1191" 
d="M1006 0h-965q-45 0 -45 41q0 31 24 137q12 49 64 49h70l55 252l-72 -39q-16 -8 -33 -8q-18 0 -38 33q-50 94 -50 113q0 30 29 45l221 122l103 474h-78q-45 0 -45 41q0 43 24 139q12 47 64 47h438q28 0 40.5 -8t12.5 -33q0 -28 -26 -137q-7 -30 -21 -39.5t-43 -9.5h-84
l-63 -291l170 94q24 12 41 12q19 0 39 -30q55 -96 55 -117q0 -26 -31 -43l-332 -185l-92 -432h418l33 121q14 53 61 53h117q51 0 51 -43q0 -25 -55 -301q-6 -31 -18 -44t-39 -13z" />
    <glyph glyph-name="lslash" unicode="&#x142;" horiz-adv-x="651" 
d="M432 0h-409q-48 0 -48 41q0 18 25 137q9 47 66 47h61l63 293l-59 -33q-13 -8 -31 -8q-22 0 -39 33q-5 9 -12 22t-10 19t-7.5 14.5t-6 12.5t-4 10t-3.5 9.5t-1.5 8t-0.5 8.5q0 28 29 43l199 111l118 541h-63q-47 0 -47 41q0 25 24 137q9 45 66 45h285q45 0 45 -43
q0 -7 -4 -28t-4 -23l-107 -498l61 35q19 12 41 12q12 0 19 -6.5t18 -26.5q52 -83 52 -104q0 -24 -31 -43l-215 -119l-99 -463h68q27 0 40 -9t13 -32t-26 -137q-7 -28 -22 -37.5t-44 -9.5z" />
    <glyph glyph-name="Nacute" unicode="&#x143;" horiz-adv-x="1497" 
d="M475 0h-434q-45 0 -45 41q0 31 24 139q12 47 64 47h72l211 992h-76q-45 0 -45 41q0 36 24 139q9 47 64 47h282q23 0 39 -12t23 -29q235 -546 362 -873q38 221 146 687h-86q-47 0 -47 41q0 25 26 139q9 47 62 47h430q28 0 40.5 -8t12.5 -33q0 -24 -27 -137
q-7 -29 -21.5 -39t-43.5 -10h-70l-245 -1160q-6 -29 -25.5 -45t-46.5 -16h-123q-32 0 -49 9.5t-29 37.5q-268 634 -360 885q-30 -151 -152 -703h82q27 0 40 -9t13 -32q0 -25 -26 -139q-7 -28 -22 -37.5t-44 -9.5zM995 1581q-50 -27 -92 -27h-121q-20 0 -30.5 9.5t-10.5 21.5
q0 29 27 51l262 201q46 37 92 37h191q47 0 47 -33q0 -36 -29 -53z" />
    <glyph glyph-name="nacute" unicode="&#x144;" horiz-adv-x="1282" 
d="M442 0h-409q-47 0 -47 41q0 35 24 137q12 47 64 47h63l125 568h-65q-45 0 -45 41q0 29 24 137q9 47 64 47h268q30 0 40.5 -10.5t10.5 -34.5q0 -22 -6 -49q42 61 129 89.5t195 28.5q276 0 276 -180q0 -78 -20 -168l-103 -469h62q28 0 40.5 -8t12.5 -31q0 -20 -27 -139
q-7 -29 -20 -38t-43 -9h-291q-43 0 -43 39q0 4 1 10t2.5 13.5t2.5 11.5l123 579q10 55 10 88q0 40 -25.5 56t-80.5 16q-87 0 -162 -29q-37 -16 -51 -32q-18 -18 -29 -66l-100 -461h67q28 0 40.5 -8.5t12.5 -32.5q0 -23 -26 -137q-7 -28 -21 -37.5t-43 -9.5zM807 1225
q-37 -37 -84 -37h-100q-50 0 -50 37q0 23 21 47l219 239q20 24 37.5 34.5t42.5 10.5h162q51 0 51 -38q0 -21 -27 -48z" />
    <glyph glyph-name="Ncommaaccent" unicode="&#x145;" horiz-adv-x="1497" 
d="M475 0h-434q-45 0 -45 41q0 31 24 139q12 47 64 47h72l211 992h-76q-45 0 -45 41q0 36 24 139q9 47 64 47h282q23 0 39 -12t23 -29q235 -546 362 -873q38 221 146 687h-86q-47 0 -47 41q0 25 26 139q9 47 62 47h430q28 0 40.5 -8t12.5 -33q0 -24 -27 -137
q-7 -29 -21.5 -39t-43.5 -10h-70l-245 -1160q-6 -29 -25.5 -45t-46.5 -16h-123q-32 0 -49 9.5t-29 37.5q-268 634 -360 885q-30 -151 -152 -703h82q27 0 40 -9t13 -32q0 -25 -26 -139q-7 -28 -22 -37.5t-44 -9.5zM719 -131q59 0 59 -59q0 -45 -18 -97q-54 -163 -162 -266
q-41 -41 -76 -41q-31 0 -65 23q-29 20 -29 45q0 20 25 55q43 56 65.5 114t36.5 146q7 39 24.5 59.5t55.5 20.5h84z" />
    <glyph glyph-name="ncommaaccent" unicode="&#x146;" horiz-adv-x="1282" 
d="M442 0h-409q-47 0 -47 41q0 35 24 137q12 47 64 47h63l125 568h-65q-45 0 -45 41q0 29 24 137q9 47 64 47h268q30 0 40.5 -10.5t10.5 -34.5q0 -22 -6 -49q42 61 129 89.5t195 28.5q276 0 276 -180q0 -78 -20 -168l-103 -469h62q28 0 40.5 -8t12.5 -31q0 -20 -27 -139
q-7 -29 -20 -38t-43 -9h-291q-43 0 -43 39q0 4 1 10t2.5 13.5t2.5 11.5l123 579q10 55 10 88q0 40 -25.5 56t-80.5 16q-87 0 -162 -29q-37 -16 -51 -32q-18 -18 -29 -66l-100 -461h67q28 0 40.5 -8.5t12.5 -32.5q0 -23 -26 -137q-7 -28 -21 -37.5t-43 -9.5zM596 -131
q59 0 59 -59q0 -45 -18 -97q-54 -163 -162 -266q-41 -41 -76 -41q-31 0 -65 23q-29 20 -29 45q0 20 25 55q43 56 65.5 114t36.5 146q7 39 24.5 59.5t55.5 20.5h84z" />
    <glyph glyph-name="Ncaron" unicode="&#x147;" horiz-adv-x="1497" 
d="M475 0h-434q-45 0 -45 41q0 31 24 139q12 47 64 47h72l211 992h-76q-45 0 -45 41q0 36 24 139q9 47 64 47h282q23 0 39 -12t23 -29q235 -546 362 -873q38 221 146 687h-86q-47 0 -47 41q0 25 26 139q9 47 62 47h430q28 0 40.5 -8t12.5 -33q0 -24 -27 -137
q-7 -29 -21.5 -39t-43.5 -10h-70l-245 -1160q-6 -29 -25.5 -45t-46.5 -16h-123q-32 0 -49 9.5t-29 37.5q-268 634 -360 885q-30 -151 -152 -703h82q27 0 40 -9t13 -32q0 -25 -26 -139q-7 -28 -22 -37.5t-44 -9.5zM1206 1896h103q45 0 45 -38q0 -21 -25 -46l-237 -204
q-66 -54 -109 -54h-111q-45 0 -81 48l-162 208q-17 20 -17 43q0 18 16.5 30.5t47.5 12.5h82q28 0 44.5 -9t35.5 -29l114 -119l164 119q30 21 48 29.5t42 8.5z" />
    <glyph glyph-name="ncaron" unicode="&#x148;" horiz-adv-x="1282" 
d="M442 0h-409q-47 0 -47 41q0 35 24 137q12 47 64 47h63l125 568h-65q-45 0 -45 41q0 29 24 137q9 47 64 47h268q30 0 40.5 -10.5t10.5 -34.5q0 -22 -6 -49q42 61 129 89.5t195 28.5q276 0 276 -180q0 -78 -20 -168l-103 -469h62q28 0 40.5 -8t12.5 -31q0 -20 -27 -139
q-7 -29 -20 -38t-43 -9h-291q-43 0 -43 39q0 4 1 10t2.5 13.5t2.5 11.5l123 579q10 55 10 88q0 40 -25.5 56t-80.5 16q-87 0 -162 -29q-37 -16 -51 -32q-18 -18 -29 -66l-100 -461h67q28 0 40.5 -8.5t12.5 -32.5q0 -23 -26 -137q-7 -28 -21 -37.5t-43 -9.5zM952 1556h99
q41 0 41 -36q0 -16 -25 -45l-219 -240q-49 -53 -88 -53h-127q-44 0 -70 51l-125 244q-10 23 -10 41q0 16 13.5 27t41.5 11h86q26 0 41 -8.5t27 -29.5l86 -148l147 148q38 38 82 38z" />
    <glyph glyph-name="napostrophe" unicode="&#x149;" horiz-adv-x="1282" 
d="M442 0h-409q-47 0 -47 41q0 35 24 137q12 47 64 47h63l125 568h-65q-45 0 -45 41q0 29 24 137q9 47 64 47h268q30 0 40.5 -10.5t10.5 -34.5q0 -22 -6 -49q42 61 129 89.5t195 28.5q276 0 276 -180q0 -78 -20 -168l-103 -469h62q28 0 40.5 -8t12.5 -31q0 -20 -27 -139
q-7 -29 -20 -38t-43 -9h-291q-43 0 -43 39q0 4 1 10t2.5 13.5t2.5 11.5l123 579q10 55 10 88q0 40 -25.5 56t-80.5 16q-87 0 -162 -29q-37 -16 -51 -32q-18 -18 -29 -66l-100 -461h67q28 0 40.5 -8.5t12.5 -32.5q0 -23 -26 -137q-7 -28 -21 -37.5t-43 -9.5zM451 1606
q59 0 59 -60q0 -44 -18 -96q-54 -163 -162 -266q-41 -41 -76 -41q-33 0 -66 22q-28 19 -28 45q0 22 24 56q44 56 66.5 114.5t36.5 145.5q7 39 24.5 59.5t55.5 20.5h84z" />
    <glyph glyph-name="Eng" unicode="&#x14a;" horiz-adv-x="1497" 
d="M475 0h-434q-45 0 -45 41q0 31 24 139q12 47 64 47h72l211 992h-76q-45 0 -45 41q0 33 24 139q9 47 64 47h282q23 0 39 -12t23 -29q207 -478 362 -873q38 221 146 687h-86q-47 0 -47 41q0 25 26 139q9 47 62 47h430q28 0 40.5 -8t12.5 -33q0 -24 -27 -137
q-7 -29 -21.5 -39t-43.5 -10h-70l-266 -1256q-28 -131 -55.5 -199.5t-75.5 -111.5q-111 -103 -352 -103q-65 0 -103 9q-35 10 -35 55q0 36 23 121q12 53 61 53q4 0 30 -2t46 -2q81 0 117 31q21 18 35.5 61.5t32.5 124.5l14 70q-257 609 -350 860q-30 -151 -152 -703h82
q27 0 40 -9t13 -32q0 -25 -26 -139q-7 -28 -22 -37.5t-44 -9.5z" />
    <glyph glyph-name="eng" unicode="&#x14b;" horiz-adv-x="1282" 
d="M442 0h-409q-47 0 -47 41q0 35 24 137q12 47 64 47h63l125 568h-65q-45 0 -45 41q0 34 24 137q12 47 64 47h268q30 0 40.5 -10.5t10.5 -34.5q0 -22 -6 -49q42 61 129 89.5t195 28.5q276 0 276 -180q0 -78 -20 -168l-150 -704q-27 -127 -58.5 -194.5t-78.5 -110.5
q-108 -94 -324 -97q-82 0 -112 11q-33 10 -33 47q0 48 24 118q14 48 58 48q5 0 32 -2.5t48 -2.5q59 0 104 29q23 18 39 62t33 122l135 633q10 55 10 88q0 40 -25.5 56t-80.5 16q-87 0 -162 -29q-37 -16 -51 -32q-18 -18 -29 -66l-100 -461h67q28 0 40.5 -8.5t12.5 -32.5
q0 -23 -26 -137q-7 -28 -21 -37.5t-43 -9.5z" />
    <glyph glyph-name="Omacron" unicode="&#x14c;" horiz-adv-x="1427" 
d="M1409 1038q0 -91 -15.5 -206.5t-46 -240.5t-84 -243.5t-120.5 -191.5q-89 -98 -208 -140.5t-286 -42.5q-96 0 -171 11.5t-145.5 42.5t-116.5 81.5t-73.5 132t-27.5 191.5q0 137 26 288t89.5 311t154.5 257q172 185 481 185q100 0 174 -9t147 -36.5t119 -74t74.5 -126.5
t28.5 -189zM1112 993q0 141 -60.5 192.5t-203.5 51.5q-168 0 -258 -109q-83 -103 -131.5 -307t-48.5 -354q0 -149 62 -204.5t200 -55.5q97 0 160 26t114 101q72 106 119 318.5t47 340.5zM1178 1595h-529q-45 0 -45 39q0 26 23 105q7 26 20.5 38.5t42.5 12.5h524q48 0 48 -39
q0 -27 -21 -106q-7 -28 -21.5 -39t-41.5 -11z" />
    <glyph glyph-name="omacron" unicode="&#x14d;" horiz-adv-x="1144" 
d="M1085 717q0 -83 -17 -185.5t-59.5 -218.5t-101.5 -188q-126 -152 -403 -152q-64 0 -115.5 5.5t-103 19.5t-89.5 40t-67.5 63.5t-45 93t-15.5 127.5q0 152 48.5 318t145.5 267q135 140 381 140q66 0 115.5 -4t103.5 -15.5t91.5 -35t69 -58.5t47 -90t15.5 -127zM805 676
q0 83 -43.5 113t-136.5 30q-112 0 -170 -78q-47 -63 -76 -188.5t-29 -202.5q0 -87 41.5 -119t134.5 -32q126 0 179 80q41 59 70.5 192.5t29.5 204.5zM936 1227h-459q-45 0 -45 39q0 28 19 106q8 27 22 39t43 12h455q49 0 49 -39q0 -31 -21 -110q-7 -28 -20.5 -37.5
t-42.5 -9.5z" />
    <glyph glyph-name="Obreve" unicode="&#x14e;" horiz-adv-x="1427" 
d="M1409 1038q0 -91 -15.5 -206.5t-46 -240.5t-84 -243.5t-120.5 -191.5q-89 -98 -208 -140.5t-286 -42.5q-96 0 -171 11.5t-145.5 42.5t-116.5 81.5t-73.5 132t-27.5 191.5q0 137 26 288t89.5 311t154.5 257q172 185 481 185q100 0 174 -9t147 -36.5t119 -74t74.5 -126.5
t28.5 -189zM1112 993q0 141 -60.5 192.5t-203.5 51.5q-168 0 -258 -109q-83 -103 -131.5 -307t-48.5 -354q0 -149 62 -204.5t200 -55.5q97 0 160 26t114 101q72 106 119 318.5t47 340.5zM1223 1874q23 0 32 -11.5t9 -35.5q0 -36 -21 -90q-25 -59 -63.5 -99.5t-108.5 -66
t-168 -25.5q-130 0 -212.5 59.5t-82.5 172.5q0 36 6 57q12 39 58 39h59q27 0 40.5 -9.5t14.5 -33.5q3 -31 15 -51q27 -58 121 -58q77 0 113 26t57 79q11 28 23.5 37.5t41.5 9.5h66z" />
    <glyph glyph-name="obreve" unicode="&#x14f;" horiz-adv-x="1144" 
d="M1085 717q0 -83 -17 -185.5t-59.5 -218.5t-101.5 -188q-126 -152 -403 -152q-64 0 -115.5 5.5t-103 19.5t-89.5 40t-67.5 63.5t-45 93t-15.5 127.5q0 152 48.5 318t145.5 267q135 140 381 140q66 0 115.5 -4t103.5 -15.5t91.5 -35t69 -58.5t47 -90t15.5 -127zM805 676
q0 83 -43.5 113t-136.5 30q-112 0 -170 -78q-47 -63 -76 -188.5t-29 -202.5q0 -87 41.5 -119t134.5 -32q126 0 179 80q41 59 70.5 192.5t29.5 204.5zM1010 1516q39 0 39 -48q0 -35 -23 -94q-42 -100 -117.5 -152.5t-214.5 -52.5q-132 0 -202 64.5t-70 157.5q0 42 6 69
q8 56 53 56h56q26 0 37.5 -10.5t11.5 -35.5q0 -36 8 -55q23 -67 125 -67q77 0 109.5 28.5t56.5 91.5q10 27 24.5 37.5t38.5 10.5h62z" />
    <glyph glyph-name="Ohungarumlaut" unicode="&#x150;" horiz-adv-x="1427" 
d="M1409 1038q0 -91 -15.5 -206.5t-46 -240.5t-84 -243.5t-120.5 -191.5q-89 -98 -208 -140.5t-286 -42.5q-96 0 -171 11.5t-145.5 42.5t-116.5 81.5t-73.5 132t-27.5 191.5q0 137 26 288t89.5 311t154.5 257q172 185 481 185q100 0 174 -9t147 -36.5t119 -74t74.5 -126.5
t28.5 -189zM1112 993q0 141 -60.5 192.5t-203.5 51.5q-168 0 -258 -109q-83 -103 -131.5 -307t-48.5 -354q0 -149 62 -204.5t200 -55.5q97 0 160 26t114 101q72 106 119 318.5t47 340.5zM778 1581q-45 -27 -92 -27h-102q-20 0 -29.5 9.5t-9.5 21.5q0 27 26 51l232 199
q46 37 94 37h143q47 0 47 -35q0 -28 -30 -51zM1212 1581q-45 -27 -92 -27h-102q-20 0 -29.5 9.5t-9.5 21.5q0 26 27 51l231 199q46 37 94 37h144q47 0 47 -35q0 -27 -31 -51z" />
    <glyph glyph-name="ohungarumlaut" unicode="&#x151;" horiz-adv-x="1144" 
d="M1085 717q0 -83 -17 -185.5t-59.5 -218.5t-101.5 -188q-126 -152 -403 -152q-64 0 -115.5 5.5t-103 19.5t-89.5 40t-67.5 63.5t-45 93t-15.5 127.5q0 152 48.5 318t145.5 267q135 140 381 140q66 0 115.5 -4t103.5 -15.5t91.5 -35t69 -58.5t47 -90t15.5 -127zM805 676
q0 83 -43.5 113t-136.5 30q-112 0 -170 -78q-47 -63 -76 -188.5t-29 -202.5q0 -87 41.5 -119t134.5 -32q126 0 179 80q41 59 70.5 192.5t29.5 204.5zM606 1225q-32 -37 -82 -37h-80q-49 0 -49 39q0 22 19 47l178 237q33 45 80 45h123q49 0 49 -36q0 -25 -23 -54zM958 1225
q-37 -37 -84 -37h-77q-47 0 -47 39q0 23 18 47l178 237q36 45 78 45h125q49 0 49 -36q0 -24 -24 -54z" />
    <glyph glyph-name="OE" unicode="&#x152;" horiz-adv-x="1994" 
d="M1772 0h-867q-140 -18 -274 -18q-260 0 -386 112t-126 350q0 144 29 294t98 302.5t168 249.5q100 98 234 136t310 38q127 0 246 -18h774q22 0 36 -12t14 -35q0 -12 -50 -299q-6 -28 -19.5 -37.5t-41.5 -9.5h-119q-45 0 -45 43q0 18 10 123h-344l-73 -355h450q51 0 51 -39
q0 -30 -28 -145q-6 -26 -22 -36.5t-46 -10.5h-457l-86 -406h422l27 113q14 53 61 53h117q51 0 51 -41q0 -22 -53 -295q-5 -30 -18 -43.5t-43 -13.5zM928 242l207 972q-69 17 -213 17q-110 0 -187.5 -27.5t-138.5 -105.5q-86 -107 -133 -282.5t-47 -334.5q0 -147 68 -207.5
t204 -60.5q126 0 240 29z" />
    <glyph glyph-name="oe" unicode="&#x153;" horiz-adv-x="1753" 
d="M1038 430q-6 -33 -6 -76q0 -90 51 -122.5t158 -32.5q125 0 252 30q39 11 53 11q32 0 39 -33q19 -83 19 -111q0 -41 -43 -59q-71 -30 -181.5 -46t-218.5 -16q-246 0 -309 129q-56 -70 -142 -99.5t-206 -29.5q-78 0 -137.5 7.5t-118 30t-96.5 60.5t-61 101t-23 148
q0 153 48 318.5t146 266.5q129 137 383 137q136 0 219.5 -24.5t122.5 -101.5q112 126 359 126q104 0 176 -19.5t113.5 -58.5t59 -90.5t17.5 -121.5q0 -115 -29 -248q-9 -45 -34 -64q-18 -12 -58 -12h-553zM805 676q0 83 -42.5 113t-133.5 30q-118 0 -176 -78
q-47 -63 -75 -188t-28 -203q0 -87 41.5 -119t134.5 -32q127 0 181 77q41 61 69.5 194.5t28.5 205.5zM1071 623h373q18 67 18 114q0 59 -32.5 88t-116.5 29q-100 0 -150 -47q-64 -56 -92 -184z" />
    <glyph glyph-name="Racute" unicode="&#x154;" horiz-adv-x="1378" 
d="M475 0h-434q-45 0 -45 41q0 31 24 139q12 47 64 47h72l213 992h-78q-45 0 -45 41q0 24 24 139q9 47 64 47h463q262 0 374 -53q74 -34 114 -109.5t40 -163.5q0 -180 -81 -308.5t-245 -180.5l131 -359q10 -29 22 -37t44 -8h76q55 0 55 -47q0 -41 -24 -133
q-7 -28 -23.5 -37.5t-46.5 -9.5h-205q-69 0 -101.5 24.5t-45.5 71.5l-152 488q-27 -4 -98 -4h-115l-78 -353h76q27 0 40 -9t13 -32q0 -25 -26 -139q-7 -28 -22 -37.5t-44 -9.5zM563 801h125q146 0 211 24q69 23 101 85.5t32 144.5q0 50 -19 87t-52 52q-55 25 -193 25h-117z
M885 1581q-49 -27 -92 -27h-121q-20 0 -30.5 9.5t-10.5 21.5q0 30 26 51l263 201q46 37 92 37h190q47 0 47 -33q0 -36 -28 -53z" />
    <glyph glyph-name="racute" unicode="&#x155;" horiz-adv-x="858" 
d="M481 0h-448q-47 0 -47 41q0 34 24 137q12 47 64 47h63l125 568h-65q-45 0 -45 41q0 27 24 137q9 47 64 47h272q47 0 47 -39q0 -34 -6 -55q26 50 104 84t164 34q51 0 74 -8q29 -12 29 -45q0 -16 -15.5 -80.5t-25.5 -83.5q-15 -32 -58 -32q-13 0 -56 3t-60 3
q-86 0 -134 -25q-26 -14 -40 -37q-13 -20 -23 -61l-100 -451h108q26 0 38.5 -8.5t12.5 -32.5t-24 -137q-6 -28 -21 -37.5t-45 -9.5zM666 1225q-37 -37 -84 -37h-101q-49 0 -49 37q0 23 21 47l219 239q20 24 37.5 34.5t42.5 10.5h161q24 0 38 -10.5t14 -27.5q0 -21 -27 -48z
" />
    <glyph glyph-name="Rcommaaccent" unicode="&#x156;" horiz-adv-x="1378" 
d="M475 0h-434q-45 0 -45 41q0 31 24 139q12 47 64 47h72l213 992h-78q-45 0 -45 41q0 24 24 139q9 47 64 47h463q262 0 374 -53q74 -34 114 -109.5t40 -163.5q0 -180 -81 -308.5t-245 -180.5l131 -359q10 -29 22 -37t44 -8h76q55 0 55 -47q0 -41 -24 -133
q-7 -28 -23.5 -37.5t-46.5 -9.5h-205q-69 0 -101.5 24.5t-45.5 71.5l-152 488q-27 -4 -98 -4h-115l-78 -353h76q27 0 40 -9t13 -32q0 -25 -26 -139q-7 -28 -22 -37.5t-44 -9.5zM563 801h125q146 0 211 24q69 23 101 85.5t32 144.5q0 50 -19 87t-52 52q-55 25 -193 25h-117z
M672 -131q59 0 59 -59q0 -45 -18 -97q-54 -163 -162 -266q-41 -41 -76 -41q-31 0 -65 23q-29 20 -29 45q0 20 25 55q43 56 65.5 114t36.5 146q7 39 24.5 59.5t55.5 20.5h84z" />
    <glyph glyph-name="rcommaaccent" unicode="&#x157;" horiz-adv-x="858" 
d="M481 0h-448q-47 0 -47 41q0 34 24 137q12 47 64 47h63l125 568h-65q-45 0 -45 41q0 27 24 137q9 47 64 47h272q47 0 47 -39q0 -34 -6 -55q26 50 104 84t164 34q51 0 74 -8q29 -12 29 -45q0 -16 -15.5 -80.5t-25.5 -83.5q-15 -32 -58 -32q-13 0 -56 3t-60 3
q-86 0 -134 -25q-26 -14 -40 -37q-13 -20 -23 -61l-100 -451h108q26 0 38.5 -8.5t12.5 -32.5t-24 -137q-6 -28 -21 -37.5t-45 -9.5zM287 -131q59 0 59 -59q0 -45 -18 -97q-54 -163 -162 -266q-41 -41 -76 -41q-30 0 -65 23q-29 20 -29 45q0 21 24 55q44 56 66.5 114.5
t36.5 145.5q7 39 24.5 59.5t55.5 20.5h84z" />
    <glyph glyph-name="Rcaron" unicode="&#x158;" horiz-adv-x="1378" 
d="M475 0h-434q-45 0 -45 41q0 31 24 139q12 47 64 47h72l213 992h-78q-45 0 -45 41q0 24 24 139q9 47 64 47h463q262 0 374 -53q74 -34 114 -109.5t40 -163.5q0 -180 -81 -308.5t-245 -180.5l131 -359q10 -29 22 -37t44 -8h76q55 0 55 -47q0 -41 -24 -133
q-7 -28 -23.5 -37.5t-46.5 -9.5h-205q-69 0 -101.5 24.5t-45.5 71.5l-152 488q-27 -4 -98 -4h-115l-78 -353h76q27 0 40 -9t13 -32q0 -25 -26 -139q-7 -28 -22 -37.5t-44 -9.5zM563 801h125q146 0 211 24q69 23 101 85.5t32 144.5q0 50 -19 87t-52 52q-55 25 -193 25h-117z
M1085 1896h103q45 0 45 -38q0 -21 -25 -46l-237 -204q-66 -54 -109 -54h-110q-46 0 -82 48l-162 208q-16 19 -16 43q0 18 16 30.5t47 12.5h82q28 0 44.5 -9t35.5 -29l114 -119l164 119q30 21 48 29.5t42 8.5z" />
    <glyph glyph-name="rcaron" unicode="&#x159;" horiz-adv-x="858" 
d="M481 0h-448q-47 0 -47 41q0 34 24 137q12 47 64 47h63l125 568h-65q-45 0 -45 41q0 27 24 137q9 47 64 47h272q47 0 47 -39q0 -34 -6 -55q26 50 104 84t164 34q51 0 74 -8q29 -12 29 -45q0 -16 -15.5 -80.5t-25.5 -83.5q-15 -32 -58 -32q-13 0 -56 3t-60 3
q-86 0 -134 -25q-26 -14 -40 -37q-13 -20 -23 -61l-100 -451h108q26 0 38.5 -8.5t12.5 -32.5t-24 -137q-6 -28 -21 -37.5t-45 -9.5zM795 1556h98q41 0 41 -36q0 -16 -25 -45l-219 -240q-49 -53 -88 -53h-127q-43 0 -69 51l-125 244q-11 26 -11 41t14 26.5t42 11.5h86
q26 0 40.5 -8.5t26.5 -29.5l86 -148l148 148q38 38 82 38z" />
    <glyph glyph-name="Sacute" unicode="&#x15a;" horiz-adv-x="1191" 
d="M53 86v291q0 29 15.5 44t42.5 15h116q49 0 52 -47l10 -151q115 -31 241 -31q130 0 198.5 42t68.5 154q0 57 -32 96.5t-124 73.5l-152 56q-136 50 -202 133t-66 211q0 253 155.5 376.5t448.5 123.5q213 0 344 -46q26 -9 35.5 -20.5t9.5 -30.5q0 -23 -49 -301
q-4 -28 -18 -37.5t-41 -9.5h-119q-47 0 -47 43q0 9 12 152q-99 16 -196 16q-234 0 -234 -190q0 -59 31.5 -98.5t116.5 -71.5l159 -60q150 -58 212.5 -131t62.5 -196q0 -269 -154 -394t-458 -125q-248 0 -400 58q-39 14 -39 55zM836 1581q-49 -27 -93 -27h-120
q-20 0 -30.5 9.5t-10.5 21.5q0 30 26 51l262 201q46 37 93 37h190q47 0 47 -33q0 -36 -29 -53z" />
    <glyph glyph-name="sacute" unicode="&#x15b;" horiz-adv-x="925" 
d="M20 72v231q0 57 60 57h100q46 0 49 -47l9 -110q75 -17 163 -17q105 0 138 37q20 22 20 60q0 28 -21 50.5t-79 41.5l-121 39q-109 34 -164 90t-55 160q0 194 133 294q112 86 338 86q162 0 260 -28q41 -10 41 -49q0 -35 -27 -244q-3 -27 -18 -37t-43 -10h-101q-45 0 -45 43
q0 7 1 21t2 37.5t2 45.5q-64 11 -105 11q-94 0 -129 -25q-35 -27 -35 -72q0 -34 22 -54t85 -42l118 -41q209 -69 209 -248q0 -187 -104 -282q-108 -97 -344 -97q-222 0 -326 43q-33 13 -33 56zM641 1225q-37 -37 -84 -37h-100q-49 0 -49 37q0 24 20 47l219 239
q20 24 37.5 34.5t42.5 10.5h162q51 0 51 -38q0 -21 -27 -48z" />
    <glyph glyph-name="Scircumflex" unicode="&#x15c;" horiz-adv-x="1191" 
d="M53 86v291q0 29 15.5 44t42.5 15h116q49 0 52 -47l10 -151q115 -31 241 -31q130 0 198.5 42t68.5 154q0 57 -32 96.5t-124 73.5l-152 56q-136 50 -202 133t-66 211q0 253 155.5 376.5t448.5 123.5q213 0 344 -46q26 -9 35.5 -20.5t9.5 -30.5q0 -23 -49 -301
q-4 -28 -18 -37.5t-41 -9.5h-119q-47 0 -47 43q0 9 12 152q-99 16 -196 16q-234 0 -234 -190q0 -59 31.5 -98.5t116.5 -71.5l159 -60q150 -58 212.5 -131t62.5 -196q0 -269 -154 -394t-458 -125q-248 0 -400 58q-39 14 -39 55zM608 1554h-100q-47 0 -47 39q0 20 26 43
l236 205q59 55 108 55h111q49 0 84 -47l162 -211q14 -20 14 -41q0 -43 -61 -43h-82q-27 0 -44 9t-38 30l-115 119l-164 -121q-27 -21 -45.5 -29t-44.5 -8z" />
    <glyph glyph-name="scircumflex" unicode="&#x15d;" horiz-adv-x="925" 
d="M20 72v231q0 57 60 57h100q46 0 49 -47l9 -110q75 -17 163 -17q105 0 138 37q20 22 20 60q0 28 -21 50.5t-79 41.5l-121 39q-109 34 -164 90t-55 160q0 194 133 294q112 86 338 86q162 0 260 -28q41 -10 41 -49q0 -35 -27 -244q-3 -27 -18 -37t-43 -10h-101q-45 0 -45 43
q0 7 1 21t2 37.5t2 45.5q-64 11 -105 11q-94 0 -129 -25q-35 -27 -35 -72q0 -34 22 -54t85 -42l118 -41q209 -69 209 -248q0 -187 -104 -282q-108 -97 -344 -97q-222 0 -326 43q-33 13 -33 56zM428 1182h-98q-41 0 -41 35q0 20 24 47l219 239q49 53 89 53h127q43 0 69 -51
l125 -243q10 -23 10 -41q0 -39 -55 -39h-86q-45 0 -68 39l-86 145l-147 -145q-39 -39 -82 -39z" />
    <glyph glyph-name="Scedilla" unicode="&#x15e;" horiz-adv-x="1191" 
d="M524 -111q170 -7 170 -172q0 -145 -78.5 -200.5t-238.5 -55.5q-61 0 -119 15q-21 5 -30 15.5t-9 31.5q0 25 14 69q11 26 20.5 34.5t29.5 8.5q4 0 13.5 -1.5t22 -3.5t17.5 -3q18 -4 65 -4q46 0 63 15.5t17 54.5q0 27 -12.5 37t-40.5 10q-8 0 -27 -1t-24 -1q-43 3 -43 49
q0 5 18 66l41 122q-177 10 -301 56q-39 14 -39 55v291q0 29 15.5 44t42.5 15h116q49 0 52 -47l10 -151q115 -31 241 -31q130 0 198.5 42t68.5 154q0 57 -32 96.5t-124 73.5l-152 56q-136 50 -202 133t-66 211q0 253 155.5 376.5t448.5 123.5q213 0 344 -46q26 -9 35.5 -20.5
t9.5 -30.5q0 -23 -49 -301q-4 -28 -18 -37.5t-41 -9.5h-119q-47 0 -47 43q0 9 12 152q-99 16 -196 16q-234 0 -234 -190q0 -59 31.5 -98.5t116.5 -71.5l159 -60q150 -58 212.5 -131t62.5 -196q0 -256 -139.5 -381t-413.5 -136z" />
    <glyph glyph-name="scedilla" unicode="&#x15f;" horiz-adv-x="925" 
d="M403 -104q92 -4 127 -48.5t35 -115.5q0 -140 -77.5 -194t-233.5 -54q-73 0 -109 10q-36 8 -36 47q0 26 14 70q9 23 21 31t34 8q15 0 43 -4q27 -6 64 -6q44 0 59.5 14t15.5 53q0 25 -12.5 35t-38.5 10q-7 0 -26 -1t-23 -1q-41 3 -41 45q0 11 19 70l38 112q-147 7 -223 39
q-33 13 -33 56v231q0 57 60 57h100q46 0 49 -47l9 -110q75 -17 163 -17q105 0 138 37q20 22 20 60q0 28 -21 50.5t-79 41.5l-121 39q-109 34 -164 90t-55 160q0 194 133 294q112 86 338 86q162 0 260 -28q41 -10 41 -49q0 -35 -27 -244q-3 -27 -18 -37t-43 -10h-101
q-45 0 -45 43q0 7 1 21t2 37.5t2 45.5q-64 11 -105 11q-94 0 -129 -25q-35 -27 -35 -72q0 -34 22 -54t85 -42l118 -41q209 -69 209 -248q0 -187 -104 -282q-99 -89 -295 -95z" />
    <glyph glyph-name="Scaron" unicode="&#x160;" horiz-adv-x="1191" 
d="M53 86v291q0 29 15.5 44t42.5 15h116q49 0 52 -47l10 -151q115 -31 241 -31q130 0 198.5 42t68.5 154q0 57 -32 96.5t-124 73.5l-152 56q-136 50 -202 133t-66 211q0 253 155.5 376.5t448.5 123.5q213 0 344 -46q26 -9 35.5 -20.5t9.5 -30.5q0 -23 -49 -301
q-4 -28 -18 -37.5t-41 -9.5h-119q-47 0 -47 43q0 9 12 152q-99 16 -196 16q-234 0 -234 -190q0 -59 31.5 -98.5t116.5 -71.5l159 -60q150 -58 212.5 -131t62.5 -196q0 -269 -154 -394t-458 -125q-248 0 -400 58q-39 14 -39 55zM1063 1896h102q45 0 45 -38q0 -22 -24 -46
l-238 -204q-66 -54 -108 -54h-111q-46 0 -82 48l-162 208q-16 19 -16 43q0 18 16 30.5t47 12.5h82q28 0 44.5 -9t35.5 -29l115 -119l164 119q30 21 48 29.5t42 8.5z" />
    <glyph glyph-name="scaron" unicode="&#x161;" horiz-adv-x="925" 
d="M20 72v231q0 57 60 57h100q46 0 49 -47l9 -110q75 -17 163 -17q105 0 138 37q20 22 20 60q0 28 -21 50.5t-79 41.5l-121 39q-109 34 -164 90t-55 160q0 194 133 294q112 86 338 86q162 0 260 -28q41 -10 41 -49q0 -35 -27 -244q-3 -27 -18 -37t-43 -10h-101q-45 0 -45 43
q0 7 1 21t2 37.5t2 45.5q-64 11 -105 11q-94 0 -129 -25q-35 -27 -35 -72q0 -34 22 -54t85 -42l118 -41q209 -69 209 -248q0 -187 -104 -282q-108 -97 -344 -97q-222 0 -326 43q-33 13 -33 56zM819 1556h99q40 0 40 -36q0 -18 -24 -45l-219 -240q-49 -53 -88 -53h-127
q-44 0 -70 51l-125 244q-10 23 -10 41q0 16 13.5 27t41.5 11h86q26 0 41 -8.5t27 -29.5l86 -148l147 148q38 38 82 38z" />
    <glyph glyph-name="uni0162" unicode="&#x162;" horiz-adv-x="1255" 
d="M557 -111q170 -7 170 -172q0 -145 -78.5 -200.5t-238.5 -55.5q-61 0 -119 15q-21 5 -30 15.5t-9 31.5q0 25 14 69q11 27 20 35t29 8q4 0 14 -1.5t22.5 -3.5t17.5 -3q18 -4 65 -4q46 0 63 15.5t17 54.5q0 27 -12.5 37t-40.5 10q-7 0 -27 -1t-24 -1q-43 3 -43 49q0 5 18 66
l49 147h-139q-49 0 -49 41q0 22 26 139q9 47 64 47h78l213 981h-201l-25 -106q-11 -49 -61 -49h-119q-47 0 -47 43q0 24 49 295q9 55 68 55h1038q27 0 38 -9t11 -32q0 -13 -51 -305q-4 -28 -18 -37.5t-41 -9.5h-119q-45 0 -45 43q0 3 1 14.5t3 38t4 59.5h-201l-211 -981h84
q28 0 41 -8.5t13 -32.5q0 -20 -27 -139q-7 -28 -20.5 -37.5t-42.5 -9.5h-156z" />
    <glyph glyph-name="uni0163" unicode="&#x163;" horiz-adv-x="700" 
d="M352 -104q92 -4 127 -48.5t35 -115.5q0 -140 -77.5 -194t-233.5 -54q-73 0 -109 10q-37 8 -37 47q0 23 15 70q9 23 21 31t34 8q15 0 43 -4q27 -6 63 -6q44 0 60 14.5t16 52.5q0 25 -12.5 35t-38.5 10q-8 0 -26.5 -1t-22.5 -1q-41 3 -41 45q0 14 18 70l45 133
q-120 39 -120 172q0 65 18 145l104 478h-86q-45 0 -45 38q0 27 23 132q10 55 61 55h97q8 38 55 221q8 31 22 46t41 15h158q21 0 31 -8t10 -30q0 -14 -6 -50l-43 -194h141q28 0 38.5 -9t10.5 -28q0 -32 -24 -145q-10 -43 -66 -43h-143l-92 -414q-17 -84 -17 -117
q0 -27 21.5 -42t62.5 -15q20 0 48 3t34 3q35 0 41 -43q4 -37 4 -102q0 -23 -18.5 -41.5t-46.5 -24.5q-67 -14 -166 -18z" />
    <glyph glyph-name="Tcaron" unicode="&#x164;" horiz-adv-x="1255" 
d="M748 0h-453q-49 0 -49 41q0 22 26 139q9 47 64 47h78l213 981h-201l-25 -106q-11 -49 -61 -49h-119q-47 0 -47 43q0 24 49 295q9 55 68 55h1038q27 0 38 -9t11 -32q0 -13 -51 -305q-4 -28 -18 -37.5t-41 -9.5h-119q-45 0 -45 43q0 3 1 14.5t3 38t4 59.5h-201l-211 -981
h84q28 0 41 -8.5t13 -32.5q0 -20 -27 -139q-7 -28 -20.5 -37.5t-42.5 -9.5zM1069 1896h102q46 0 46 -38q0 -21 -25 -46l-238 -204q-66 -54 -108 -54h-111q-46 0 -82 48l-161 208q-17 20 -17 43q0 18 16.5 30.5t47.5 12.5h82q27 0 43.5 -8.5t35.5 -29.5l115 -119l164 119
q30 21 48 29.5t42 8.5z" />
    <glyph glyph-name="tcaron" unicode="&#x165;" horiz-adv-x="700" 
d="M508 793l-92 -414q-17 -84 -17 -117q0 -27 21.5 -42t62.5 -15q20 0 48 3t34 3q35 0 41 -43q4 -37 4 -102q0 -23 -18.5 -41.5t-46.5 -24.5q-83 -18 -193 -18q-241 0 -241 188q0 65 18 145l104 478h-86q-45 0 -45 38q0 27 23 132q10 55 61 55h97q8 38 55 221q8 31 22 46
t41 15h158q21 0 31 -8t10 -30q0 -14 -6 -50l-43 -194h141q28 0 38.5 -9t10.5 -28q0 -32 -24 -145q-10 -43 -66 -43h-143zM969 1567q59 0 59 -58q0 -47 -27 -120q-51 -147 -153 -244q-41 -41 -76 -41q-29 0 -65 24q-29 18 -29 43q0 20 24 56q88 114 103 260q5 40 23 60t57 20
h84z" />
    <glyph glyph-name="Tbar" unicode="&#x166;" horiz-adv-x="1255" 
d="M760 0h-453q-49 0 -49 41q0 17 27 139q9 47 63 47h78l94 441h-219q-45 0 -45 39q0 22 23 122q6 27 19 38.5t42 11.5h227l72 329h-201l-24 -106q-11 -49 -62 -49h-119q-47 0 -47 43q0 18 50 295q5 28 20 41.5t47 13.5h1038q27 0 38.5 -9t11.5 -32q0 -7 -52 -305
q-4 -28 -18 -37.5t-41 -9.5h-119q-45 0 -45 43q0 3 1 14.5t3 38t4 59.5h-200l-72 -329h242q45 0 45 -35q0 -16 -25 -133q-6 -27 -20 -35t-43 -8h-244l-94 -441h84q28 0 40.5 -8.5t12.5 -32.5q0 -20 -27 -139q-7 -28 -20.5 -37.5t-42.5 -9.5z" />
    <glyph glyph-name="tbar" unicode="&#x167;" horiz-adv-x="700" 
d="M508 793l-29 -125h137q46 0 46 -41q0 -22 -23 -107q-12 -43 -59 -43h-142l-22 -98q-17 -84 -17 -117q0 -27 21.5 -42t62.5 -15q20 0 48 3t34 3q35 0 41 -43q4 -37 4 -102q0 -23 -18.5 -41.5t-46.5 -24.5q-83 -18 -193 -18q-241 0 -241 188q0 65 18 145l35 162h-74
q-45 0 -45 39q0 16 18 98q14 54 64 54h78l28 125h-86q-45 0 -45 38q0 27 23 132q10 55 61 55h97q8 38 55 221q8 31 22 46t41 15h158q21 0 31 -8t10 -30q0 -14 -6 -50l-43 -194h141q28 0 38.5 -9t10.5 -28q0 -32 -24 -145q-10 -43 -66 -43h-143z" />
    <glyph glyph-name="Utilde" unicode="&#x168;" horiz-adv-x="1480" 
d="M1305 578q-38 -180 -65.5 -270t-74.5 -150q-75 -97 -199.5 -142t-324.5 -45q-467 0 -467 316q0 103 39 286l137 646h-71q-48 0 -48 41q0 43 25 139q12 47 63 47h433q27 0 39 -8t12 -33q0 -20 -25 -137q-7 -29 -22 -39t-43 -10h-78l-150 -693q-18 -95 -18 -161
q0 -156 225 -156q82 0 139.5 15t98.5 59q31 31 51.5 83.5t40.5 141.5l152 711h-87q-47 0 -47 41q0 20 27 139q9 47 61 47h420q29 0 41.5 -8t12.5 -33q0 -11 -27 -137q-6 -29 -20 -39t-44 -10h-65zM715 1554h-64q-26 0 -37.5 9t-11.5 32q0 20 19 64q85 196 223 196
q55 0 143 -53q70 -39 113 -39q24 0 40.5 12t37.5 48q24 41 71 41h56q49 0 49 -39q0 -28 -27 -80q-88 -180 -211 -180q-41 0 -76 10t-86 41q-59 35 -94 35q-46 0 -78 -54q-16 -25 -29 -34t-38 -9z" />
    <glyph glyph-name="utilde" unicode="&#x169;" horiz-adv-x="1282" 
d="M1042 0h-274q-32 0 -42.5 11t-10.5 36q0 19 4 39q-117 -111 -316 -111q-280 0 -280 187q0 72 20 166l101 465h-62q-47 0 -47 41q0 33 25 137q9 47 63 47h289q43 0 43 -39q0 -1 -6 -37l-123 -573q-10 -55 -10 -86q0 -80 127 -80q77 0 149 33q30 11 51 32q17 20 27 64
l98 461h-63q-47 0 -47 41q0 12 26 137q9 47 62 47h291q43 0 43 -39q0 -11 -6 -41l-154 -713h61q27 0 39.5 -8t12.5 -33q0 -27 -25 -137q-7 -28 -22.5 -37.5t-43.5 -9.5zM504 1198h-66q-24 0 -34.5 8.5t-10.5 32.5q0 19 17 64q79 196 217 196q41 0 135 -53q65 -39 104 -39
q24 0 39.5 11.5t36.5 47.5q21 41 70 41h55q25 0 36 -9t11 -32t-24 -77q-80 -181 -203 -181q-39 0 -71.5 11t-84.5 41q-57 34 -90 34q-42 0 -74 -51q-15 -25 -27.5 -35t-35.5 -10z" />
    <glyph glyph-name="Umacron" unicode="&#x16a;" horiz-adv-x="1480" 
d="M1305 578q-38 -180 -65.5 -270t-74.5 -150q-75 -97 -199.5 -142t-324.5 -45q-467 0 -467 316q0 103 39 286l137 646h-71q-48 0 -48 41q0 43 25 139q12 47 63 47h433q27 0 39 -8t12 -33q0 -20 -25 -137q-7 -29 -22 -39t-43 -10h-78l-150 -693q-18 -95 -18 -161
q0 -156 225 -156q82 0 139.5 15t98.5 59q31 31 51.5 83.5t40.5 141.5l152 711h-87q-47 0 -47 41q0 20 27 139q9 47 61 47h420q29 0 41.5 -8t12.5 -33q0 -11 -27 -137q-6 -29 -20 -39t-44 -10h-65zM1214 1595h-528q-45 0 -45 39q0 26 23 105q7 26 20.5 38.5t42.5 12.5h524
q47 0 47 -39q0 -31 -20 -106q-7 -28 -22 -39t-42 -11z" />
    <glyph glyph-name="umacron" unicode="&#x16b;" horiz-adv-x="1282" 
d="M1042 0h-274q-32 0 -42.5 11t-10.5 36q0 19 4 39q-117 -111 -316 -111q-280 0 -280 187q0 72 20 166l101 465h-62q-47 0 -47 41q0 33 25 137q9 47 63 47h289q43 0 43 -39q0 -1 -6 -37l-123 -573q-10 -55 -10 -86q0 -80 127 -80q77 0 149 33q30 11 51 32q17 20 27 64
l98 461h-63q-47 0 -47 41q0 12 26 137q9 47 62 47h291q43 0 43 -39q0 -11 -6 -41l-154 -713h61q27 0 39.5 -8t12.5 -33q0 -27 -25 -137q-7 -28 -22.5 -37.5t-43.5 -9.5zM969 1227h-459q-45 0 -45 39q0 32 18 106q8 27 22.5 39t43.5 12h455q49 0 49 -39q0 -31 -21 -110
q-7 -28 -20.5 -37.5t-42.5 -9.5z" />
    <glyph glyph-name="Ubreve" unicode="&#x16c;" horiz-adv-x="1480" 
d="M1305 578q-38 -180 -65.5 -270t-74.5 -150q-75 -97 -199.5 -142t-324.5 -45q-467 0 -467 316q0 103 39 286l137 646h-71q-48 0 -48 41q0 43 25 139q12 47 63 47h433q27 0 39 -8t12 -33q0 -20 -25 -137q-7 -29 -22 -39t-43 -10h-78l-150 -693q-18 -95 -18 -161
q0 -156 225 -156q82 0 139.5 15t98.5 59q31 31 51.5 83.5t40.5 141.5l152 711h-87q-47 0 -47 41q0 20 27 139q9 47 61 47h420q29 0 41.5 -8t12.5 -33q0 -11 -27 -137q-6 -29 -20 -39t-44 -10h-65zM1264 1874q23 0 32 -11.5t9 -35.5q0 -36 -21 -90q-25 -59 -63.5 -99.5
t-108.5 -66t-168 -25.5q-130 0 -212.5 59.5t-82.5 172.5q0 36 6 57q12 39 58 39h59q27 0 40.5 -9.5t14.5 -33.5q3 -31 15 -51q27 -58 121 -58q77 0 113 26t57 79q11 28 23.5 37.5t41.5 9.5h66z" />
    <glyph glyph-name="ubreve" unicode="&#x16d;" horiz-adv-x="1282" 
d="M1042 0h-274q-32 0 -42.5 11t-10.5 36q0 19 4 39q-117 -111 -316 -111q-280 0 -280 187q0 72 20 166l101 465h-62q-47 0 -47 41q0 33 25 137q9 47 63 47h289q43 0 43 -39q0 -1 -6 -37l-123 -573q-10 -55 -10 -86q0 -80 127 -80q77 0 149 33q30 11 51 32q17 20 27 64
l98 461h-63q-47 0 -47 41q0 12 26 137q9 47 62 47h291q43 0 43 -39q0 -11 -6 -41l-154 -713h61q27 0 39.5 -8t12.5 -33q0 -27 -25 -137q-7 -28 -22.5 -37.5t-43.5 -9.5zM1026 1516q39 0 39 -48q0 -35 -23 -94q-42 -100 -117.5 -152.5t-213.5 -52.5q-132 0 -202.5 64.5
t-70.5 157.5q0 42 6 69q8 56 54 56h55q26 0 37.5 -10.5t11.5 -35.5q0 -36 8 -55q23 -67 125 -67q77 0 109.5 28.5t56.5 91.5q18 48 64 48h61z" />
    <glyph glyph-name="Uring" unicode="&#x16e;" horiz-adv-x="1480" 
d="M1305 578q-38 -180 -65.5 -270t-74.5 -150q-75 -97 -199.5 -142t-324.5 -45q-467 0 -467 316q0 103 39 286l137 646h-71q-48 0 -48 41q0 43 25 139q12 47 63 47h433q27 0 39 -8t12 -33q0 -20 -25 -137q-7 -29 -22 -39t-43 -10h-78l-150 -693q-18 -95 -18 -161
q0 -156 225 -156q82 0 139.5 15t98.5 59q31 31 51.5 83.5t40.5 141.5l152 711h-87q-47 0 -47 41q0 20 27 139q9 47 61 47h420q29 0 41.5 -8t12.5 -33q0 -11 -27 -137q-6 -29 -20 -39t-44 -10h-65zM1147 1720q0 -98 -55 -155.5t-154 -57.5q-81 0 -127.5 45.5t-46.5 128.5
q0 98 55.5 156.5t151.5 58.5q82 0 129 -46t47 -130zM1061 1718q0 49 -26 75t-72 26q-50 0 -84.5 -35.5t-34.5 -91.5q0 -51 27 -79t75 -28q53 0 84 34.5t31 98.5z" />
    <glyph glyph-name="uring" unicode="&#x16f;" horiz-adv-x="1282" 
d="M1042 0h-274q-32 0 -42.5 11t-10.5 36q0 19 4 39q-117 -111 -316 -111q-280 0 -280 187q0 72 20 166l101 465h-62q-47 0 -47 41q0 33 25 137q9 47 63 47h289q43 0 43 -39q0 -1 -6 -37l-123 -573q-10 -55 -10 -86q0 -80 127 -80q77 0 149 33q30 11 51 32q17 20 27 64
l98 461h-63q-47 0 -47 41q0 12 26 137q9 47 62 47h291q43 0 43 -39q0 -11 -6 -41l-154 -713h61q27 0 39.5 -8t12.5 -33q0 -27 -25 -137q-7 -28 -22.5 -37.5t-43.5 -9.5zM928 1397q0 -102 -58.5 -162.5t-160.5 -60.5q-86 0 -134.5 47.5t-48.5 134.5q0 99 60 160t159 61
q87 0 135 -47t48 -133zM840 1395q0 102 -105 102q-54 0 -89.5 -36.5t-35.5 -96.5q0 -54 28 -82.5t79 -28.5q59 0 91 36.5t32 105.5z" />
    <glyph glyph-name="Uhungarumlaut" unicode="&#x170;" horiz-adv-x="1480" 
d="M1305 578q-38 -180 -65.5 -270t-74.5 -150q-75 -97 -199.5 -142t-324.5 -45q-467 0 -467 316q0 103 39 286l137 646h-71q-48 0 -48 41q0 43 25 139q12 47 63 47h433q27 0 39 -8t12 -33q0 -20 -25 -137q-7 -29 -22 -39t-43 -10h-78l-150 -693q-18 -95 -18 -161
q0 -156 225 -156q82 0 139.5 15t98.5 59q31 31 51.5 83.5t40.5 141.5l152 711h-87q-47 0 -47 41q0 20 27 139q9 47 61 47h420q29 0 41.5 -8t12.5 -33q0 -11 -27 -137q-6 -29 -20 -39t-44 -10h-65zM795 1581q-45 -27 -93 -27h-102q-20 0 -29.5 9.5t-9.5 21.5q0 26 27 51
l231 199q46 37 94 37h144q47 0 47 -35q0 -27 -31 -51zM1229 1581q-45 -27 -92 -27h-103q-20 0 -29.5 9.5t-9.5 21.5q0 26 27 51l231 199q46 37 95 37h143q47 0 47 -35q0 -27 -31 -51z" />
    <glyph glyph-name="uhungarumlaut" unicode="&#x171;" horiz-adv-x="1282" 
d="M1042 0h-274q-32 0 -42.5 11t-10.5 36q0 19 4 39q-117 -111 -316 -111q-280 0 -280 187q0 72 20 166l101 465h-62q-47 0 -47 41q0 33 25 137q9 47 63 47h289q43 0 43 -39q0 -1 -6 -37l-123 -573q-10 -55 -10 -86q0 -80 127 -80q77 0 149 33q30 11 51 32q17 20 27 64
l98 461h-63q-47 0 -47 41q0 12 26 137q9 47 62 47h291q43 0 43 -39q0 -11 -6 -41l-154 -713h61q27 0 39.5 -8t12.5 -33q0 -27 -25 -137q-7 -28 -22.5 -37.5t-43.5 -9.5zM641 1225q-32 -37 -82 -37h-80q-49 0 -49 39q0 22 19 47l178 237q33 45 80 45h122q50 0 50 -36
q0 -25 -23 -54zM993 1225q-37 -37 -84 -37h-78q-47 0 -47 39q0 22 19 47l178 237q36 45 78 45h125q49 0 49 -36q0 -23 -25 -54z" />
    <glyph glyph-name="Uogonek" unicode="&#x172;" horiz-adv-x="1480" 
d="M1305 578q-38 -180 -65.5 -270t-74.5 -150q-62 -80 -155 -124t-232 -57q-56 -38 -93 -69.5t-67 -82t-30 -104.5q0 -77 80 -77q21 0 53.5 5t36.5 5q18 0 26.5 -9t14.5 -34q8 -24 8 -62q0 -25 -12 -37t-41 -20q-48 -14 -148 -14q-122 0 -175.5 47.5t-53.5 140.5
q0 107 52 178t151 129q-406 19 -406 314q0 103 39 286l137 646h-71q-48 0 -48 41q0 43 25 139q12 47 63 47h433q27 0 39 -8t12 -33q0 -20 -25 -137q-7 -29 -22 -39t-43 -10h-78l-150 -693q-18 -95 -18 -161q0 -156 225 -156q82 0 139.5 15t98.5 59q31 31 51.5 83.5
t40.5 141.5l152 711h-87q-47 0 -47 41q0 20 27 139q9 47 61 47h420q29 0 41.5 -8t12.5 -33q0 -11 -27 -137q-6 -29 -20 -39t-44 -10h-65z" />
    <glyph glyph-name="uogonek" unicode="&#x173;" horiz-adv-x="1282" 
d="M1042 0h-104q-12 -9 -43.5 -31.5t-41.5 -30l-34 -25.5t-31 -26.5t-23 -25t-21 -28t-13 -28.5t-10 -34t-2 -37q0 -72 78 -72q20 0 51.5 4t34.5 4q19 0 27 -8t14 -31q8 -36 8 -61q0 -24 -11.5 -34.5t-41.5 -18.5q-59 -15 -142 -15q-118 0 -170.5 46t-52.5 135
q0 113 63.5 186.5t180.5 130.5q-26 1 -34.5 12t-8.5 35q0 19 4 39q-117 -111 -316 -111q-280 0 -280 187q0 72 20 166l101 465h-62q-47 0 -47 41q0 33 25 137q9 47 63 47h289q43 0 43 -39q0 -1 -6 -37l-123 -573q-10 -55 -10 -86q0 -80 127 -80q77 0 149 33q30 11 51 32
q17 20 27 64l98 461h-63q-47 0 -47 41q0 12 26 137q9 47 62 47h291q43 0 43 -39q0 -11 -6 -41l-154 -713h61q27 0 39.5 -8t12.5 -33q0 -27 -25 -137q-7 -28 -22.5 -37.5t-43.5 -9.5z" />
    <glyph glyph-name="Wcircumflex" unicode="&#x174;" horiz-adv-x="2009" 
d="M575 -2h-167q-29 0 -45.5 18.5t-16.5 44.5l-37 1158h-59q-47 0 -47 41q0 25 26 139q9 47 64 47h430q28 0 40.5 -8t12.5 -33q0 -28 -26 -137q-7 -29 -21.5 -39t-44.5 -10h-96q10 -487 10 -811q53 130 132 301t304 645q17 37 36 55t52 18h146q52 0 55 -65q41 -660 41 -954
q85 226 348 811h-94q-45 0 -45 41q0 36 24 139q12 47 64 47h430q27 0 40 -8t13 -33q0 -28 -26 -137q-7 -29 -21.5 -39t-42.5 -10h-59l-531 -1162q-26 -59 -84 -59h-168q-61 0 -65 61q-15 358 -22.5 644.5t-8.5 302.5q-127 -289 -454 -949q-29 -59 -87 -59zM991 1554h-100
q-47 0 -47 39q0 20 26 43l236 205q59 55 108 55h111q49 0 84 -47l162 -211q14 -20 14 -41q0 -43 -61 -43h-82q-27 0 -44 9t-38 30l-115 119l-164 -121q-27 -21 -45.5 -29t-44.5 -8z" />
    <glyph glyph-name="wcircumflex" unicode="&#x175;" horiz-adv-x="1630" 
d="M1612 793h-33l-385 -744q-25 -51 -78 -51h-153q-59 0 -62 53q-15 150 -29 293t-19.5 200t-8.5 95q-95 -195 -309 -590q-26 -51 -80 -51h-150q-29 0 -45 15t-18 40l-64 740h-31q-49 0 -49 41q0 22 27 137q12 47 63 47h351q26 0 38.5 -8.5t12.5 -32.5q0 -29 -25 -137
q-7 -28 -21.5 -37.5t-43.5 -9.5h-43q16 -331 16 -449q82 183 289 578q32 63 88 63h117q47 0 57 -65q63 -474 72 -578q93 238 188 451h-47q-47 0 -47 41q0 22 27 137q9 47 61 47h375q26 0 38.5 -8.5t12.5 -32.5q0 -21 -27 -137q-6 -28 -20.5 -37.5t-44.5 -9.5zM733 1182h-98
q-41 0 -41 35q0 20 24 47l220 239q49 53 88 53h127q43 0 69 -51l125 -243q10 -23 10 -41q0 -39 -55 -39h-86q-25 0 -39.5 9t-27.5 30l-86 145l-148 -145q-39 -39 -82 -39z" />
    <glyph glyph-name="Ycircumflex" unicode="&#x176;" horiz-adv-x="1331" 
d="M1415 1219h-72l-514 -611l-81 -381h81q27 0 40.5 -9t13.5 -32q0 -20 -27 -139q-7 -28 -21 -37.5t-42 -9.5h-449q-47 0 -47 41q0 14 25 139q12 47 65 47h76l82 373l-250 619h-72q-47 0 -47 41q0 20 27 139q12 47 63 47h420q28 0 40.5 -8t12.5 -33q0 -28 -26 -137
q-7 -30 -21 -39.5t-43 -9.5h-37q92 -248 123 -347q80 121 266 347h-26q-47 0 -47 41q0 25 26 139q12 47 64 47h434q27 0 40 -8t13 -31q0 -27 -24 -139q-7 -29 -22.5 -39t-43.5 -10zM653 1554h-100q-47 0 -47 39q0 20 26 43l236 205q59 55 109 55h110q49 0 84 -47l162 -211
q14 -20 14 -41q0 -43 -61 -43h-82q-27 0 -44 9t-38 30l-115 119l-164 -121q-27 -21 -45.5 -29t-44.5 -8z" />
    <glyph glyph-name="ycircumflex" unicode="&#x177;" horiz-adv-x="1095" 
d="M1087 793h-34l-533 -875q-11 -18 -35 -58t-33 -54.5t-28 -45.5t-28.5 -44.5t-25.5 -36t-28 -36t-27.5 -29.5t-31.5 -30q-112 -96 -303 -96q-100 0 -146 16q-15 6 -25 20.5t-10 31.5q0 22 14 66.5t29 72.5q14 26 47 26q7 0 43 -4t56 -4q88 0 147 62q68 74 150 215l16 28
l-143 775h-39q-47 0 -47 41t24 137q12 47 64 47h352q27 0 40 -9t13 -32q0 -25 -26 -137q-7 -28 -22 -37.5t-48 -9.5h-37q45 -293 66 -476q133 253 266 476h-47q-45 0 -45 41q0 35 24 137q12 47 64 47h366q27 0 39.5 -9t12.5 -32q0 -29 -25 -137q-7 -28 -22 -37.5t-44 -9.5z
M463 1182h-98q-41 0 -41 35q0 20 24 47l219 239q49 53 88 53h127q44 0 70 -51l125 -243q10 -23 10 -41q0 -39 -55 -39h-86q-45 0 -68 39l-86 145l-147 -145q-39 -39 -82 -39z" />
    <glyph glyph-name="Ydieresis" unicode="&#x178;" horiz-adv-x="1331" 
d="M1415 1219h-72l-514 -611l-81 -381h81q27 0 40.5 -9t13.5 -32q0 -20 -27 -139q-7 -28 -21 -37.5t-42 -9.5h-449q-47 0 -47 41q0 14 25 139q12 47 65 47h76l82 373l-250 619h-72q-47 0 -47 41q0 20 27 139q12 47 63 47h420q28 0 40.5 -8t12.5 -33q0 -28 -26 -137
q-7 -30 -21 -39.5t-43 -9.5h-37q92 -248 123 -347q80 121 266 347h-26q-47 0 -47 41q0 25 26 139q12 47 64 47h434q27 0 40 -8t13 -31q0 -27 -24 -139q-7 -29 -22.5 -39t-43.5 -10zM813 1735q0 -32 -10.5 -71.5t-32.5 -61.5q-40 -37 -102 -37q-111 0 -111 100q0 85 39 127
q38 41 106 41q54 0 82.5 -22t28.5 -76zM1214 1735q0 -32 -10.5 -71.5t-32.5 -61.5q-40 -37 -102 -37q-113 0 -113 100q0 83 41 127q38 41 107 41q53 0 81.5 -22t28.5 -76z" />
    <glyph glyph-name="Zacute" unicode="&#x179;" horiz-adv-x="1292" 
d="M1110 0h-1053q-61 0 -61 57q0 23 12 84q7 37 20 57.5t46 55.5q483 535 854 954h-477l-29 -108q-7 -28 -20.5 -37.5t-39.5 -9.5h-116q-45 0 -45 43q0 17 51 295q10 55 72 55h950q33 0 49 -9t16 -36q0 -31 -12 -90q-9 -50 -25 -79t-63 -83q-561 -634 -817 -911h553l29 116
q12 54 65 54h113q47 0 47 -46q0 -15 -49 -307q-10 -55 -70 -55zM868 1581q-49 -27 -92 -27h-121q-20 0 -30.5 9.5t-10.5 21.5q0 29 27 51l262 201q46 37 92 37h191q47 0 47 -33q0 -36 -29 -53z" />
    <glyph glyph-name="zacute" unicode="&#x17a;" horiz-adv-x="1019" 
d="M827 0h-815q-47 0 -47 41q0 29 15 88q15 51 53 92l569 574h-270l-23 -93q-7 -28 -20.5 -37.5t-40.5 -9.5h-105q-47 0 -47 41q0 39 37 269q10 53 68 53h764q49 0 49 -39q0 -21 -13 -90q-7 -36 -20 -56.5t-55 -62.5l-531 -547h293l29 103q7 28 22 37.5t45 9.5h105
q45 0 45 -41q0 -46 -39 -279q-10 -53 -68 -53zM682 1225q-37 -37 -84 -37h-100q-49 0 -49 37q0 24 20 47l219 239q20 24 37.5 34.5t42.5 10.5h162q51 0 51 -38q0 -21 -27 -48z" />
    <glyph glyph-name="Zdotaccent" unicode="&#x17b;" horiz-adv-x="1292" 
d="M1110 0h-1053q-61 0 -61 57q0 23 12 84q7 37 20 57.5t46 55.5q483 535 854 954h-477l-29 -108q-7 -28 -20.5 -37.5t-39.5 -9.5h-116q-45 0 -45 43q0 17 51 295q10 55 72 55h950q33 0 49 -9t16 -36q0 -31 -12 -90q-9 -50 -25 -79t-63 -83q-561 -634 -817 -911h553l29 116
q12 54 65 54h113q47 0 47 -46q0 -15 -49 -307q-10 -55 -70 -55zM952 1735q0 -32 -10.5 -71.5t-32.5 -61.5q-37 -37 -102 -37q-111 0 -111 100q0 80 41 127q38 41 105 41q55 0 82.5 -22t27.5 -76z" />
    <glyph glyph-name="zdotaccent" unicode="&#x17c;" horiz-adv-x="1019" 
d="M827 0h-815q-47 0 -47 41q0 29 15 88q15 51 53 92l569 574h-270l-23 -93q-7 -28 -20.5 -37.5t-40.5 -9.5h-105q-47 0 -47 41q0 39 37 269q10 53 68 53h764q49 0 49 -39q0 -21 -13 -90q-7 -36 -20 -56.5t-55 -62.5l-531 -547h293l29 103q7 28 22 37.5t45 9.5h105
q45 0 45 -41q0 -46 -39 -279q-10 -53 -68 -53zM745 1380q0 -31 -10.5 -71t-32.5 -62q-38 -35 -102 -35q-111 0 -111 101q0 78 41 125q40 43 105 43q54 0 82 -23t28 -78z" />
    <glyph glyph-name="Zcaron" unicode="&#x17d;" horiz-adv-x="1292" 
d="M1110 0h-1053q-61 0 -61 57q0 23 12 84q7 37 20 57.5t46 55.5q483 535 854 954h-477l-29 -108q-7 -28 -20.5 -37.5t-39.5 -9.5h-116q-45 0 -45 43q0 17 51 295q10 55 72 55h950q33 0 49 -9t16 -36q0 -31 -12 -90q-9 -50 -25 -79t-63 -83q-561 -634 -817 -911h553l29 116
q12 54 65 54h113q47 0 47 -46q0 -15 -49 -307q-10 -55 -70 -55zM1073 1896h103q45 0 45 -38q0 -21 -25 -46l-238 -204q-66 -54 -108 -54h-111q-46 0 -82 48l-161 208q-17 20 -17 43q0 18 16.5 30.5t47.5 12.5h82q28 0 44.5 -9t35.5 -29l114 -119l164 119q30 21 48 29.5
t42 8.5z" />
    <glyph glyph-name="zcaron" unicode="&#x17e;" horiz-adv-x="1019" 
d="M827 0h-815q-47 0 -47 41q0 29 15 88q15 51 53 92l569 574h-270l-23 -93q-7 -28 -20.5 -37.5t-40.5 -9.5h-105q-47 0 -47 41q0 39 37 269q10 53 68 53h764q49 0 49 -39q0 -21 -13 -90q-7 -36 -20 -56.5t-55 -62.5l-531 -547h293l29 103q7 28 22 37.5t45 9.5h105
q45 0 45 -41q0 -46 -39 -279q-10 -53 -68 -53zM827 1556h99q41 0 41 -36q0 -16 -25 -45l-219 -240q-49 -53 -88 -53h-127q-44 0 -70 51l-125 244q-10 23 -10 41q0 16 13.5 27t41.5 11h86q26 0 41 -8.5t27 -29.5l86 -148l147 148q38 38 82 38z" />
    <glyph glyph-name="longs" unicode="&#x17f;" horiz-adv-x="645" 
d="M438 0h-448q-47 0 -47 41q0 28 26 137q12 47 62 47h69l203 959q46 214 154 293q57 42 128.5 58.5t180.5 16.5q106 0 143 -18q25 -12 25 -47q0 -43 -25 -127q-10 -35 -55 -35q-6 0 -41 3t-57 3q-86 0 -125 -39q-37 -37 -60 -145l-198 -922h104q27 0 40 -9t13 -32t-26 -137
q-7 -28 -22 -37.5t-44 -9.5z" />
    <glyph glyph-name="florin" unicode="&#x192;" horiz-adv-x="1058" 
d="M563 131q-46 -222 -143 -297q-58 -42 -128.5 -62t-187.5 -20q-90 0 -143 17q-27 12 -27 51q0 46 25 131q12 41 57 41q6 0 40.5 -4t56.5 -4q84 0 120 39q40 46 60 149l115 549h-166q-37 0 -37 33q0 26 12 96q8 41 53 41h170l33 151q43 204 145 289q54 42 133 62t205 20
q48 0 118 -7t97 -17q35 -15 35 -50q0 -32 -39 -249q-9 -56 -63 -56h-96q-45 0 -45 45q0 25 4 103q-18 2 -56 2q-88 0 -125 -60q-24 -43 -43 -125l-24 -108h213q22 0 32.5 -9t10.5 -32q0 -18 -14 -90q-12 -39 -58 -39h-219z" />
    <glyph glyph-name="Aringacute" unicode="&#x1fa;" horiz-adv-x="1396" 
d="M1085 1567q0 -82 -45 -133q18 -15 21 -48l166 -1159h47q28 0 40.5 -8.5t12.5 -32.5q0 -20 -27 -139q-7 -28 -21.5 -37.5t-43.5 -9.5h-410q-45 0 -45 41q0 27 25 139q12 47 63 47h82l-26 205h-437l-120 -205h86q28 0 40.5 -8.5t12.5 -32.5q0 -20 -27 -139
q-7 -28 -21.5 -37.5t-43.5 -9.5h-445q-47 0 -47 41q0 27 25 139q12 47 63 47h51l670 1166q11 23 31 39q-29 40 -29 100q0 88 51 141t140 53q76 0 118.5 -41.5t42.5 -117.5zM852 1120q-40 -79 -260 -467h315zM997 1792q-45 -25 -77 -25h-78q-16 0 -26.5 10t-10.5 23
q0 25 20 41l209 158q42 31 82 31h131q43 0 43 -35q0 -31 -26 -45zM1004 1567q0 41 -23.5 63.5t-65.5 22.5q-44 0 -74 -30.5t-30 -80.5q0 -44 24.5 -69t67.5 -25h8q42 3 67.5 34t25.5 85z" />
    <glyph glyph-name="aringacute" unicode="&#x1fb;" horiz-adv-x="1226" 
d="M997 0h-262q-31 0 -43 10t-12 33q0 3 6 45q-95 -113 -311 -113q-148 0 -227.5 80.5t-79.5 241.5q0 111 22 225t77.5 229t135.5 181q71 58 156.5 80t208.5 22q69 0 129 -18.5t84 -48.5q13 36 28 48.5t43 12.5h127q54 0 54 -43q0 -21 -11 -74l-149 -686h63q27 0 39 -8
t12 -33q0 -34 -24 -137q-7 -28 -22 -37.5t-44 -9.5zM725 328l98 460q-52 25 -145 25q-129 0 -199 -70q-57 -55 -91 -165t-34 -209q0 -89 36 -128.5t114 -39.5q113 0 170 47q24 20 33 35q7 13 18 45zM969 1397q0 -102 -60 -162.5t-164 -60.5q-84 0 -132 47.5t-48 134.5
q0 99 60 160t159 61q87 0 136 -47t49 -133zM881 1395q0 51 -28 77.5t-79 26.5q-55 0 -90 -36.5t-35 -98.5q0 -55 28 -84t79 -29q59 0 92 37.5t33 106.5zM862 1673q-35 -35 -80 -35h-73q-47 0 -47 37q0 25 18 43l217 234q38 41 76 41h129q25 0 37 -10t12 -25q0 -24 -23 -47z
" />
    <glyph glyph-name="AEacute" unicode="&#x1fc;" horiz-adv-x="2070" 
d="M449 0h-472q-49 0 -49 41q0 17 27 139q12 47 63 47h68l834 992h-105q-47 0 -47 41q0 20 27 139q9 47 61 47h1198q49 0 49 -43q0 -13 -51 -303q-4 -27 -18.5 -37t-40.5 -10h-121q-45 0 -45 43q0 15 12 123h-346l-74 -355h400q51 0 51 -39q0 -34 -25 -145q-11 -47 -67 -47
h-408l-88 -406h422l31 113q14 53 59 53h117q51 0 51 -41q0 -18 -53 -295q-5 -30 -19 -43.5t-43 -13.5h-960q-47 0 -47 41q0 22 26 139q9 47 64 47h67l45 197h-454l-168 -197h67q27 0 40.5 -9t13.5 -32q0 -20 -27 -139q-7 -28 -21.5 -37.5t-43.5 -9.5zM766 655h328l116 549
q-328 -408 -444 -549zM1536 1581q-50 -27 -92 -27h-121q-20 0 -30.5 9.5t-10.5 21.5q0 29 27 51l262 201q46 37 92 37h190q24 0 36 -9.5t12 -23.5q0 -36 -29 -53z" />
    <glyph glyph-name="aeacute" unicode="&#x1fd;" horiz-adv-x="1718" 
d="M803 88q-154 -113 -410 -113q-155 0 -240 82.5t-85 243.5q0 173 59 353t176 276q75 60 159 85t202 25q125 0 194 -49l6 19q17 45 66 45h86q47 0 47 -39q0 -17 -4 -45l-4 -23q37 43 112 68.5t152 25.5q198 0 278 -72t80 -216q0 -105 -28 -248q-10 -51 -35 -64
q-18 -12 -58 -12h-552q-7 -58 -7 -76q0 -90 52 -122.5t159 -32.5q124 0 248 30q44 11 55 11q29 0 39 -33q21 -74 21 -111q0 -41 -41 -59q-72 -30 -185 -46t-221 -16q-127 0 -204.5 27t-116.5 86zM745 295q-2 18 -2 55q0 124 41 295l35 146q-49 22 -141 22q-128 0 -201 -70
q-57 -55 -90 -164.5t-33 -209.5q0 -89 36 -128.5t114 -39.5q157 0 241 94zM1036 623h373q16 59 16 114q0 59 -32 88t-115 29q-96 0 -152 -47q-58 -49 -90 -184zM1053 1225q-37 -37 -84 -37h-101q-49 0 -49 37q0 23 21 47l219 239q20 24 37.5 34.5t42.5 10.5h161
q24 0 38 -10.5t14 -27.5q0 -21 -27 -48z" />
    <glyph glyph-name="Oslashacute" unicode="&#x1fe;" horiz-adv-x="1427" 
d="M193 -25q-16 -16 -31 -16q-18 0 -66 45q-12 10 -12 23q0 16 16 32l80 95q-65 103 -65 278q0 137 26 288t89.5 311t154.5 257q172 185 481 185q254 0 375 -72l82 96q16 19 31 19q13 0 26 -13q52 -41 52 -53t-15 -35l-82 -96q74 -104 74 -281q0 -91 -15.5 -206.5
t-46 -240.5t-84 -243.5t-120.5 -191.5q-89 -98 -208 -140.5t-286 -42.5q-254 0 -381 90zM1112 993q0 24 -4 60l-655 -770q57 -76 219 -76q97 0 160 26t114 101q72 106 119 318.5t47 340.5zM410 467v-43l645 758q-58 55 -207 55q-168 0 -258 -109q-83 -103 -131.5 -307
t-48.5 -354zM954 1581q-49 -27 -92 -27h-121q-20 0 -30.5 9.5t-10.5 21.5q0 29 27 51l262 201q46 37 92 37h191q47 0 47 -33q0 -36 -29 -53z" />
    </font>
</defs>
</svg>
